  0
SECTION
  2
HEADER
  9
$ACADVER
  1
AC1009
  9
$INSBASE
 10
0.0
 20
0.0
 30
0.0
  9
$EXTMIN
 10
2398.187113
 20
5208.17
 30
0.0
  9
$EXTMAX
 10
60951.706667
 20
28502.733333
 30
0.0
  9
$LIMMIN
 10
-6566.480592
 20
-8312.394531
  9
$LIMMAX
 10
107769.5
 20
53865.304688
  9
$ORTHOMODE
 70
     1
  9
$REGENMODE
 70
     1
  9
$FILLMODE
 70
     1
  9
$QTEXTMODE
 70
     0
  9
$MIRRTEXT
 70
     1
  9
$DRAGMODE
 70
     2
  9
$LTSCALE
 40
1.0
  9
$OSMODE
 70
     9
  9
$ATTMODE
 70
     1
  9
$TEXTSIZE
 40
3.15
  9
$TRACEWID
 40
0.05
  9
$TEXTSTYLE
  7
STANDARD
  9
$CLAYER
  8
0
  9
$CELTYPE
  6
BYLAYER
  9
$CECOLOR
 62
   256
  9
$DIMSCALE
 40
0.0
  9
$DIMASZ
 40
20.0
  9
$DIMEXO
 40
1.5625
  9
$DIMDLI
 40
9.5
  9
$DIMRND
 40
100.0
  9
$DIMDLE
 40
0.0
  9
$DIMEXE
 40
4.5
  9
$DIMTP
 40
0.0
  9
$DIMTM
 40
0.0
  9
$DIMTXT
 40
500.0
  9
$DIMCEN
 40
2.25
  9
$DIMTSZ
 40
0.0
  9
$DIMTOL
 70
     0
  9
$DIMLIM
 70
     0
  9
$DIMTIH
 70
     0
  9
$DIMTOH
 70
     0
  9
$DIMSE1
 70
     0
  9
$DIMSE2
 70
     0
  9
$DIMTAD
 70
     1
  9
$DIMZIN
 70
     0
  9
$DIMBLK
  1

  9
$DIMASO
 70
     1
  9
$DIMSHO
 70
     1
  9
$DIMPOST
  1

  9
$DIMAPOST
  1

  9
$DIMALT
 70
     0
  9
$DIMALTD
 70
     2
  9
$DIMALTF
 40
25.4
  9
$DIMLFAC
 40
1.0
  9
$DIMTOFL
 70
     0
  9
$DIMTVP
 40
0.0
  9
$DIMTIX
 70
     0
  9
$DIMSOXD
 70
     0
  9
$DIMSAH
 70
     0
  9
$DIMBLK1
  1

  9
$DIMBLK2
  1

  9
$DIMSTYLE
  2
STANDARD
  9
$DIMCLRD
 70
     0
  9
$DIMCLRE
 70
     0
  9
$DIMCLRT
 70
     0
  9
$DIMTFAC
 40
1.0
  9
$DIMGAP
 40
70.0
  9
$LUNITS
 70
     2
  9
$LUPREC
 70
     4
  9
$SKETCHINC
 40
0.1
  9
$FILLETRAD
 40
0.0
  9
$AUNITS
 70
     0
  9
$AUPREC
 70
     0
  9
$MENU
  1
.
  9
$ELEVATION
 40
0.0
  9
$PELEVATION
 40
0.0
  9
$THICKNESS
 40
0.0
  9
$LIMCHECK
 70
     0
  9
$BLIPMODE
 70
     1
  9
$CHAMFERA
 40
0.0
  9
$CHAMFERB
 40
0.0
  9
$SKPOLY
 70
     0
  9
$TDCREATE
 40
2452697.425259
  9
$TDUPDATE
 40
2452697.425259
  9
$TDINDWG
 40
0.0
  9
$TDUSRTIMER
 40
0.0
  9
$USRTIMER
 70
     1
  9
$ANGBASE
 50
0.0
  9
$ANGDIR
 70
     0
  9
$PDMODE
 70
    35
  9
$PDSIZE
 40
0.0
  9
$PLINEWID
 40
0.0
  9
$COORDS
 70
     1
  9
$SPLFRAME
 70
     0
  9
$SPLINETYPE
 70
     6
  9
$SPLINESEGS
 70
     8
  9
$ATTDIA
 70
     0
  9
$ATTREQ
 70
     1
  9
$HANDLING
 70
     1
  9
$HANDSEED
  5
3B9ACB27
  9
$SURFTAB1
 70
     6
  9
$SURFTAB2
 70
     6
  9
$SURFTYPE
 70
     6
  9
$SURFU
 70
     6
  9
$SURFV
 70
     6
  9
$UCSNAME
  2

  9
$UCSORG
 10
0.0
 20
0.0
 30
0.0
  9
$UCSXDIR
 10
1.0
 20
0.0
 30
0.0
  9
$UCSYDIR
 10
0.0
 20
1.0
 30
0.0
  9
$PUCSNAME
  2

  9
$PUCSORG
 10
0.0
 20
0.0
 30
0.0
  9
$PUCSXDIR
 10
1.0
 20
0.0
 30
0.0
  9
$PUCSYDIR
 10
0.0
 20
1.0
 30
0.0
  9
$USERI1
 70
     0
  9
$USERI2
 70
     0
  9
$USERI3
 70
     0
  9
$USERI4
 70
     0
  9
$USERI5
 70
     0
  9
$USERR1
 40
0.0
  9
$USERR2
 40
0.0
  9
$USERR3
 40
0.0
  9
$USERR4
 40
0.0
  9
$USERR5
 40
0.0
  9
$WORLDVIEW
 70
     1
  9
$SHADEDGE
 70
     3
  9
$SHADEDIF
 70
    70
  9
$TILEMODE
 70
     1
  9
$MAXACTVP
 70
    16
  9
$PLIMCHECK
 70
     0
  9
$PEXTMIN
 10
1.000000E+020
 20
1.000000E+020
 30
1.000000E+020
  9
$PEXTMAX
 10
-1.000000E+020
 20
-1.000000E+020
 30
-1.000000E+020
  9
$PLIMMIN
 10
0.0
 20
0.0
  9
$PLIMMAX
 10
12.0
 20
9.0
  9
$UNITMODE
 70
     0
  9
$VISRETAIN
 70
     0
  9
$PLINEGEN
 70
     0
  9
$PSLTSCALE
 70
     1
  0
ENDSEC
  0
SECTION
  2
TABLES
  0
TABLE
  2
VPORT
 70
     2
  0
VPORT
  2
*ACTIVE
 70
     0
 10
0.0
 20
0.0
 11
1.0
 21
1.0
 12
31537.080811
 22
16856.215301
 13
0.0
 23
0.0
 14
1.0
 24
1.0
 15
0.0
 25
0.0
 16
0.0
 26
0.0
 36
1.0
 17
0.0
 27
0.0
 37
0.0
 40
31497.826687
 41
1.880081
 42
50.0
 43
0.0
 44
0.0
 50
0.0
 51
0.0
 71
     0
 72
   100
 73
     1
 74
     1
 75
     1
 76
     0
 77
     0
 78
     0
  0
ENDTAB
  0
TABLE
  2
LTYPE
 70
     1
  0
LTYPE
  2
CONTINUOUS
 70
     0
  3
Solid line
 72
    65
 73
     0
 40
0.0
  0
ENDTAB
  0
TABLE
  2
LAYER
 70
     2
  0
LAYER
  2
0
 70
     0
 62
     7
  6
CONTINUOUS
  0
LAYER
  2
DEFPOINTS
 70
     0
 62
     7
  6
CONTINUOUS
  0
ENDTAB
  0
TABLE
  2
STYLE
 70
     1
  0
STYLE
  2
STANDARD
 70
     0
 40
0.0
 41
0.714286
 50
0.0
 71
     0
 42
2.8
  3
txt
  4
bigfont
  0
ENDTAB
  0
TABLE
  2
VIEW
 70
     0
  0
ENDTAB
  0
TABLE
  2
UCS
 70
     0
  0
ENDTAB
  0
TABLE
  2
APPID
 70
     3
  0
APPID
  2
ACAD
 70
     0
  0
APPID
  2
CONTENTTABDATA
 70
     0
  0
APPID
  2
CONTENTCURRENTTAB
 70
     0
  0
ENDTAB
  0
TABLE
  2
DIMSTYLE
 70
     1
  0
DIMSTYLE
  2
STANDARD
 70
     0
  3

  4

  5

  6

  7

 40
1.0
 41
4.5
 42
1.5625
 43
9.5
 44
4.5
 45
0.0
 46
0.0
 47
0.0
 48
0.0
140
3.5
141
2.25
142
0.0
143
25.4
144
1.0
145
0.0
146
1.0
147
0.09
 71
     0
 72
     0
 73
     1
 74
     1
 75
     0
 76
     0
 77
     0
 78
     0
170
     0
171
     2
172
     0
173
     0
174
     0
175
     0
176
     0
177
     0
178
     0
  0
ENDTAB
  0
ENDSEC
  0
SECTION
  2
BLOCKS
  0
BLOCK
  8
0
  2
$MODEL_SPACE
 70
     0
 10
0.0
 20
0.0
 30
0.0
  3
$MODEL_SPACE
  1

  0
ENDBLK
  5
3B9ACB20
  8
0
  0
BLOCK
 67
     1
  8
0
  2
$PAPER_SPACE
 70
     0
 10
0.0
 20
0.0
 30
0.0
  3
$PAPER_SPACE
  1

  0
ENDBLK
  5
3B9ACB1E
 67
     1
  8
0
  0
BLOCK
  8
0
  2
*D0
 70
     1
 10
0.0
 20
0.0
 30
0.0
  3
*D0
  1

  0
LINE
  5
3B9ACA70
  8
0
  6
BYBLOCK
 62
     0
 10
14109.9
 20
16639.2375
 30
0.0
 11
14109.9
 21
13425.3
 31
0.0
  0
LINE
  5
3B9ACA71
  8
0
  6
BYBLOCK
 62
     0
 10
2955.04
 20
15684.2375
 30
0.0
 11
2955.04
 21
13425.3
 31
0.0
  0
LINE
  5
3B9ACA72
  8
0
  6
BYBLOCK
 62
     0
 10
14089.9
 20
13429.8
 30
0.0
 11
2975.04
 21
13429.8
 31
0.0
  0
SOLID
  5
3B9ACA73
  8
0
  6
BYBLOCK
 62
     0
 10
14089.9
 20
13433.133333
 30
0.0
 11
14089.9
 21
13426.466667
 31
0.0
 12
14109.9
 22
13429.8
 32
0.0
 13
14109.9
 23
13429.8
 33
0.0
  0
SOLID
  5
3B9ACA74
  8
0
  6
BYBLOCK
 62
     0
 10
2975.04
 20
13433.133333
 30
0.0
 11
2975.04
 21
13426.466667
 31
0.0
 12
2955.04
 22
13429.8
 32
0.0
 13
2955.04
 23
13429.8
 33
0.0
  0
TEXT
  5
3B9ACA75
  8
0
  6
BYBLOCK
 62
     0
 10
7877.707833
 20
13499.8
 30
0.0
 40
500.0
  1
11155
 41
0.714286
  0
POINT
  5
3B9ACA76
  8
DEFPOINTS
  6
BYBLOCK
 62
     0
 10
14109.9
 20
16640.8
 30
0.0
  0
POINT
  5
3B9ACA77
  8
DEFPOINTS
  6
BYBLOCK
 62
     0
 10
2955.04
 20
15685.8
 30
0.0
  0
POINT
  5
3B9ACA78
  8
DEFPOINTS
  6
BYBLOCK
 62
     0
 10
2955.04
 20
13429.8
 30
0.0
  0
ENDBLK
  5
3B9ACA79
  8
0
  0
BLOCK
  8
0
  2
*D1
 70
     1
 10
0.0
 20
0.0
 30
0.0
  3
*D1
  1

  0
LINE
  5
3B9ACA7B
  8
0
  6
BYBLOCK
 62
     0
 10
11162.1
 20
6717.5175
 30
0.0
 11
11162.1
 21
5208.17
 31
0.0
  0
LINE
  5
3B9ACA7C
  8
0
  6
BYBLOCK
 62
     0
 10
6837.13
 20
6687.4975
 30
0.0
 11
6837.13
 21
5208.17
 31
0.0
  0
LINE
  5
3B9ACA7D
  8
0
  6
BYBLOCK
 62
     0
 10
11142.1
 20
5212.67
 30
0.0
 11
6857.13
 21
5212.67
 31
0.0
  0
SOLID
  5
3B9ACA7E
  8
0
  6
BYBLOCK
 62
     0
 10
11142.1
 20
5216.003333
 30
0.0
 11
11142.1
 21
5209.336667
 31
0.0
 12
11162.1
 22
5212.67
 32
0.0
 13
11162.1
 23
5212.67
 33
0.0
  0
SOLID
  5
3B9ACA7F
  8
0
  6
BYBLOCK
 62
     0
 10
6857.13
 20
5216.003333
 30
0.0
 11
6857.13
 21
5209.336667
 31
0.0
 12
6837.13
 22
5212.67
 32
0.0
 13
6837.13
 23
5212.67
 33
0.0
  0
TEXT
  5
3B9ACA80
  8
0
  6
BYBLOCK
 62
     0
 10
8344.852833
 20
5282.67
 30
0.0
 40
500.0
  1
4325
 41
0.714286
  0
POINT
  5
3B9ACA81
  8
DEFPOINTS
  6
BYBLOCK
 62
     0
 10
11162.1
 20
6719.08
 30
0.0
  0
POINT
  5
3B9ACA82
  8
DEFPOINTS
  6
BYBLOCK
 62
     0
 10
6837.13
 20
6689.06
 30
0.0
  0
POINT
  5
3B9ACA83
  8
DEFPOINTS
  6
BYBLOCK
 62
     0
 10
6837.13
 20
5212.67
 30
0.0
  0
ENDBLK
  5
3B9ACA84
  8
0
  0
BLOCK
  8
0
  2
*D2
 70
     1
 10
0.0
 20
0.0
 30
0.0
  3
*D2
  1

  0
LINE
  5
3B9ACA86
  8
0
  6
BYBLOCK
 62
     0
 10
25998.1
 20
6717.5275
 30
0.0
 11
25998.1
 21
5208.17
 31
0.0
  0
LINE
  5
3B9ACA87
  8
0
  6
BYBLOCK
 62
     0
 10
20553.1
 20
6687.5075
 30
0.0
 11
20553.1
 21
5208.17
 31
0.0
  0
LINE
  5
3B9ACA88
  8
0
  6
BYBLOCK
 62
     0
 10
25978.1
 20
5212.67
 30
0.0
 11
20573.1
 21
5212.67
 31
0.0
  0
SOLID
  5
3B9ACA89
  8
0
  6
BYBLOCK
 62
     0
 10
25978.1
 20
5216.003333
 30
0.0
 11
25978.1
 21
5209.336667
 31
0.0
 12
25998.1
 22
5212.67
 32
0.0
 13
25998.1
 23
5212.67
 33
0.0
  0
SOLID
  5
3B9ACA8A
  8
0
  6
BYBLOCK
 62
     0
 10
20573.1
 20
5216.003333
 30
0.0
 11
20573.1
 21
5209.336667
 31
0.0
 12
20553.1
 22
5212.67
 32
0.0
 13
20553.1
 23
5212.67
 33
0.0
  0
TEXT
  5
3B9ACA8B
  8
0
  6
BYBLOCK
 62
     0
 10
22620.837833
 20
5282.67
 30
0.0
 40
500.0
  1
5445
 41
0.714286
  0
POINT
  5
3B9ACA8C
  8
DEFPOINTS
  6
BYBLOCK
 62
     0
 10
25998.1
 20
6719.09
 30
0.0
  0
POINT
  5
3B9ACA8D
  8
DEFPOINTS
  6
BYBLOCK
 62
     0
 10
20553.1
 20
6689.07
 30
0.0
  0
POINT
  5
3B9ACA8E
  8
DEFPOINTS
  6
BYBLOCK
 62
     0
 10
20553.1
 20
5212.67
 30
0.0
  0
ENDBLK
  5
3B9ACA8F
  8
0
  0
BLOCK
  8
0
  2
*D3
 70
     1
 10
0.0
 20
0.0
 30
0.0
  3
*D3
  1

  0
LINE
  5
3B9ACA91
  8
0
  6
BYBLOCK
 62
     0
 10
53681.5
 20
16639.2375
 30
0.0
 11
53681.5
 21
13425.3
 31
0.0
  0
LINE
  5
3B9ACA92
  8
0
  6
BYBLOCK
 62
     0
 10
18576.5
 20
15684.2375
 30
0.0
 11
18576.5
 21
13425.3
 31
0.0
  0
LINE
  5
3B9ACA93
  8
0
  6
BYBLOCK
 62
     0
 10
53661.5
 20
13429.8
 30
0.0
 11
18596.5
 21
13429.8
 31
0.0
  0
SOLID
  5
3B9ACA94
  8
0
  6
BYBLOCK
 62
     0
 10
53661.5
 20
13433.133333
 30
0.0
 11
53661.5
 21
13426.466667
 31
0.0
 12
53681.5
 22
13429.8
 32
0.0
 13
53681.5
 23
13429.8
 33
0.0
  0
SOLID
  5
3B9ACA95
  8
0
  6
BYBLOCK
 62
     0
 10
18596.5
 20
13433.133333
 30
0.0
 11
18596.5
 21
13426.466667
 31
0.0
 12
18576.5
 22
13429.8
 32
0.0
 13
18576.5
 23
13429.8
 33
0.0
  0
TEXT
  5
3B9ACA96
  8
0
  6
BYBLOCK
 62
     0
 10
35384.952083
 20
13499.8
 30
0.0
 40
500.0
  1
35105
 41
0.714286
  0
POINT
  5
3B9ACA97
  8
DEFPOINTS
  6
BYBLOCK
 62
     0
 10
53681.5
 20
16640.8
 30
0.0
  0
POINT
  5
3B9ACA98
  8
DEFPOINTS
  6
BYBLOCK
 62
     0
 10
18576.5
 20
15685.8
 30
0.0
  0
POINT
  5
3B9ACA99
  8
DEFPOINTS
  6
BYBLOCK
 62
     0
 10
18576.5
 20
13429.8
 30
0.0
  0
ENDBLK
  5
3B9ACA9A
  8
0
  0
ENDSEC
  0
SECTION
  2
ENTITIES
  0
POINT
  5
B4
  8
0
 62
     1
 10
3005.04
 20
16765.8
 30
0.0
  0
POINT
  5
B5
  8
0
 62
     1
 10
2955.04
 20
15685.8
 30
0.0
  0
POINT
  5
B6
  8
0
 62
     1
 10
9609.94
 20
15840.7
 30
0.0
  0
POINT
  5
B7
  8
0
 62
     1
 10
14109.9
 20
16640.8
 30
0.0
  0
POINT
  5
B8
  8
0
 62
     1
 10
18626.5
 20
16765.8
 30
0.0
  0
POINT
  5
B9
  8
0
 62
     1
 10
18576.5
 20
15685.8
 30
0.0
  0
POINT
  5
BA
  8
0
 62
     1
 10
53681.5
 20
16640.8
 30
0.0
  0
POINT
  5
BB
  8
0
 62
     1
 10
49181.6
 20
15840.7
 30
0.0
  0
POINT
  5
BC
  8
0
 62
     1
 10
25998.1
 20
6859.09
 30
0.0
  0
POINT
  5
BD
  8
0
 62
     1
 10
20553.1
 20
6859.09
 30
0.0
  0
POINT
  5
C8
  8
0
 62
     1
 10
35675.5
 20
6857.55
 30
0.0
  0
POINT
  5
C9
  8
0
 62
     1
 10
43557.5
 20
6755.66
 30
0.0
  0
POINT
  5
CA
  8
0
 62
     1
 10
50611.5
 20
6691.38
 30
0.0
  0
POINT
  5
CB
  8
0
 62
     1
 10
6837.13
 20
6859.08
 30
0.0
  0
POINT
  5
CC
  8
0
 62
     1
 10
11162.1
 20
6859.08
 30
0.0
  0
POINT
  5
CD
  8
0
 62
     1
 10
20553.1
 20
6859.09
 30
0.0
  0
POINT
  5
CE
  8
0
 62
     1
 10
25998.1
 20
6859.09
 30
0.0
  0
LINE
  5
106
  8
0
  6
CONTINUOUS
 62
     6
 10
35675.5
 20
7316.0
 30
0.0
 11
35675.5
 21
5360.3
 31
0.0
  0
LINE
  5
107
  8
0
  6
CONTINUOUS
 62
     6
 10
35498.1
 20
6197.57
 30
0.0
 11
35837.1
 21
6197.57
 31
0.0
  0
LINE
  5
108
  8
0
  6
CONTINUOUS
 62
     6
 10
35435.3
 20
5783.57
 30
0.0
 11
35923.8
 21
5783.57
 31
0.0
  0
LINE
  5
109
  8
0
  6
CONTINUOUS
 62
     6
 10
35530.5
 20
5882.54
 30
0.0
 11
35530.5
 21
5691.14
 31
0.0
  0
LINE
  5
10A
  8
0
  6
CONTINUOUS
 62
     6
 10
35820.5
 20
5884.44
 30
0.0
 11
35820.5
 21
5682.57
 31
0.0
  0
LINE
  5
10B
  8
0
  6
CONTINUOUS
 62
     6
 10
35880.9
 20
5863.67
 30
0.0
 11
35894.0
 21
5798.25
 31
0.0
  0
LINE
  5
10C
  8
0
  6
CONTINUOUS
 62
     6
 10
35929.2
 20
5876.44
 30
0.0
 11
35978.1
 21
5729.27
 31
0.0
  0
LINE
  5
10D
  8
0
  6
CONTINUOUS
 62
     6
 10
35530.5
 20
5682.57
 30
0.0
 11
35530.5
 21
5884.44
 31
0.0
  0
LINE
  5
10E
  8
0
  6
CONTINUOUS
 62
     6
 10
35605.5
 20
5783.57
 30
0.0
 11
35605.5
 21
6022.56
 31
0.0
  0
LINE
  5
10F
  8
0
  6
CONTINUOUS
 62
     6
 10
35745.5
 20
6022.55
 30
0.0
 11
35745.5
 21
5783.57
 31
0.0
  0
LINE
  5
110
  8
0
  6
CONTINUOUS
 62
     6
 10
35605.5
 20
6023.39
 30
0.0
 11
35603.6
 21
6022.01
 31
0.0
  0
LINE
  5
111
  8
0
  6
CONTINUOUS
 62
     6
 10
35747.3
 20
6022.02
 30
0.0
 11
35745.5
 21
6023.4
 31
0.0
  0
LINE
  5
112
  8
0
  6
CONTINUOUS
 62
     6
 10
35206.8
 20
6857.55
 30
0.0
 11
36136.2
 21
6857.55
 31
0.0
  0
LINE
  5
113
  8
0
  6
CONTINUOUS
 62
     6
 10
35456.9
 20
5798.25
 30
0.0
 11
35470.0
 21
5863.67
 31
0.0
  0
LINE
  5
114
  8
0
  6
CONTINUOUS
 62
     6
 10
35372.8
 20
5729.27
 30
0.0
 11
35421.7
 21
5876.44
 31
0.0
  0
LINE
  5
115
  8
0
  6
CONTINUOUS
 62
     6
 10
35510.5
 20
5538.57
 30
0.0
 11
35840.5
 21
5538.57
 31
0.0
  0
LINE
  5
116
  8
0
  6
CONTINUOUS
 62
     6
 10
36025.5
 20
6907.07
 30
0.0
 11
36025.5
 21
6774.91
 31
0.0
  0
LINE
  5
117
  8
0
  6
CONTINUOUS
 62
     6
 10
35502.5
 20
7182.55
 30
0.0
 11
35848.4
 21
7182.55
 31
0.0
  0
LINE
  5
118
  8
0
  6
CONTINUOUS
 62
     6
 10
35863.9
 20
6099.21
 30
0.0
 11
36024.9
 21
6770.25
 31
0.0
  0
LINE
  5
119
  8
0
  6
CONTINUOUS
 62
     6
 10
35487.1
 20
6098.88
 30
0.0
 11
35326.0
 21
6770.24
 31
0.0
  0
LINE
  5
11A
  8
0
  6
CONTINUOUS
 62
     6
 10
35874.2
 20
7167.83
 30
0.0
 11
36022.7
 21
6917.25
 31
0.0
  0
LINE
  5
11B
  8
0
  6
CONTINUOUS
 62
     6
 10
35325.5
 20
6774.91
 30
0.0
 11
35325.5
 21
6907.07
 31
0.0
  0
LINE
  5
11C
  8
0
  6
CONTINUOUS
 62
     6
 10
35328.2
 20
6917.26
 30
0.0
 11
35476.7
 21
7167.83
 31
0.0
  0
LINE
  5
11D
  8
0
  6
CONTINUOUS
 62
     6
 10
35766.6
 20
6022.55
 30
0.0
 11
35584.3
 21
6022.55
 31
0.0
  0
LINE
  5
11E
  8
0
  6
CONTINUOUS
 62
     6
 10
43139.6
 20
6755.66
 30
0.0
 11
43945.3
 21
6755.66
 31
0.0
  0
LINE
  5
11F
  8
0
  6
CONTINUOUS
 62
     6
 10
43907.5
 20
6734.33
 30
0.0
 11
43907.5
 21
6667.51
 31
0.0
  0
LINE
  5
120
  8
0
  6
CONTINUOUS
 62
     6
 10
43207.5
 20
6734.33
 30
0.0
 11
43207.5
 21
6667.51
 31
0.0
  0
LINE
  5
121
  8
0
  6
CONTINUOUS
 62
     6
 10
43377.0
 20
7080.66
 30
0.0
 11
43737.9
 21
7080.66
 31
0.0
  0
LINE
  5
122
  8
0
  6
CONTINUOUS
 62
     6
 10
43210.0
 20
6746.44
 30
0.0
 11
43349.6
 21
7062.77
 31
0.0
  0
LINE
  5
123
  8
0
  6
CONTINUOUS
 62
     6
 10
43765.4
 20
7062.77
 30
0.0
 11
43904.9
 21
6746.44
 31
0.0
  0
LINE
  5
124
  8
0
  6
CONTINUOUS
 62
     6
 10
43445.2
 20
6210.66
 30
0.0
 11
43662.7
 21
6210.66
 31
0.0
  0
LINE
  5
125
  8
0
  6
CONTINUOUS
 62
     6
 10
43557.5
 20
7199.89
 30
0.0
 11
43557.5
 21
5608.49
 31
0.0
  0
LINE
  5
126
  8
0
  6
CONTINUOUS
 62
     6
 10
43496.3
 20
6100.66
 30
0.0
 11
43618.6
 21
6100.66
 31
0.0
  0
LINE
  5
127
  8
0
  6
CONTINUOUS
 62
     6
 10
43469.3
 20
6117.63
 30
0.0
 11
43210.4
 21
6654.48
 31
0.0
  0
LINE
  5
128
  8
0
  6
CONTINUOUS
 62
     6
 10
43645.6
 20
6117.63
 30
0.0
 11
43904.5
 21
6654.48
 31
0.0
  0
LINE
  5
129
  8
0
  6
CONTINUOUS
 62
     6
 10
43568.5
 20
6005.07
 30
0.0
 11
43607.0
 21
5966.65
 31
0.0
  0
LINE
  5
12A
  8
0
  6
CONTINUOUS
 62
     6
 10
43506.0
 20
6100.66
 30
0.0
 11
43509.2
 21
6098.82
 31
0.0
  0
LINE
  5
12B
  8
0
  6
CONTINUOUS
 62
     6
 10
43342.1
 20
5917.16
 30
0.0
 11
43844.3
 21
5917.16
 31
0.0
  0
LINE
  5
12C
  8
0
  6
CONTINUOUS
 62
     6
 10
50611.5
 20
7127.65
 30
0.0
 11
50611.5
 21
5803.85
 31
0.0
  0
LINE
  5
12D
  8
0
  6
CONTINUOUS
 62
     6
 10
50411.5
 20
6401.38
 30
0.0
 11
50411.5
 21
6503.38
 31
0.0
  0
LINE
  5
12E
  8
0
  6
CONTINUOUS
 62
     6
 10
50811.5
 20
6401.38
 30
0.0
 11
50811.5
 21
6503.38
 31
0.0
  0
LINE
  5
12F
  8
0
  6
CONTINUOUS
 62
     6
 10
50807.5
 20
6507.38
 30
0.0
 11
50761.0
 21
6507.38
 31
0.0
  0
LINE
  5
130
  8
0
  6
CONTINUOUS
 62
     6
 10
50807.5
 20
6397.38
 30
0.0
 11
50761.0
 21
6397.38
 31
0.0
  0
LINE
  5
131
  8
0
  6
CONTINUOUS
 62
     6
 10
50811.5
 20
6401.38
 30
0.0
 11
50807.5
 21
6397.38
 31
0.0
  0
LINE
  5
132
  8
0
  6
CONTINUOUS
 62
     6
 10
50811.5
 20
6503.38
 30
0.0
 11
50807.5
 21
6507.38
 31
0.0
  0
LINE
  5
133
  8
0
  6
CONTINUOUS
 62
     6
 10
50415.5
 20
6507.38
 30
0.0
 11
50411.5
 21
6503.38
 31
0.0
  0
LINE
  5
134
  8
0
  6
CONTINUOUS
 62
     6
 10
50415.5
 20
6397.38
 30
0.0
 11
50411.5
 21
6401.38
 31
0.0
  0
LINE
  5
135
  8
0
  6
CONTINUOUS
 62
     6
 10
50414.0
 20
6614.38
 30
0.0
 11
50561.5
 21
6614.38
 31
0.0
  0
LINE
  5
136
  8
0
  6
CONTINUOUS
 62
     6
 10
50809.0
 20
6984.88
 30
0.0
 11
50809.0
 21
6614.38
 31
0.0
  0
LINE
  5
137
  8
0
  6
CONTINUOUS
 62
     6
 10
50414.0
 20
6984.88
 30
0.0
 11
50414.0
 21
6614.38
 31
0.0
  0
LINE
  5
138
  8
0
  6
CONTINUOUS
 62
     6
 10
50811.5
 20
6608.38
 30
0.0
 11
50811.5
 21
6589.38
 31
0.0
  0
LINE
  5
139
  8
0
  6
CONTINUOUS
 62
     6
 10
50411.5
 20
6608.38
 30
0.0
 11
50411.5
 21
6589.38
 31
0.0
  0
LINE
  5
13A
  8
0
  6
CONTINUOUS
 62
     6
 10
50661.5
 20
6614.38
 30
0.0
 11
50805.5
 21
6614.38
 31
0.0
  0
LINE
  5
13B
  8
0
  6
CONTINUOUS
 62
     6
 10
50417.5
 20
6614.38
 30
0.0
 11
50411.5
 21
6608.38
 31
0.0
  0
LINE
  5
13C
  8
0
  6
CONTINUOUS
 62
     6
 10
50805.4
 20
6614.38
 30
0.0
 11
50811.4
 21
6608.38
 31
0.0
  0
LINE
  5
13D
  8
0
  6
CONTINUOUS
 62
     6
 10
50415.5
 20
6507.38
 30
0.0
 11
50411.5
 21
6511.38
 31
0.0
  0
LINE
  5
13E
  8
0
  6
CONTINUOUS
 62
     6
 10
50807.5
 20
6507.38
 30
0.0
 11
50811.5
 21
6511.38
 31
0.0
  0
LINE
  5
13F
  8
0
  6
CONTINUOUS
 62
     6
 10
50727.5
 20
6614.38
 30
0.0
 11
50809.0
 21
6614.38
 31
0.0
  0
LINE
  5
140
  8
0
  6
CONTINUOUS
 62
     6
 10
50416.5
 20
6989.38
 30
0.0
 11
50424.2
 21
6984.89
 31
0.0
  0
LINE
  5
141
  8
0
  6
CONTINUOUS
 62
     6
 10
50459.2
 20
7063.38
 30
0.0
 11
50416.5
 21
6989.38
 31
0.0
  0
LINE
  5
142
  8
0
  6
CONTINUOUS
 62
     6
 10
50798.7
 20
6984.88
 30
0.0
 11
50806.5
 21
6989.38
 31
0.0
  0
LINE
  5
143
  8
0
  6
CONTINUOUS
 62
     6
 10
50806.5
 20
6989.38
 30
0.0
 11
50763.7
 21
7063.38
 31
0.0
  0
LINE
  5
144
  8
0
  6
CONTINUOUS
 62
     6
 10
50414.0
 20
6984.88
 30
0.0
 11
50809.0
 21
6984.88
 31
0.0
  0
LINE
  5
145
  8
0
  6
CONTINUOUS
 62
     6
 10
50460.9
 20
7064.38
 30
0.0
 11
50762.0
 21
7064.38
 31
0.0
  0
LINE
  5
146
  8
0
  6
CONTINUOUS
 62
     6
 10
50451.5
 20
6261.38
 30
0.0
 11
50611.5
 21
6261.38
 31
0.0
  0
LINE
  5
147
  8
0
  6
CONTINUOUS
 62
     6
 10
50811.5
 20
6393.38
 30
0.0
 11
50811.5
 21
6321.38
 31
0.0
  0
LINE
  5
148
  8
0
  6
CONTINUOUS
 62
     6
 10
50411.5
 20
6393.38
 30
0.0
 11
50411.5
 21
6321.38
 31
0.0
  0
LINE
  5
149
  8
0
  6
CONTINUOUS
 62
     6
 10
50411.5
 20
6393.38
 30
0.0
 11
50415.5
 21
6397.38
 31
0.0
  0
LINE
  5
14A
  8
0
  6
CONTINUOUS
 62
     6
 10
50807.5
 20
6397.38
 30
0.0
 11
50811.5
 21
6393.38
 31
0.0
  0
LINE
  5
14B
  8
0
  6
CONTINUOUS
 62
     6
 10
50411.5
 20
6321.38
 30
0.0
 11
50451.5
 21
6261.38
 31
0.0
  0
LINE
  5
14C
  8
0
  6
CONTINUOUS
 62
     6
 10
50771.4
 20
6261.39
 30
0.0
 11
50811.4
 21
6321.39
 31
0.0
  0
LINE
  5
14D
  8
0
  6
CONTINUOUS
 62
     6
 10
50415.5
 20
6397.38
 30
0.0
 11
50807.5
 21
6397.38
 31
0.0
  0
LINE
  5
14E
  8
0
  6
CONTINUOUS
 62
     6
 10
50415.5
 20
6507.38
 30
0.0
 11
50807.5
 21
6507.38
 31
0.0
  0
LINE
  5
14F
  8
0
  6
CONTINUOUS
 62
     6
 10
50561.5
 20
6618.38
 30
0.0
 11
50661.5
 21
6618.38
 31
0.0
  0
LINE
  5
150
  8
0
  6
CONTINUOUS
 62
     6
 10
50661.5
 20
6691.38
 30
0.0
 11
50661.5
 21
6614.38
 31
0.0
  0
LINE
  5
151
  8
0
  6
CONTINUOUS
 62
     6
 10
50561.5
 20
6691.38
 30
0.0
 11
50561.5
 21
6614.38
 31
0.0
  0
LINE
  5
152
  8
0
  6
CONTINUOUS
 62
     6
 10
50548.3
 20
6691.38
 30
0.0
 11
50674.5
 21
6691.38
 31
0.0
  0
LINE
  5
153
  8
0
  6
CONTINUOUS
 62
     6
 10
50660.5
 20
6636.97
 30
0.0
 11
50661.5
 21
6636.38
 31
0.0
  0
LINE
  5
154
  8
0
  6
CONTINUOUS
 62
     6
 10
50611.5
 20
6490.94
 30
0.0
 11
50611.5
 21
5849.84
 31
0.0
  0
LINE
  5
155
  8
0
  6
CONTINUOUS
 62
     6
 10
50412.9
 20
6036.39
 30
0.0
 11
50837.3
 21
6036.39
 31
0.0
  0
LINE
  5
156
  8
0
  6
CONTINUOUS
 62
     6
 10
50656.5
 20
6261.38
 30
0.0
 11
50656.5
 21
6247.25
 31
0.0
  0
LINE
  5
157
  8
0
  6
CONTINUOUS
 62
     6
 10
50566.5
 20
6261.38
 30
0.0
 11
50566.5
 21
6244.33
 31
0.0
  0
LINE
  5
158
  8
0
  6
CONTINUOUS
 62
     6
 10
50619.0
 20
6117.23
 30
0.0
 11
50655.6
 21
6080.59
 31
0.0
  0
LINE
  5
159
  8
0
  6
CONTINUOUS
 62
     6
 10
50611.5
 20
6261.38
 30
0.0
 11
50771.5
 21
6261.38
 31
0.0
  0
LINE
  5
15A
  8
0
  6
CONTINUOUS
 62
     6
 10
50416.5
 20
6584.38
 30
0.0
 11
50416.5
 21
6564.38
 31
0.0
  0
LINE
  5
15B
  8
0
  6
CONTINUOUS
 62
     6
 10
50411.5
 20
6589.39
 30
0.0
 11
50416.5
 21
6584.39
 31
0.0
  0
LINE
  5
15C
  8
0
  6
CONTINUOUS
 62
     6
 10
50411.5
 20
6559.38
 30
0.0
 11
50416.5
 21
6564.38
 31
0.0
  0
LINE
  5
15D
  8
0
  6
CONTINUOUS
 62
     6
 10
50411.5
 20
6559.38
 30
0.0
 11
50411.5
 21
6511.38
 31
0.0
  0
LINE
  5
15E
  8
0
  6
CONTINUOUS
 62
     6
 10
50416.5
 20
6584.38
 30
0.0
 11
50806.5
 21
6584.38
 31
0.0
  0
LINE
  5
15F
  8
0
  6
CONTINUOUS
 62
     6
 10
50416.5
 20
6564.38
 30
0.0
 11
50806.5
 21
6564.38
 31
0.0
  0
LINE
  5
160
  8
0
  6
CONTINUOUS
 62
     6
 10
50806.5
 20
6584.38
 30
0.0
 11
50806.5
 21
6564.38
 31
0.0
  0
LINE
  5
161
  8
0
  6
CONTINUOUS
 62
     6
 10
50806.4
 20
6564.38
 30
0.0
 11
50811.4
 21
6559.38
 31
0.0
  0
LINE
  5
162
  8
0
  6
CONTINUOUS
 62
     6
 10
50806.4
 20
6584.38
 30
0.0
 11
50811.4
 21
6589.38
 31
0.0
  0
LINE
  5
163
  8
0
  6
CONTINUOUS
 62
     6
 10
50811.5
 20
6559.38
 30
0.0
 11
50811.5
 21
6511.38
 31
0.0
  0
LINE
  5
164
  8
0
  6
CONTINUOUS
 62
     7
 10
44268.4
 20
22725.1
 30
0.0
 11
58268.4
 21
22725.1
 31
0.0
  0
LINE
  5
165
  8
0
  6
CONTINUOUS
 62
     7
 10
44268.4
 20
23725.1
 30
0.0
 11
58268.4
 21
23725.1
 31
0.0
  0
LINE
  5
166
  8
0
  6
CONTINUOUS
 62
     7
 10
44268.4
 20
24725.1
 30
0.0
 11
58268.4
 21
24725.1
 31
0.0
  0
LINE
  5
167
  8
0
  6
CONTINUOUS
 62
     7
 10
44268.4
 20
25725.1
 30
0.0
 11
58268.4
 21
25725.1
 31
0.0
  0
LINE
  5
168
  8
0
  6
CONTINUOUS
 62
     7
 10
44268.4
 20
25725.1
 30
0.0
 11
44268.4
 21
22725.1
 31
0.0
  0
LINE
  5
169
  8
0
  6
CONTINUOUS
 62
     7
 10
49795.2
 20
25725.1
 30
0.0
 11
49795.2
 21
22725.1
 31
0.0
  0
LINE
  5
793
  8
0
  6
CONTINUOUS
 62
     7
 10
44194.1
 20
27624.1
 30
0.0
 11
45286.1
 21
27624.1
 31
0.0
  0
LINE
  5
794
  8
0
  6
CONTINUOUS
 62
     7
 10
44194.1
 20
26784.1
 30
0.0
 11
45286.1
 21
27624.1
 31
0.0
  0
LINE
  5
795
  8
0
  6
CONTINUOUS
 62
     7
 10
44194.1
 20
27624.1
 30
0.0
 11
44194.1
 21
26784.1
 31
0.0
  0
LINE
  5
796
  8
0
  6
CONTINUOUS
 62
     7
 10
44474.1
 20
26504.1
 30
0.0
 11
45314.1
 21
27624.1
 31
0.0
  0
LINE
  5
797
  8
0
  6
CONTINUOUS
 62
     7
 10
45762.1
 20
27624.1
 30
0.0
 11
45762.1
 21
27064.1
 31
0.0
  0
LINE
  5
798
  8
0
  6
CONTINUOUS
 62
     7
 10
44474.1
 20
26504.1
 30
0.0
 11
45314.1
 21
26504.1
 31
0.0
  0
LINE
  5
799
  8
0
  6
CONTINUOUS
 62
     7
 10
45314.1
 20
27064.1
 30
0.0
 11
45762.1
 21
27064.1
 31
0.0
  0
LINE
  5
79A
  8
0
  6
CONTINUOUS
 62
     7
 10
45314.1
 20
27064.1
 30
0.0
 11
45314.1
 21
26504.1
 31
0.0
  0
LINE
  5
79B
  8
0
  6
CONTINUOUS
 62
     7
 10
45314.1
 20
27624.1
 30
0.0
 11
45762.1
 21
27624.1
 31
0.0
  0
LINE
  5
79C
  8
0
  6
CONTINUOUS
 62
     7
 10
48051.5
 20
27624.1
 30
0.0
 11
48242.8
 21
27624.1
 31
0.0
  0
LINE
  5
79D
  8
0
  6
CONTINUOUS
 62
     7
 10
48093.4
 20
27263.9
 30
0.0
 11
48200.9
 21
27263.9
 31
0.0
  0
LINE
  5
79E
  8
0
  6
CONTINUOUS
 62
     7
 10
48056.9
 20
27145.7
 30
0.0
 11
48237.4
 21
27145.7
 31
0.0
  0
LINE
  5
79F
  8
0
  6
CONTINUOUS
 62
     7
 10
48135.3
 20
27399.6
 30
0.0
 11
48093.4
 21
27263.9
 31
0.0
  0
LINE
  5
7A0
  8
0
  6
CONTINUOUS
 62
     7
 10
48056.9
 20
27145.7
 30
0.0
 11
48031.8
 21
27064.1
 31
0.0
  0
LINE
  5
7A1
  8
0
  6
CONTINUOUS
 62
     7
 10
47124.4
 20
27145.7
 30
0.0
 11
47149.4
 21
27064.1
 31
0.0
  0
LINE
  5
7A2
  8
0
  6
CONTINUOUS
 62
     7
 10
46943.9
 20
27145.7
 30
0.0
 11
46918.7
 21
27064.1
 31
0.0
  0
LINE
  5
7A3
  8
0
  6
CONTINUOUS
 62
     7
 10
47848.9
 20
27064.1
 30
0.0
 11
48051.5
 21
27624.1
 31
0.0
  0
LINE
  5
7A4
  8
0
  6
CONTINUOUS
 62
     7
 10
47129.8
 20
27624.1
 30
0.0
 11
47332.5
 21
27064.1
 31
0.0
  0
LINE
  5
7A5
  8
0
  6
CONTINUOUS
 62
     7
 10
47362.1
 20
27624.1
 30
0.0
 11
47362.1
 21
27064.1
 31
0.0
  0
LINE
  5
7A6
  8
0
  6
CONTINUOUS
 62
     7
 10
46938.5
 20
27624.1
 30
0.0
 11
46735.8
 21
27064.1
 31
0.0
  0
LINE
  5
7A7
  8
0
  6
CONTINUOUS
 62
     7
 10
46478.4
 20
27472.1
 30
0.0
 11
46478.4
 21
27064.1
 31
0.0
  0
LINE
  5
7A8
  8
0
  6
CONTINUOUS
 62
     7
 10
46655.7
 20
27472.1
 30
0.0
 11
46655.7
 21
27064.1
 31
0.0
  0
LINE
  5
7A9
  8
0
  6
CONTINUOUS
 62
     7
 10
46478.4
 20
27064.1
 30
0.0
 11
46655.7
 21
27064.1
 31
0.0
  0
LINE
  5
7AA
  8
0
  6
CONTINUOUS
 62
     7
 10
46735.8
 20
27064.1
 30
0.0
 11
46918.7
 21
27064.1
 31
0.0
  0
LINE
  5
7AB
  8
0
  6
CONTINUOUS
 62
     7
 10
47362.1
 20
27064.1
 30
0.0
 11
47628.4
 21
27064.1
 31
0.0
  0
LINE
  5
7AC
  8
0
  6
CONTINUOUS
 62
     7
 10
47149.4
 20
27064.1
 30
0.0
 11
47332.5
 21
27064.1
 31
0.0
  0
LINE
  5
7AD
  8
0
  6
CONTINUOUS
 62
     7
 10
47848.9
 20
27064.1
 30
0.0
 11
48031.8
 21
27064.1
 31
0.0
  0
LINE
  5
7AE
  8
0
  6
CONTINUOUS
 62
     7
 10
46322.1
 20
27624.1
 30
0.0
 11
46811.7
 21
27624.1
 31
0.0
  0
LINE
  5
7AF
  8
0
  6
CONTINUOUS
 62
     7
 10
46322.1
 20
27624.1
 30
0.0
 11
46322.1
 21
27472.1
 31
0.0
  0
LINE
  5
7B0
  8
0
  6
CONTINUOUS
 62
     7
 10
46322.1
 20
27472.1
 30
0.0
 11
46478.4
 21
27472.1
 31
0.0
  0
LINE
  5
7B1
  8
0
  6
CONTINUOUS
 62
     7
 10
46811.7
 20
27624.1
 30
0.0
 11
46811.7
 21
27472.1
 31
0.0
  0
LINE
  5
7B2
  8
0
  6
CONTINUOUS
 62
     7
 10
46655.7
 20
27472.1
 30
0.0
 11
46811.7
 21
27472.1
 31
0.0
  0
LINE
  5
7B3
  8
0
  6
CONTINUOUS
 62
     7
 10
47032.2
 20
27444.0
 30
0.0
 11
47036.1
 21
27444.0
 31
0.0
  0
LINE
  5
7B4
  8
0
  6
CONTINUOUS
 62
     7
 10
46938.5
 20
27624.1
 30
0.0
 11
47129.8
 21
27624.1
 31
0.0
  0
LINE
  5
7B5
  8
0
  6
CONTINUOUS
 62
     7
 10
46943.9
 20
27145.7
 30
0.0
 11
47124.4
 21
27145.7
 31
0.0
  0
LINE
  5
7B6
  8
0
  6
CONTINUOUS
 62
     7
 10
46980.3
 20
27263.9
 30
0.0
 11
47087.8
 21
27263.9
 31
0.0
  0
LINE
  5
7B7
  8
0
  6
CONTINUOUS
 62
     7
 10
47046.1
 20
27399.6
 30
0.0
 11
47087.8
 21
27263.9
 31
0.0
  0
LINE
  5
7B8
  8
0
  6
CONTINUOUS
 62
     7
 10
47022.2
 20
27399.6
 30
0.0
 11
46980.3
 21
27263.9
 31
0.0
  0
LINE
  5
7B9
  8
0
  6
CONTINUOUS
 62
     7
 10
47362.1
 20
27624.1
 30
0.0
 11
47641.8
 21
27624.1
 31
0.0
  0
LINE
  5
7BA
  8
0
  6
CONTINUOUS
 62
     7
 10
47528.0
 20
27486.2
 30
0.0
 11
47601.0
 21
27486.2
 31
0.0
  0
LINE
  5
7BB
  8
0
  6
CONTINUOUS
 62
     7
 10
47528.0
 20
27204.8
 30
0.0
 11
47600.2
 21
27204.8
 31
0.0
  0
LINE
  5
7BC
  8
0
  6
CONTINUOUS
 62
     7
 10
47528.0
 20
27486.2
 30
0.0
 11
47528.0
 21
27204.8
 31
0.0
  0
LINE
  5
7BD
  8
0
  6
CONTINUOUS
 62
     7
 10
48237.4
 20
27145.7
 30
0.0
 11
48262.5
 21
27064.1
 31
0.0
  0
LINE
  5
7BE
  8
0
  6
CONTINUOUS
 62
     7
 10
48990.1
 20
27624.1
 30
0.0
 11
48990.1
 21
27064.1
 31
0.0
  0
LINE
  5
7BF
  8
0
  6
CONTINUOUS
 62
     7
 10
48242.8
 20
27624.1
 30
0.0
 11
48445.5
 21
27064.1
 31
0.0
  0
LINE
  5
7C0
  8
0
  6
CONTINUOUS
 62
     7
 10
48474.9
 20
27624.1
 30
0.0
 11
48474.9
 21
27064.1
 31
0.0
  0
LINE
  5
7C1
  8
0
  6
CONTINUOUS
 62
     7
 10
48659.0
 20
27332.4
 30
0.0
 11
48824.0
 21
27064.1
 31
0.0
  0
LINE
  5
7C2
  8
0
  6
CONTINUOUS
 62
     7
 10
48635.5
 20
27331.5
 30
0.0
 11
48635.5
 21
27064.1
 31
0.0
  0
LINE
  5
7C3
  8
0
  6
CONTINUOUS
 62
     7
 10
48474.9
 20
27064.1
 30
0.0
 11
48635.5
 21
27064.1
 31
0.0
  0
LINE
  5
7C4
  8
0
  6
CONTINUOUS
 62
     7
 10
48262.6
 20
27064.1
 30
0.0
 11
48445.5
 21
27064.1
 31
0.0
  0
LINE
  5
7C5
  8
0
  6
CONTINUOUS
 62
     7
 10
48824.0
 20
27064.1
 30
0.0
 11
48990.1
 21
27064.1
 31
0.0
  0
LINE
  5
7C6
  8
0
  6
CONTINUOUS
 62
     7
 10
48474.9
 20
27624.1
 30
0.0
 11
48641.1
 21
27624.1
 31
0.0
  0
LINE
  5
7C7
  8
0
  6
CONTINUOUS
 62
     7
 10
48145.3
 20
27444.0
 30
0.0
 11
48149.0
 21
27444.0
 31
0.0
  0
LINE
  5
7C8
  8
0
  6
CONTINUOUS
 62
     7
 10
48159.1
 20
27399.6
 30
0.0
 11
48200.9
 21
27263.9
 31
0.0
  0
LINE
  5
7C9
  8
0
  6
CONTINUOUS
 62
     7
 10
48641.1
 20
27624.1
 30
0.0
 11
48806.1
 21
27355.7
 31
0.0
  0
LINE
  5
7CA
  8
0
  6
CONTINUOUS
 62
     7
 10
48829.6
 20
27624.1
 30
0.0
 11
48829.6
 21
27356.8
 31
0.0
  0
LINE
  5
7CB
  8
0
  6
CONTINUOUS
 62
     7
 10
48632.9
 20
27373.6
 30
0.0
 11
48636.1
 21
27373.6
 31
0.0
  0
LINE
  5
7CC
  8
0
  6
CONTINUOUS
 62
     7
 10
48829.0
 20
27314.5
 30
0.0
 11
48832.1
 21
27314.5
 31
0.0
  0
LINE
  5
7CD
  8
0
  6
CONTINUOUS
 62
     7
 10
48829.6
 20
27624.1
 30
0.0
 11
48990.1
 21
27624.1
 31
0.0
  0
LINE
  5
C06
  8
0
  6
CONTINUOUS
 62
     3
 10
18331.5
 20
15385.8
 30
0.0
 11
18576.5
 21
15385.8
 31
0.0
  0
LINE
  5
C07
  8
0
  6
CONTINUOUS
 62
     3
 10
26991.7
 20
16073.8
 30
0.0
 11
26991.7
 21
16047.8
 31
0.0
  0
LINE
  5
C08
  8
0
  6
CONTINUOUS
 62
     3
 10
19016.5
 20
16047.8
 30
0.0
 11
18991.5
 21
16047.8
 31
0.0
  0
LINE
  5
C09
  8
0
  6
CONTINUOUS
 62
     3
 10
18659.0
 20
17059.3
 30
0.0
 11
18659.0
 21
16885.8
 31
0.0
  0
LINE
  5
C0A
  8
0
  6
CONTINUOUS
 62
     3
 10
18594.0
 20
17059.3
 30
0.0
 11
18594.0
 21
16885.8
 31
0.0
  0
LINE
  5
C0B
  8
0
  6
CONTINUOUS
 62
     3
 10
18962.5
 20
16189.6
 30
0.0
 11
18962.5
 21
16081.6
 31
0.0
  0
LINE
  5
C0C
  8
0
  6
CONTINUOUS
 62
     3
 10
18557.4
 20
15759.5
 30
0.0
 11
18553.4
 21
15762.6
 31
0.0
  0
LINE
  5
C0D
  8
0
  6
CONTINUOUS
 62
     3
 10
18657.5
 20
15683.0
 30
0.0
 11
18652.7
 21
15686.6
 31
0.0
  0
LINE
  5
C0E
  8
0
  6
CONTINUOUS
 62
     3
 10
18251.5
 20
16185.8
 30
0.0
 11
18251.5
 21
15465.8
 31
0.0
  0
LINE
  5
C0F
  8
0
  6
CONTINUOUS
 62
     3
 10
18956.4
 20
16096.4
 30
0.0
 11
18871.4
 21
16161.5
 31
0.0
  0
LINE
  5
C10
  8
0
  6
CONTINUOUS
 62
     3
 10
18991.5
 20
16700.8
 30
0.0
 11
18991.5
 21
16186.3
 31
0.0
  0
LINE
  5
C11
  8
0
  6
CONTINUOUS
 62
     3
 10
18991.5
 20
16035.8
 30
0.0
 11
18986.3
 21
16018.0
 31
0.0
  0
LINE
  5
C12
  8
0
  6
CONTINUOUS
 62
     3
 10
18864.5
 20
16169.1
 30
0.0
 11
18553.4
 21
15762.6
 31
0.0
  0
LINE
  5
C13
  8
0
  6
CONTINUOUS
 62
     3
 10
18962.5
 20
16081.6
 30
0.0
 11
18657.5
 21
15683.0
 31
0.0
  0
LINE
  5
C14
  8
0
  6
CONTINUOUS
 62
     3
 10
18251.5
 20
16185.8
 30
0.0
 11
18302.9
 21
16839.7
 31
0.0
  0
LINE
  5
C15
  8
0
  6
CONTINUOUS
 62
     3
 10
18481.7
 20
15718.0
 30
0.0
 11
18266.5
 21
15567.3
 31
0.0
  0
LINE
  5
C16
  8
0
  6
CONTINUOUS
 62
     3
 10
18617.5
 20
15612.2
 30
0.0
 11
18617.5
 21
15400.8
 31
0.0
  0
LINE
  5
C17
  8
0
  6
CONTINUOUS
 62
     3
 10
18481.7
 20
15718.0
 30
0.0
 11
18507.5
 21
15718.0
 31
0.0
  0
LINE
  5
C18
  8
0
  6
CONTINUOUS
 62
     3
 10
18331.5
 20
15400.8
 30
0.0
 11
18617.5
 21
15400.8
 31
0.0
  0
LINE
  5
C19
  8
0
  6
CONTINUOUS
 62
     3
 10
18864.5
 20
16169.1
 30
0.0
 11
18962.0
 21
16189.5
 31
0.0
  0
LINE
  5
C1A
  8
0
  6
CONTINUOUS
 62
     3
 10
18940.0
 20
15859.9
 30
0.0
 11
18864.4
 21
15601.5
 31
0.0
  0
LINE
  5
C1B
  8
0
  6
CONTINUOUS
 62
     3
 10
18266.5
 20
15567.3
 30
0.0
 11
18266.5
 21
15465.8
 31
0.0
  0
LINE
  5
C1C
  8
0
  6
CONTINUOUS
 62
     3
 10
18818.5
 20
15893.4
 30
0.0
 11
19033.9
 21
15832.1
 31
0.0
  0
LINE
  5
C1D
  8
0
  6
CONTINUOUS
 62
     3
 10
18946.2
 20
16060.2
 30
0.0
 11
19083.9
 21
15914.5
 31
0.0
  0
LINE
  5
C1E
  8
0
  6
CONTINUOUS
 62
     3
 10
18679.3
 20
16885.8
 30
0.0
 11
18352.7
 21
16885.8
 31
0.0
  0
LINE
  5
C1F
  8
0
  6
CONTINUOUS
 62
     3
 10
18765.2
 20
16858.8
 30
0.0
 11
18991.5
 21
16700.8
 31
0.0
  0
LINE
  5
C20
  8
0
  6
CONTINUOUS
 62
     3
 10
18596.5
 20
15612.2
 30
0.0
 11
18617.5
 21
15612.2
 31
0.0
  0
LINE
  5
C21
  8
0
  6
CONTINUOUS
 62
     3
 10
43446.7
 20
16005.5
 30
0.0
 11
43446.7
 21
15970.5
 31
0.0
  0
LINE
  5
C22
  8
0
  6
CONTINUOUS
 62
     3
 10
43691.9
 20
15945.5
 30
0.0
 11
43471.7
 21
15945.5
 31
0.0
  0
LINE
  5
C23
  8
0
  6
CONTINUOUS
 62
     3
 10
43446.8
 20
15970.5
 30
0.0
 11
43471.8
 21
15945.5
 31
0.0
  0
LINE
  5
C24
  8
0
  6
CONTINUOUS
 62
     3
 10
35206.7
 20
16036.6
 30
0.0
 11
35206.7
 21
16007.6
 31
0.0
  0
LINE
  5
C25
  8
0
  6
CONTINUOUS
 62
     3
 10
35427.5
 20
15982.6
 30
0.0
 11
35231.7
 21
15982.6
 31
0.0
  0
LINE
  5
C26
  8
0
  6
CONTINUOUS
 62
     3
 10
35206.7
 20
16007.6
 30
0.0
 11
35231.7
 21
15982.6
 31
0.0
  0
LINE
  5
C27
  8
0
  6
CONTINUOUS
 62
     3
 10
27187.7
 20
16011.2
 30
0.0
 11
27016.7
 21
16011.1
 31
0.0
  0
LINE
  5
C28
  8
0
  6
CONTINUOUS
 62
     3
 10
26991.7
 20
16181.1
 30
0.0
 11
26991.7
 21
16036.0
 31
0.0
  0
LINE
  5
C29
  8
0
  6
CONTINUOUS
 62
     3
 10
27016.6
 20
16011.1
 30
0.0
 11
26991.7
 21
16036.0
 31
0.0
  0
LINE
  5
C2A
  8
0
  6
CONTINUOUS
 62
     3
 10
48231.6
 20
16793.7
 30
0.0
 11
48231.6
 21
15995.7
 31
0.0
  0
LINE
  5
C2B
  8
0
  6
CONTINUOUS
 62
     3
 10
48131.6
 20
16793.6
 30
0.0
 11
48131.6
 21
15995.7
 31
0.0
  0
LINE
  5
C2C
  8
0
  6
CONTINUOUS
 62
     3
 10
49231.6
 20
16793.7
 30
0.0
 11
49231.6
 21
15988.7
 31
0.0
  0
LINE
  5
C2D
  8
0
  6
CONTINUOUS
 62
     3
 10
49131.6
 20
16793.7
 30
0.0
 11
49131.6
 21
15988.7
 31
0.0
  0
LINE
  5
C2E
  8
0
  6
CONTINUOUS
 62
     3
 10
49131.6
 20
16262.8
 30
0.0
 11
48231.6
 21
16262.7
 31
0.0
  0
LINE
  5
C2F
  8
0
  6
CONTINUOUS
 62
     3
 10
43446.8
 20
16005.4
 30
0.0
 11
43765.8
 21
16803.4
 31
0.0
  0
LINE
  5
C30
  8
0
  6
CONTINUOUS
 62
     3
 10
43753.9
 20
16773.7
 30
0.0
 11
35504.5
 21
16773.5
 31
0.0
  0
LINE
  5
C31
  8
0
  6
CONTINUOUS
 62
     3
 10
35206.7
 20
16036.5
 30
0.0
 11
35504.5
 21
16773.5
 31
0.0
  0
LINE
  5
C32
  8
0
  6
CONTINUOUS
 62
     3
 10
35427.5
 20
15982.5
 30
0.0
 11
35747.2
 21
16773.5
 31
0.0
  0
LINE
  5
C33
  8
0
  6
CONTINUOUS
 62
     3
 10
26991.6
 20
16181.2
 30
0.0
 11
27141.5
 21
16539.8
 31
0.0
  0
LINE
  5
C34
  8
0
  6
CONTINUOUS
 62
     3
 10
27041.0
 20
16735.2
 30
0.0
 11
27137.3
 21
16586.2
 31
0.0
  0
LINE
  5
C35
  8
0
  6
CONTINUOUS
 62
     3
 10
27489.7
 20
16734.5
 30
0.0
 11
27187.7
 21
16011.2
 31
0.0
  0
LINE
  5
C36
  8
0
  6
CONTINUOUS
 62
     3
 10
27149.4
 20
16867.9
 30
0.0
 11
27489.8
 21
16734.8
 31
0.0
  0
LINE
  5
C37
  8
0
  6
CONTINUOUS
 62
     3
 10
43692.1
 20
15945.5
 30
0.0
 11
44035.0
 21
16803.4
 31
0.0
  0
LINE
  5
C38
  8
0
  6
CONTINUOUS
 62
     3
 10
44034.9
 20
16803.5
 30
0.0
 11
43765.7
 21
16803.5
 31
0.0
  0
LINE
  5
C39
  8
0
  6
CONTINUOUS
 62
     3
 10
44016.2
 20
16756.4
 30
0.0
 11
44030.2
 21
16750.8
 31
0.0
  0
LINE
  5
C3A
  8
0
  6
CONTINUOUS
 62
     3
 10
44011.8
 20
16745.2
 30
0.0
 11
44025.7
 21
16739.7
 31
0.0
  0
LINE
  5
C3B
  8
0
  6
CONTINUOUS
 62
     3
 10
44013.1
 20
16638.1
 30
0.0
 11
44044.7
 21
16717.0
 31
0.0
  0
LINE
  5
C3C
  8
0
  6
CONTINUOUS
 62
     3
 10
44002.0
 20
16642.5
 30
0.0
 11
44033.5
 21
16721.5
 31
0.0
  0
LINE
  5
C3D
  8
0
  6
CONTINUOUS
 62
     3
 10
43969.8
 20
16640.3
 30
0.0
 11
43983.8
 21
16634.7
 31
0.0
  0
LINE
  5
C3E
  8
0
  6
CONTINUOUS
 62
     3
 10
43965.4
 20
16629.2
 30
0.0
 11
43979.3
 21
16623.6
 31
0.0
  0
LINE
  5
C3F
  8
0
  6
CONTINUOUS
 62
     3
 10
35506.7
 20
16798.5
 30
0.0
 11
35506.7
 21
16773.5
 31
0.0
  0
LINE
  5
C40
  8
0
  6
CONTINUOUS
 62
     3
 10
35739.7
 20
16773.5
 30
0.0
 11
35751.7
 21
16913.5
 31
0.0
  0
LINE
  5
C41
  8
0
  6
CONTINUOUS
 62
     3
 10
35751.7
 20
16913.5
 30
0.0
 11
35602.7
 21
16926.5
 31
0.0
  0
LINE
  5
C42
  8
0
  6
CONTINUOUS
 62
     3
 10
35506.7
 20
16798.5
 30
0.0
 11
35602.7
 21
16926.5
 31
0.0
  0
LINE
  5
C43
  8
0
  6
CONTINUOUS
 62
     3
 10
27252.2
 20
16833.5
 30
0.0
 11
27246.2
 21
16830.1
 31
0.0
  0
LINE
  5
C44
  8
0
  6
CONTINUOUS
 62
     3
 10
27186.7
 20
16853.4
 30
0.0
 11
27227.2
 21
16876.8
 31
0.0
  0
LINE
  5
C45
  8
0
  6
CONTINUOUS
 62
     3
 10
27141.6
 20
16926.1
 30
0.0
 11
27141.6
 21
16871.0
 31
0.0
  0
LINE
  5
C46
  8
0
  6
CONTINUOUS
 62
     3
 10
27091.7
 20
16870.4
 30
0.0
 11
27091.7
 21
16926.1
 31
0.0
  0
LINE
  5
C47
  8
0
  6
CONTINUOUS
 62
     3
 10
27006.2
 20
16876.8
 30
0.0
 11
27054.3
 21
16849.0
 31
0.0
  0
LINE
  5
C48
  8
0
  6
CONTINUOUS
 62
     3
 10
27029.3
 20
16805.7
 30
0.0
 11
26981.2
 21
16833.5
 31
0.0
  0
LINE
  5
C49
  8
0
  6
CONTINUOUS
 62
     3
 10
26981.3
 20
16734.8
 30
0.0
 11
27029.2
 21
16762.5
 31
0.0
  0
LINE
  5
C4A
  8
0
  6
CONTINUOUS
 62
     3
 10
27052.1
 20
16718.0
 30
0.0
 11
27006.2
 21
16691.5
 31
0.0
  0
LINE
  5
C4B
  8
0
  6
CONTINUOUS
 62
     3
 10
27091.7
 20
16642.1
 30
0.0
 11
27091.7
 21
16656.8
 31
0.0
  0
LINE
  5
C4C
  8
0
  6
CONTINUOUS
 62
     3
 10
35807.3
 20
16881.4
 30
0.0
 11
35802.3
 21
16850.4
 31
0.0
  0
LINE
  5
C4D
  8
0
  6
CONTINUOUS
 62
     3
 10
35768.1
 20
16853.9
 30
0.0
 11
35800.0
 21
16848.7
 31
0.0
  0
LINE
  5
C4E
  8
0
  6
CONTINUOUS
 62
     3
 10
35800.0
 20
16848.7
 30
0.0
 11
35802.3
 21
16850.4
 31
0.0
  0
LINE
  5
C4F
  8
0
  6
CONTINUOUS
 62
     3
 10
35741.1
 20
16914.4
 30
0.0
 11
35816.4
 21
16967.1
 31
0.0
  0
LINE
  5
C50
  8
0
  6
CONTINUOUS
 62
     3
 10
35745.2
 20
16837.9
 30
0.0
 11
35840.7
 21
16904.8
 31
0.0
  0
LINE
  5
C51
  8
0
  6
CONTINUOUS
 62
     3
 10
35845.9
 20
16964.5
 30
0.0
 11
35840.7
 21
16904.8
 31
0.0
  0
LINE
  5
C52
  8
0
  6
CONTINUOUS
 62
     3
 10
35816.4
 20
16967.1
 30
0.0
 11
35845.9
 21
16964.5
 31
0.0
  0
LINE
  5
C53
  8
0
  6
CONTINUOUS
 62
     3
 10
49243.6
 20
15681.6
 30
0.0
 11
48107.7
 21
15988.7
 31
0.0
  0
LINE
  5
C54
  8
0
  6
CONTINUOUS
 62
     3
 10
49356.7
 20
15988.7
 30
0.0
 11
49280.4
 21
15702.8
 31
0.0
  0
LINE
  5
C55
  8
0
  6
CONTINUOUS
 62
     3
 10
18962.5
 20
16081.3
 30
0.0
 11
26991.7
 21
16081.3
 31
0.0
  0
LINE
  5
C56
  8
0
  6
CONTINUOUS
 62
     3
 10
18962.5
 20
16186.3
 30
0.0
 11
26991.7
 21
16186.3
 31
0.0
  0
LINE
  5
C57
  8
0
  6
CONTINUOUS
 62
     3
 10
19016.5
 20
16047.8
 30
0.0
 11
18991.5
 21
16047.8
 31
0.0
  0
LINE
  5
C58
  8
0
  6
CONTINUOUS
 62
     3
 10
18991.5
 20
16081.3
 30
0.0
 11
18991.5
 21
16035.8
 31
0.0
  0
LINE
  5
C59
  8
0
  6
CONTINUOUS
 62
     3
 10
53838.5
 20
16689.3
 30
0.0
 11
53838.5
 21
16534.8
 31
0.0
  0
LINE
  5
C5A
  8
0
  6
CONTINUOUS
 62
     3
 10
53733.4
 20
16793.8
 30
0.0
 11
53838.5
 21
16689.3
 31
0.0
  0
LINE
  5
C5B
  8
0
  6
CONTINUOUS
 62
     3
 10
53581.3
 20
15988.8
 30
0.0
 11
53838.5
 21
16534.8
 31
0.0
  0
LINE
  5
C5C
  8
0
  6
CONTINUOUS
 62
     6
 10
11072.1
 20
6992.77
 30
0.0
 11
11072.1
 21
6725.26
 31
0.0
  0
LINE
  5
C5D
  8
0
  6
CONTINUOUS
 62
     6
 10
11072.1
 20
6749.08
 30
0.0
 11
11162.1
 21
6759.11
 31
0.0
  0
LINE
  5
C5E
  8
0
  6
CONTINUOUS
 62
     6
 10
6947.13
 20
6749.06
 30
0.0
 11
6848.58
 21
6739.61
 31
0.0
  0
LINE
  5
C5F
  8
0
  6
CONTINUOUS
 62
     6
 10
6947.13
 20
6969.06
 30
0.0
 11
6848.58
 21
6978.51
 31
0.0
  0
LINE
  5
C60
  8
0
  6
CONTINUOUS
 62
     6
 10
6947.12
 20
6969.06
 30
0.0
 11
6947.12
 21
6749.06
 31
0.0
  0
LINE
  5
C61
  8
0
  6
CONTINUOUS
 62
     6
 10
8182.17
 20
6992.77
 30
0.0
 11
11072.1
 21
6992.77
 31
0.0
  0
LINE
  5
C62
  8
0
  6
CONTINUOUS
 62
     6
 10
8182.17
 20
6725.38
 30
0.0
 11
11072.1
 21
6725.38
 31
0.0
  0
LINE
  5
C63
  8
0
  6
CONTINUOUS
 62
     6
 10
6947.12
 20
6951.57
 30
0.0
 11
6982.16
 21
6951.57
 31
0.0
  0
LINE
  5
C64
  8
0
  6
CONTINUOUS
 62
     6
 10
6947.12
 20
6766.58
 30
0.0
 11
6982.16
 21
6766.58
 31
0.0
  0
LINE
  5
C65
  8
0
  6
CONTINUOUS
 62
     6
 10
8062.15
 20
6710.08
 30
0.0
 11
8062.15
 21
7008.08
 31
0.0
  0
LINE
  5
C66
  8
0
  6
CONTINUOUS
 62
     6
 10
8182.15
 20
6710.08
 30
0.0
 11
8182.15
 21
7008.08
 31
0.0
  0
LINE
  5
C67
  8
0
  6
CONTINUOUS
 62
     6
 10
8062.16
 20
7008.08
 30
0.0
 11
8182.17
 21
7008.08
 31
0.0
  0
LINE
  5
C68
  8
0
  6
CONTINUOUS
 62
     6
 10
8062.16
 20
6710.08
 30
0.0
 11
8182.17
 21
6710.08
 31
0.0
  0
LINE
  5
C69
  8
0
  6
CONTINUOUS
 62
     6
 10
6982.17
 20
6995.68
 30
0.0
 11
8062.16
 21
6995.68
 31
0.0
  0
LINE
  5
C6A
  8
0
  6
CONTINUOUS
 62
     6
 10
6982.17
 20
6722.48
 30
0.0
 11
8062.16
 21
6722.48
 31
0.0
  0
LINE
  5
C6B
  8
0
  6
CONTINUOUS
 62
     6
 10
6982.16
 20
6722.48
 30
0.0
 11
6982.16
 21
6995.68
 31
0.0
  0
LINE
  5
C6C
  8
0
  6
CONTINUOUS
 62
     6
 10
11162.1
 20
6769.08
 30
0.0
 11
11162.1
 21
6759.11
 31
0.0
  0
LINE
  5
C6D
  8
0
  6
CONTINUOUS
 62
     6
 10
11162.1
 20
6949.08
 30
0.0
 11
11162.1
 21
6959.04
 31
0.0
  0
LINE
  5
C6E
  8
0
  6
CONTINUOUS
 62
     6
 10
11072.1
 20
6969.08
 30
0.0
 11
11162.1
 21
6959.04
 31
0.0
  0
LINE
  5
C6F
  8
0
  6
CONTINUOUS
 62
     6
 10
11303.0
 20
6859.08
 30
0.0
 11
6648.75
 21
6859.08
 31
0.0
  0
LINE
  5
C70
  8
0
  6
CONTINUOUS
 62
     6
 10
11162.1
 20
6999.08
 30
0.0
 11
11162.1
 21
6719.08
 31
0.0
  0
LINE
  5
C71
  8
0
  6
CONTINUOUS
 62
     6
 10
6837.13
 20
7029.06
 30
0.0
 11
6837.13
 21
6689.06
 31
0.0
  0
LINE
  5
C72
  8
0
  6
CONTINUOUS
 62
     6
 10
25908.1
 20
6992.78
 30
0.0
 11
25908.1
 21
6725.27
 31
0.0
  0
LINE
  5
C73
  8
0
  6
CONTINUOUS
 62
     6
 10
25908.1
 20
6749.09
 30
0.0
 11
25998.1
 21
6759.13
 31
0.0
  0
LINE
  5
C74
  8
0
  6
CONTINUOUS
 62
     6
 10
20663.1
 20
6749.07
 30
0.0
 11
20564.6
 21
6739.62
 31
0.0
  0
LINE
  5
C75
  8
0
  6
CONTINUOUS
 62
     6
 10
20663.1
 20
6969.07
 30
0.0
 11
20564.6
 21
6978.52
 31
0.0
  0
LINE
  5
C76
  8
0
  6
CONTINUOUS
 62
     6
 10
20663.1
 20
6969.07
 30
0.0
 11
20663.1
 21
6749.07
 31
0.0
  0
LINE
  5
C77
  8
0
  6
CONTINUOUS
 62
     6
 10
23018.2
 20
6992.78
 30
0.0
 11
25908.1
 21
6992.78
 31
0.0
  0
LINE
  5
C78
  8
0
  6
CONTINUOUS
 62
     6
 10
23018.2
 20
6725.39
 30
0.0
 11
25908.1
 21
6725.39
 31
0.0
  0
LINE
  5
C79
  8
0
  6
CONTINUOUS
 62
     6
 10
20663.1
 20
6951.58
 30
0.0
 11
21818.2
 21
6951.58
 31
0.0
  0
LINE
  5
C7A
  8
0
  6
CONTINUOUS
 62
     6
 10
20663.1
 20
6766.59
 30
0.0
 11
21818.2
 21
6766.59
 31
0.0
  0
LINE
  5
C7B
  8
0
  6
CONTINUOUS
 62
     6
 10
22898.2
 20
6710.09
 30
0.0
 11
22898.2
 21
7008.09
 31
0.0
  0
LINE
  5
C7C
  8
0
  6
CONTINUOUS
 62
     6
 10
23018.2
 20
6710.09
 30
0.0
 11
23018.2
 21
7008.09
 31
0.0
  0
LINE
  5
C7D
  8
0
  6
CONTINUOUS
 62
     6
 10
22898.2
 20
7008.09
 30
0.0
 11
23018.2
 21
7008.09
 31
0.0
  0
LINE
  5
C7E
  8
0
  6
CONTINUOUS
 62
     6
 10
22898.2
 20
6710.09
 30
0.0
 11
23018.2
 21
6710.09
 31
0.0
  0
LINE
  5
C7F
  8
0
  6
CONTINUOUS
 62
     6
 10
21818.2
 20
6995.69
 30
0.0
 11
22898.2
 21
6995.69
 31
0.0
  0
LINE
  5
C80
  8
0
  6
CONTINUOUS
 62
     6
 10
21818.2
 20
6722.49
 30
0.0
 11
22898.2
 21
6722.49
 31
0.0
  0
LINE
  5
C81
  8
0
  6
CONTINUOUS
 62
     6
 10
21818.2
 20
6722.49
 30
0.0
 11
21818.2
 21
6995.69
 31
0.0
  0
LINE
  5
C82
  8
0
  6
CONTINUOUS
 62
     6
 10
25998.1
 20
6769.09
 30
0.0
 11
25998.1
 21
6759.13
 31
0.0
  0
LINE
  5
C83
  8
0
  6
CONTINUOUS
 62
     6
 10
25998.1
 20
6949.09
 30
0.0
 11
25998.1
 21
6959.05
 31
0.0
  0
LINE
  5
C84
  8
0
  6
CONTINUOUS
 62
     6
 10
25908.1
 20
6969.09
 30
0.0
 11
25998.1
 21
6959.05
 31
0.0
  0
LINE
  5
C85
  8
0
  6
CONTINUOUS
 62
     6
 10
26125.2
 20
6859.09
 30
0.0
 11
20364.8
 21
6859.09
 31
0.0
  0
LINE
  5
C86
  8
0
  6
CONTINUOUS
 62
     6
 10
25998.1
 20
6999.09
 30
0.0
 11
25998.1
 21
6719.09
 31
0.0
  0
LINE
  5
C87
  8
0
  6
CONTINUOUS
 62
     6
 10
20553.1
 20
7029.07
 30
0.0
 11
20553.1
 21
6689.07
 31
0.0
  0
LINE
  5
C9C
  8
0
  6
CONTINUOUS
 62
     3
 10
35214.7
 20
16056.3
 30
0.0
 11
27206.4
 21
16056.2
 31
0.0
  0
LINE
  5
C9D
  8
0
  6
CONTINUOUS
 62
     3
 10
35486.6
 20
16729.3
 30
0.0
 11
27487.5
 21
16729.2
 31
0.0
  0
LINE
  5
C9E
  8
0
  6
CONTINUOUS
 62
     3
 10
27231.7
 20
16056.2
 30
0.0
 11
27231.7
 21
16018.2
 31
0.0
  0
LINE
  5
C9F
  8
0
  6
CONTINUOUS
 62
     3
 10
27231.7
 20
16018.2
 30
0.0
 11
27190.6
 21
16018.2
 31
0.0
  0
LINE
  5
CA0
  8
0
  6
CONTINUOUS
 62
     3
 10
43455.4
 20
16026.8
 30
0.0
 11
35445.3
 21
16026.6
 31
0.0
  0
LINE
  5
CA1
  8
0
  6
CONTINUOUS
 62
     3
 10
18991.5
 20
16687.3
 30
0.0
 11
26938.8
 21
16687.3
 31
0.0
  0
LINE
  5
CA2
  8
0
  6
CONTINUOUS
 62
     3
 10
19016.5
 20
16081.3
 30
0.0
 11
19016.5
 21
16047.8
 31
0.0
  0
LINE
  5
1590
  8
0
  6
CONTINUOUS
 62
     3
 10
2710.04
 20
15385.8
 30
0.0
 11
2955.04
 21
15385.8
 31
0.0
  0
LINE
  5
1591
  8
0
  6
CONTINUOUS
 62
     3
 10
3395.03
 20
16073.8
 30
0.0
 11
3395.03
 21
16047.8
 31
0.0
  0
LINE
  5
1592
  8
0
  6
CONTINUOUS
 62
     3
 10
3395.03
 20
16047.8
 30
0.0
 11
3370.04
 21
16047.8
 31
0.0
  0
LINE
  5
1593
  8
0
  6
CONTINUOUS
 62
     3
 10
3037.54
 20
17059.3
 30
0.0
 11
3037.54
 21
16885.8
 31
0.0
  0
LINE
  5
1594
  8
0
  6
CONTINUOUS
 62
     3
 10
2972.54
 20
17059.3
 30
0.0
 11
2972.54
 21
16885.8
 31
0.0
  0
LINE
  5
1595
  8
0
  6
CONTINUOUS
 62
     3
 10
3341.03
 20
16189.6
 30
0.0
 11
3341.04
 21
16081.3
 31
0.0
  0
LINE
  5
1596
  8
0
  6
CONTINUOUS
 62
     3
 10
2935.94
 20
15759.5
 30
0.0
 11
2931.97
 21
15762.6
 31
0.0
  0
LINE
  5
1597
  8
0
  6
CONTINUOUS
 62
     3
 10
3036.0
 20
15683.0
 30
0.0
 11
3031.24
 21
15686.6
 31
0.0
  0
LINE
  5
1598
  8
0
  6
CONTINUOUS
 62
     3
 10
2630.04
 20
16185.8
 30
0.0
 11
2630.04
 21
15465.8
 31
0.0
  0
LINE
  5
1599
  8
0
  6
CONTINUOUS
 62
     3
 10
3334.97
 20
16096.4
 30
0.0
 11
3249.9
 21
16161.5
 31
0.0
  0
LINE
  5
159A
  8
0
  6
CONTINUOUS
 62
     3
 10
3370.04
 20
16648.0
 30
0.0
 11
3370.04
 21
16186.3
 31
0.0
  0
LINE
  5
159B
  8
0
  6
CONTINUOUS
 62
     3
 10
3370.04
 20
16035.8
 30
0.0
 11
3364.84
 21
16018.0
 31
0.0
  0
LINE
  5
159C
  8
0
  6
CONTINUOUS
 62
     3
 10
3243.07
 20
16169.1
 30
0.0
 11
2931.97
 21
15762.6
 31
0.0
  0
LINE
  5
159D
  8
0
  6
CONTINUOUS
 62
     3
 10
3341.04
 20
16081.6
 30
0.0
 11
3036.0
 21
15683.0
 31
0.0
  0
LINE
  5
159E
  8
0
  6
CONTINUOUS
 62
     3
 10
2630.04
 20
16185.8
 30
0.0
 11
2681.42
 21
16839.7
 31
0.0
  0
LINE
  5
159F
  8
0
  6
CONTINUOUS
 62
     3
 10
2860.19
 20
15718.0
 30
0.0
 11
2645.04
 21
15567.3
 31
0.0
  0
LINE
  5
15A0
  8
0
  6
CONTINUOUS
 62
     3
 10
2996.04
 20
15612.2
 30
0.0
 11
2996.04
 21
15400.8
 31
0.0
  0
LINE
  5
15A1
  8
0
  6
CONTINUOUS
 62
     3
 10
2860.19
 20
15718.0
 30
0.0
 11
2885.98
 21
15718.0
 31
0.0
  0
LINE
  5
15A2
  8
0
  6
CONTINUOUS
 62
     3
 10
2710.04
 20
15400.8
 30
0.0
 11
2996.04
 21
15400.8
 31
0.0
  0
LINE
  5
15A3
  8
0
  6
CONTINUOUS
 62
     3
 10
3243.07
 20
16169.1
 30
0.0
 11
3341.04
 21
16189.6
 31
0.0
  0
LINE
  5
15A4
  8
0
  6
CONTINUOUS
 62
     3
 10
3318.57
 20
15859.9
 30
0.0
 11
3242.96
 21
15601.5
 31
0.0
  0
LINE
  5
15A5
  8
0
  6
CONTINUOUS
 62
     3
 10
2645.04
 20
15567.3
 30
0.0
 11
2645.04
 21
15465.8
 31
0.0
  0
LINE
  5
15A6
  8
0
  6
CONTINUOUS
 62
     3
 10
3197.05
 20
15893.4
 30
0.0
 11
3412.45
 21
15832.1
 31
0.0
  0
LINE
  5
15A7
  8
0
  6
CONTINUOUS
 62
     3
 10
3324.68
 20
16060.2
 30
0.0
 11
3462.47
 21
15914.5
 31
0.0
  0
LINE
  5
15A8
  8
0
  6
CONTINUOUS
 62
     3
 10
3057.86
 20
16885.8
 30
0.0
 11
2731.26
 21
16885.8
 31
0.0
  0
LINE
  5
15A9
  8
0
  6
CONTINUOUS
 62
     3
 10
3143.73
 20
16858.8
 30
0.0
 11
3324.11
 21
16732.8
 31
0.0
  0
LINE
  5
15AA
  8
0
  6
CONTINUOUS
 62
     3
 10
2975.04
 20
15612.2
 30
0.0
 11
2996.04
 21
15612.2
 31
0.0
  0
LINE
  5
15AB
  8
0
  6
CONTINUOUS
 62
     3
 10
3875.08
 20
16005.5
 30
0.0
 11
3875.08
 21
15970.5
 31
0.0
  0
LINE
  5
15AC
  8
0
  6
CONTINUOUS
 62
     3
 10
4120.31
 20
15945.5
 30
0.0
 11
3900.03
 21
15945.5
 31
0.0
  0
LINE
  5
15AD
  8
0
  6
CONTINUOUS
 62
     3
 10
3875.21
 20
15970.5
 30
0.0
 11
3900.18
 21
15945.5
 31
0.0
  0
LINE
  5
15AE
  8
0
  6
CONTINUOUS
 62
     3
 10
3635.04
 20
16027.5
 30
0.0
 11
3597.85
 21
16027.5
 31
0.0
  0
LINE
  5
15AF
  8
0
  6
CONTINUOUS
 62
     3
 10
3635.03
 20
16036.6
 30
0.0
 11
3635.03
 21
16007.6
 31
0.0
  0
LINE
  5
15B0
  8
0
  6
CONTINUOUS
 62
     3
 10
3855.87
 20
15982.6
 30
0.0
 11
3660.04
 21
15982.6
 31
0.0
  0
LINE
  5
15B1
  8
0
  6
CONTINUOUS
 62
     3
 10
3635.04
 20
16007.6
 30
0.0
 11
3660.05
 21
15982.6
 31
0.0
  0
LINE
  5
15B2
  8
0
  6
CONTINUOUS
 62
     3
 10
3591.03
 20
16011.1
 30
0.0
 11
3420.04
 21
16011.1
 31
0.0
  0
LINE
  5
15B3
  8
0
  6
CONTINUOUS
 62
     3
 10
3395.03
 20
16181.1
 30
0.0
 11
3395.04
 21
16036.0
 31
0.0
  0
LINE
  5
15B4
  8
0
  6
CONTINUOUS
 62
     3
 10
3420.01
 20
16011.1
 30
0.0
 11
3395.06
 21
16036.0
 31
0.0
  0
LINE
  5
15B5
  8
0
  6
CONTINUOUS
 62
     3
 10
8659.93
 20
16793.7
 30
0.0
 11
8659.95
 21
15995.7
 31
0.0
  0
LINE
  5
15B6
  8
0
  6
CONTINUOUS
 62
     3
 10
8559.92
 20
16793.6
 30
0.0
 11
8559.94
 21
15995.7
 31
0.0
  0
LINE
  5
15B7
  8
0
  6
CONTINUOUS
 62
     3
 10
4875.06
 20
16793.6
 30
0.0
 11
4875.06
 21
16621.9
 31
0.0
  0
LINE
  5
15B8
  8
0
  6
CONTINUOUS
 62
     3
 10
4925.06
 20
16793.6
 30
0.0
 11
4925.06
 21
16621.9
 31
0.0
  0
LINE
  5
15B9
  8
0
  6
CONTINUOUS
 62
     3
 10
5445.06
 20
16793.6
 30
0.0
 11
5445.06
 21
16621.9
 31
0.0
  0
LINE
  5
15BA
  8
0
  6
CONTINUOUS
 62
     3
 10
5495.06
 20
16793.6
 30
0.0
 11
5495.06
 21
16621.9
 31
0.0
  0
LINE
  5
15BB
  8
0
  6
CONTINUOUS
 62
     3
 10
6015.05
 20
16793.6
 30
0.0
 11
6015.05
 21
16621.9
 31
0.0
  0
LINE
  5
15BC
  8
0
  6
CONTINUOUS
 62
     3
 10
8559.97
 20
16262.7
 30
0.0
 11
6107.06
 21
16262.7
 31
0.0
  0
LINE
  5
15BD
  8
0
  6
CONTINUOUS
 62
     3
 10
4833.06
 20
16262.6
 30
0.0
 11
4247.25
 21
16262.6
 31
0.0
  0
LINE
  5
15BE
  8
0
  6
CONTINUOUS
 62
     3
 10
6065.04
 20
16793.6
 30
0.0
 11
6065.04
 21
16621.9
 31
0.0
  0
LINE
  5
15BF
  8
0
  6
CONTINUOUS
 62
     3
 10
14009.6
 20
15988.8
 30
0.0
 11
4137.69
 21
15988.6
 31
0.0
  0
LINE
  5
15C0
  8
0
  6
CONTINUOUS
 62
     3
 10
9659.92
 20
16793.7
 30
0.0
 11
9659.94
 21
15988.7
 31
0.0
  0
LINE
  5
15C1
  8
0
  6
CONTINUOUS
 62
     3
 10
9559.92
 20
16793.7
 30
0.0
 11
9559.94
 21
15988.7
 31
0.0
  0
LINE
  5
15C2
  8
0
  6
CONTINUOUS
 62
     3
 10
9559.96
 20
16262.8
 30
0.0
 11
8659.98
 21
16262.7
 31
0.0
  0
LINE
  5
15C3
  8
0
  6
CONTINUOUS
 62
     3
 10
3875.19
 20
16005.4
 30
0.0
 11
4194.15
 21
16803.4
 31
0.0
  0
LINE
  5
15C4
  8
0
  6
CONTINUOUS
 62
     3
 10
4175.52
 20
16773.5
 30
0.0
 11
3932.84
 21
16773.5
 31
0.0
  0
LINE
  5
15C5
  8
0
  6
CONTINUOUS
 62
     3
 10
3635.06
 20
16036.5
 30
0.0
 11
3932.84
 21
16773.5
 31
0.0
  0
LINE
  5
15C6
  8
0
  6
CONTINUOUS
 62
     3
 10
3855.91
 20
15982.5
 30
0.0
 11
4175.52
 21
16773.5
 31
0.0
  0
LINE
  5
15C7
  8
0
  6
CONTINUOUS
 62
     3
 10
3395.01
 20
16181.2
 30
0.0
 11
3544.83
 21
16539.8
 31
0.0
  0
LINE
  5
15C8
  8
0
  6
CONTINUOUS
 62
     3
 10
3444.38
 20
16735.2
 30
0.0
 11
3540.69
 21
16586.2
 31
0.0
  0
LINE
  5
15C9
  8
0
  6
CONTINUOUS
 62
     3
 10
3893.07
 20
16734.5
 30
0.0
 11
3591.0
 21
16011.1
 31
0.0
  0
LINE
  5
15CA
  8
0
  6
CONTINUOUS
 62
     3
 10
3552.78
 20
16867.9
 30
0.0
 11
3893.16
 21
16734.8
 31
0.0
  0
LINE
  5
15CB
  8
0
  6
CONTINUOUS
 62
     3
 10
4120.44
 20
15945.4
 30
0.0
 11
4463.38
 21
16803.4
 31
0.0
  0
LINE
  5
15CC
  8
0
  6
CONTINUOUS
 62
     3
 10
4463.26
 20
16803.5
 30
0.0
 11
4194.02
 21
16803.5
 31
0.0
  0
LINE
  5
15CD
  8
0
  6
CONTINUOUS
 62
     3
 10
14161.8
 20
16793.8
 30
0.0
 11
4459.45
 21
16793.6
 31
0.0
  0
LINE
  5
15CE
  8
0
  6
CONTINUOUS
 62
     3
 10
4444.58
 20
16756.4
 30
0.0
 11
4458.53
 21
16750.8
 31
0.0
  0
LINE
  5
15CF
  8
0
  6
CONTINUOUS
 62
     3
 10
4440.13
 20
16745.2
 30
0.0
 11
4454.08
 21
16739.7
 31
0.0
  0
LINE
  5
15D0
  8
0
  6
CONTINUOUS
 62
     3
 10
4441.47
 20
16638.1
 30
0.0
 11
4473.02
 21
16717.0
 31
0.0
  0
LINE
  5
15D1
  8
0
  6
CONTINUOUS
 62
     3
 10
4430.33
 20
16642.5
 30
0.0
 11
4461.88
 21
16721.5
 31
0.0
  0
LINE
  5
15D2
  8
0
  6
CONTINUOUS
 62
     3
 10
4398.19
 20
16640.3
 30
0.0
 11
4412.14
 21
16634.7
 31
0.0
  0
LINE
  5
15D3
  8
0
  6
CONTINUOUS
 62
     3
 10
4393.74
 20
16629.2
 30
0.0
 11
4407.68
 21
16623.6
 31
0.0
  0
LINE
  5
15D4
  8
0
  6
CONTINUOUS
 62
     3
 10
3893.18
 20
16734.8
 30
0.0
 11
3917.21
 21
16734.8
 31
0.0
  0
LINE
  5
15D5
  8
0
  6
CONTINUOUS
 62
     3
 10
3935.04
 20
16798.5
 30
0.0
 11
3935.04
 21
16773.5
 31
0.0
  0
LINE
  5
15D6
  8
0
  6
CONTINUOUS
 62
     3
 10
4168.04
 20
16773.5
 30
0.0
 11
4180.04
 21
16913.5
 31
0.0
  0
LINE
  5
15D7
  8
0
  6
CONTINUOUS
 62
     3
 10
4180.04
 20
16913.5
 30
0.0
 11
4031.04
 21
16926.5
 31
0.0
  0
LINE
  5
15D8
  8
0
  6
CONTINUOUS
 62
     3
 10
3935.04
 20
16798.5
 30
0.0
 11
4031.04
 21
16926.5
 31
0.0
  0
LINE
  5
15D9
  8
0
  6
CONTINUOUS
 62
     3
 10
3655.53
 20
16833.5
 30
0.0
 11
3649.61
 21
16830.1
 31
0.0
  0
LINE
  5
15DA
  8
0
  6
CONTINUOUS
 62
     3
 10
3590.02
 20
16853.4
 30
0.0
 11
3630.54
 21
16876.8
 31
0.0
  0
LINE
  5
15DB
  8
0
  6
CONTINUOUS
 62
     3
 10
3545.02
 20
16926.1
 30
0.0
 11
3545.02
 21
16871.0
 31
0.0
  0
LINE
  5
15DC
  8
0
  6
CONTINUOUS
 62
     3
 10
3495.03
 20
16870.4
 30
0.0
 11
3495.03
 21
16926.1
 31
0.0
  0
LINE
  5
15DD
  8
0
  6
CONTINUOUS
 62
     3
 10
3409.56
 20
16876.8
 30
0.0
 11
3457.7
 21
16849.0
 31
0.0
  0
LINE
  5
15DE
  8
0
  6
CONTINUOUS
 62
     3
 10
3432.62
 20
16805.7
 30
0.0
 11
3384.56
 21
16833.5
 31
0.0
  0
LINE
  5
15DF
  8
0
  6
CONTINUOUS
 62
     3
 10
3384.63
 20
16734.8
 30
0.0
 11
3432.56
 21
16762.5
 31
0.0
  0
LINE
  5
15E0
  8
0
  6
CONTINUOUS
 62
     3
 10
3455.5
 20
16718.0
 30
0.0
 11
3409.61
 21
16691.5
 31
0.0
  0
LINE
  5
15E1
  8
0
  6
CONTINUOUS
 62
     3
 10
3495.03
 20
16642.1
 30
0.0
 11
3495.03
 21
16656.8
 31
0.0
  0
LINE
  5
15E2
  8
0
  6
CONTINUOUS
 62
     3
 10
4235.69
 20
16881.4
 30
0.0
 11
4230.67
 21
16850.4
 31
0.0
  0
LINE
  5
15E3
  8
0
  6
CONTINUOUS
 62
     3
 10
4196.46
 20
16853.9
 30
0.0
 11
4228.38
 21
16848.7
 31
0.0
  0
LINE
  5
15E4
  8
0
  6
CONTINUOUS
 62
     3
 10
4228.39
 20
16848.7
 30
0.0
 11
4230.69
 21
16850.4
 31
0.0
  0
LINE
  5
15E5
  8
0
  6
CONTINUOUS
 62
     3
 10
4169.52
 20
16914.4
 30
0.0
 11
4244.77
 21
16967.1
 31
0.0
  0
LINE
  5
15E6
  8
0
  6
CONTINUOUS
 62
     3
 10
4173.56
 20
16837.9
 30
0.0
 11
4269.05
 21
16904.8
 31
0.0
  0
LINE
  5
15E7
  8
0
  6
CONTINUOUS
 62
     3
 10
4274.27
 20
16964.5
 30
0.0
 11
4269.06
 21
16904.8
 31
0.0
  0
LINE
  5
15E8
  8
0
  6
CONTINUOUS
 62
     3
 10
4244.76
 20
16967.1
 30
0.0
 11
4274.27
 21
16964.5
 31
0.0
  0
LINE
  5
15E9
  8
0
  6
CONTINUOUS
 62
     3
 10
9671.99
 20
15681.6
 30
0.0
 11
8536.08
 21
15988.7
 31
0.0
  0
LINE
  5
15EA
  8
0
  6
CONTINUOUS
 62
     3
 10
9785.05
 20
15988.7
 30
0.0
 11
9708.8
 21
15702.8
 31
0.0
  0
LINE
  5
15EB
  8
0
  6
CONTINUOUS
 62
     3
 10
3341.04
 20
16081.3
 30
0.0
 11
3395.04
 21
16081.3
 31
0.0
  0
LINE
  5
15EC
  8
0
  6
CONTINUOUS
 62
     3
 10
3341.04
 20
16186.3
 30
0.0
 11
3397.14
 21
16186.3
 31
0.0
  0
LINE
  5
15ED
  8
0
  6
CONTINUOUS
 62
     3
 10
3395.03
 20
16047.8
 30
0.0
 11
3370.04
 21
16047.8
 31
0.0
  0
LINE
  5
15EE
  8
0
  6
CONTINUOUS
 62
     3
 10
3370.04
 20
16081.3
 30
0.0
 11
3370.04
 21
16035.8
 31
0.0
  0
LINE
  5
15EF
  8
0
  6
CONTINUOUS
 62
     3
 10
14266.9
 20
16689.3
 30
0.0
 11
14266.9
 21
16534.8
 31
0.0
  0
LINE
  5
15F0
  8
0
  6
CONTINUOUS
 62
     3
 10
14161.8
 20
16793.8
 30
0.0
 11
14266.9
 21
16689.3
 31
0.0
  0
LINE
  5
15F1
  8
0
  6
CONTINUOUS
 62
     3
 10
14009.6
 20
15988.8
 30
0.0
 11
14266.9
 21
16534.8
 31
0.0
  0
LINE
  5
1711
  8
0
  6
CONTINUOUS
 62
     3
 10
6082.55
 20
16596.9
 30
0.0
 11
6082.55
 21
16281.9
 31
0.0
  0
LINE
  5
1712
  8
0
  6
CONTINUOUS
 62
     3
 10
4858.06
 20
16596.9
 30
0.0
 11
4858.06
 21
16281.9
 31
0.0
  0
LINE
  5
1713
  8
0
  6
CONTINUOUS
 62
     3
 10
6082.55
 20
16596.9
 30
0.0
 11
4858.06
 21
16596.9
 31
0.0
  0
LINE
  5
1714
  8
0
  6
CONTINUOUS
 62
     3
 10
6082.55
 20
16281.9
 30
0.0
 11
4858.06
 21
16281.9
 31
0.0
  0
LINE
  5
1715
  8
0
  6
CONTINUOUS
 62
     3
 10
6107.06
 20
16621.9
 30
0.0
 11
4833.06
 21
16621.9
 31
0.0
  0
LINE
  5
1716
  8
0
  6
CONTINUOUS
 62
     3
 10
6107.06
 20
16256.9
 30
0.0
 11
4833.06
 21
16256.9
 31
0.0
  0
LINE
  5
1717
  8
0
  6
CONTINUOUS
 62
     3
 10
4833.06
 20
16621.9
 30
0.0
 11
4833.06
 21
16256.9
 31
0.0
  0
LINE
  5
1718
  8
0
  6
CONTINUOUS
 62
     3
 10
6107.06
 20
16621.9
 30
0.0
 11
6107.06
 21
16256.9
 31
0.0
  0
LINE
  5
1719
  8
0
  6
CONTINUOUS
 62
     3
 10
4925.07
 20
16256.9
 30
0.0
 11
4925.08
 21
15988.6
 31
0.0
  0
LINE
  5
171A
  8
0
  6
CONTINUOUS
 62
     3
 10
4875.07
 20
16256.9
 30
0.0
 11
4875.08
 21
15988.6
 31
0.0
  0
LINE
  5
171B
  8
0
  6
CONTINUOUS
 62
     3
 10
5445.07
 20
16256.9
 30
0.0
 11
5445.08
 21
15988.6
 31
0.0
  0
LINE
  5
171C
  8
0
  6
CONTINUOUS
 62
     3
 10
5495.07
 20
16256.9
 30
0.0
 11
5495.08
 21
15988.6
 31
0.0
  0
LINE
  5
171D
  8
0
  6
CONTINUOUS
 62
     3
 10
6015.06
 20
16256.9
 30
0.0
 11
6015.07
 21
15988.6
 31
0.0
  0
LINE
  5
171E
  8
0
  6
CONTINUOUS
 62
     3
 10
6065.05
 20
16256.9
 30
0.0
 11
6065.06
 21
15988.6
 31
0.0
  0
LINE
  5
171F
  8
0
  6
CONTINUOUS
 62
     3
 10
53733.4
 20
16793.8
 30
0.0
 11
44031.1
 21
16793.6
 31
0.0
  0
LINE
  5
1720
  8
0
  6
CONTINUOUS
 62
     3
 10
53581.3
 20
15988.8
 30
0.0
 11
43709.3
 21
15988.6
 31
0.0
  0
LINE
  5
1721
  8
0
  6
CONTINUOUS
 62
     3
 10
45636.7
 20
16793.6
 30
0.0
 11
45636.7
 21
16621.9
 31
0.0
  0
LINE
  5
1722
  8
0
  6
CONTINUOUS
 62
     3
 10
44404.7
 20
16262.6
 30
0.0
 11
43818.9
 21
16262.6
 31
0.0
  0
LINE
  5
1723
  8
0
  6
CONTINUOUS
 62
     3
 10
45016.7
 20
16256.9
 30
0.0
 11
45016.7
 21
15988.6
 31
0.0
  0
LINE
  5
1724
  8
0
  6
CONTINUOUS
 62
     3
 10
45066.7
 20
16256.9
 30
0.0
 11
45066.7
 21
15988.6
 31
0.0
  0
LINE
  5
1725
  8
0
  6
CONTINUOUS
 62
     3
 10
48131.6
 20
16262.7
 30
0.0
 11
45678.7
 21
16262.7
 31
0.0
  0
LINE
  5
1726
  8
0
  6
CONTINUOUS
 62
     3
 10
45586.7
 20
16793.6
 30
0.0
 11
45586.7
 21
16621.9
 31
0.0
  0
LINE
  5
1727
  8
0
  6
CONTINUOUS
 62
     3
 10
45066.7
 20
16793.6
 30
0.0
 11
45066.7
 21
16621.9
 31
0.0
  0
LINE
  5
1728
  8
0
  6
CONTINUOUS
 62
     3
 10
45016.7
 20
16793.6
 30
0.0
 11
45016.7
 21
16621.9
 31
0.0
  0
LINE
  5
1729
  8
0
  6
CONTINUOUS
 62
     3
 10
44496.7
 20
16793.6
 30
0.0
 11
44496.7
 21
16621.9
 31
0.0
  0
LINE
  5
172A
  8
0
  6
CONTINUOUS
 62
     3
 10
44446.7
 20
16793.6
 30
0.0
 11
44446.7
 21
16621.9
 31
0.0
  0
LINE
  5
172B
  8
0
  6
CONTINUOUS
 62
     3
 10
45586.7
 20
16256.9
 30
0.0
 11
45586.7
 21
15988.6
 31
0.0
  0
LINE
  5
172C
  8
0
  6
CONTINUOUS
 62
     3
 10
45636.7
 20
16256.9
 30
0.0
 11
45636.7
 21
15988.6
 31
0.0
  0
LINE
  5
172D
  8
0
  6
CONTINUOUS
 62
     3
 10
44446.7
 20
16256.9
 30
0.0
 11
44446.7
 21
15988.6
 31
0.0
  0
LINE
  5
172E
  8
0
  6
CONTINUOUS
 62
     3
 10
44496.7
 20
16256.9
 30
0.0
 11
44496.7
 21
15988.6
 31
0.0
  0
LINE
  5
172F
  8
0
  6
CONTINUOUS
 62
     3
 10
45678.7
 20
16621.9
 30
0.0
 11
45678.7
 21
16256.9
 31
0.0
  0
LINE
  5
1730
  8
0
  6
CONTINUOUS
 62
     3
 10
44404.7
 20
16621.9
 30
0.0
 11
44404.7
 21
16256.9
 31
0.0
  0
LINE
  5
1731
  8
0
  6
CONTINUOUS
 62
     3
 10
45678.7
 20
16256.9
 30
0.0
 11
44404.7
 21
16256.9
 31
0.0
  0
LINE
  5
1732
  8
0
  6
CONTINUOUS
 62
     3
 10
45678.7
 20
16621.9
 30
0.0
 11
44404.7
 21
16621.9
 31
0.0
  0
LINE
  5
1733
  8
0
  6
CONTINUOUS
 62
     3
 10
45654.2
 20
16281.9
 30
0.0
 11
44429.7
 21
16281.9
 31
0.0
  0
LINE
  5
1734
  8
0
  6
CONTINUOUS
 62
     3
 10
45654.2
 20
16596.9
 30
0.0
 11
44429.7
 21
16596.9
 31
0.0
  0
LINE
  5
1735
  8
0
  6
CONTINUOUS
 62
     3
 10
44429.7
 20
16596.9
 30
0.0
 11
44429.7
 21
16281.9
 31
0.0
  0
LINE
  5
1736
  8
0
  6
CONTINUOUS
 62
     3
 10
45654.2
 20
16596.9
 30
0.0
 11
45654.2
 21
16281.9
 31
0.0
  0
LINE
  5
184B
  8
0
  6
CONTINUOUS
 62
     3
 10
5349.04
 20
16554.9
 30
0.0
 11
5450.06
 21
16554.9
 31
0.0
  0
LINE
  5
184C
  8
0
  6
CONTINUOUS
 62
     3
 10
5381.26
 20
16439.4
 30
0.0
 11
5417.84
 21
16439.4
 31
0.0
  0
LINE
  5
184D
  8
0
  6
CONTINUOUS
 62
     3
 10
5349.04
 20
16523.6
 30
0.0
 11
5381.26
 21
16523.6
 31
0.0
  0
LINE
  5
184E
  8
0
  6
CONTINUOUS
 62
     3
 10
5349.04
 20
16554.9
 30
0.0
 11
5349.04
 21
16523.6
 31
0.0
  0
LINE
  5
184F
  8
0
  6
CONTINUOUS
 62
     3
 10
5450.06
 20
16554.9
 30
0.0
 11
5450.06
 21
16523.6
 31
0.0
  0
LINE
  5
1850
  8
0
  6
CONTINUOUS
 62
     3
 10
5381.26
 20
16523.6
 30
0.0
 11
5381.26
 21
16439.4
 31
0.0
  0
LINE
  5
1851
  8
0
  6
CONTINUOUS
 62
     3
 10
5417.84
 20
16523.6
 30
0.0
 11
5417.84
 21
16439.4
 31
0.0
  0
LINE
  5
1852
  8
0
  6
CONTINUOUS
 62
     3
 10
5417.84
 20
16523.6
 30
0.0
 11
5450.06
 21
16523.6
 31
0.0
  0
LINE
  5
1853
  8
0
  6
CONTINUOUS
 62
     3
 10
5563.57
 20
16554.9
 30
0.0
 11
5621.3
 21
16554.9
 31
0.0
  0
LINE
  5
1854
  8
0
  6
CONTINUOUS
 62
     3
 10
5664.01
 20
16439.4
 30
0.0
 11
5701.75
 21
16439.4
 31
0.0
  0
LINE
  5
1855
  8
0
  6
CONTINUOUS
 62
     3
 10
5714.45
 20
16480.6
 30
0.0
 11
5736.65
 21
16480.6
 31
0.0
  0
LINE
  5
1856
  8
0
  6
CONTINUOUS
 62
     3
 10
5706.94
 20
16456.2
 30
0.0
 11
5744.16
 21
16456.2
 31
0.0
  0
LINE
  5
1857
  8
0
  6
CONTINUOUS
 62
     3
 10
5749.35
 20
16439.4
 30
0.0
 11
5787.09
 21
16439.4
 31
0.0
  0
LINE
  5
1858
  8
0
  6
CONTINUOUS
 62
     3
 10
5745.29
 20
16554.9
 30
0.0
 11
5787.09
 21
16439.4
 31
0.0
  0
LINE
  5
1859
  8
0
  6
CONTINUOUS
 62
     3
 10
5728.01
 20
16508.6
 30
0.0
 11
5736.65
 21
16480.6
 31
0.0
  0
LINE
  5
185A
  8
0
  6
CONTINUOUS
 62
     3
 10
5723.09
 20
16508.6
 30
0.0
 11
5714.45
 21
16480.6
 31
0.0
  0
LINE
  5
185B
  8
0
  6
CONTINUOUS
 62
     3
 10
5706.94
 20
16456.2
 30
0.0
 11
5701.75
 21
16439.4
 31
0.0
  0
LINE
  5
185C
  8
0
  6
CONTINUOUS
 62
     3
 10
5744.16
 20
16456.2
 30
0.0
 11
5749.35
 21
16439.4
 31
0.0
  0
LINE
  5
185D
  8
0
  6
CONTINUOUS
 62
     3
 10
5563.57
 20
16554.9
 30
0.0
 11
5563.57
 21
16439.4
 31
0.0
  0
LINE
  5
185E
  8
0
  6
CONTINUOUS
 62
     3
 10
5563.57
 20
16439.4
 30
0.0
 11
5618.52
 21
16439.4
 31
0.0
  0
LINE
  5
185F
  8
0
  6
CONTINUOUS
 62
     3
 10
5597.82
 20
16526.5
 30
0.0
 11
5597.82
 21
16468.4
 31
0.0
  0
LINE
  5
1860
  8
0
  6
CONTINUOUS
 62
     3
 10
5597.82
 20
16468.4
 30
0.0
 11
5612.72
 21
16468.4
 31
0.0
  0
LINE
  5
1861
  8
0
  6
CONTINUOUS
 62
     3
 10
5597.82
 20
16526.5
 30
0.0
 11
5612.89
 21
16526.5
 31
0.0
  0
LINE
  5
1862
  8
0
  6
CONTINUOUS
 62
     3
 10
5705.81
 20
16554.9
 30
0.0
 11
5745.29
 21
16554.9
 31
0.0
  0
LINE
  5
1863
  8
0
  6
CONTINUOUS
 62
     3
 10
5793.19
 20
16439.4
 30
0.0
 11
5826.28
 21
16439.4
 31
0.0
  0
LINE
  5
1864
  8
0
  6
CONTINUOUS
 62
     3
 10
5793.19
 20
16554.9
 30
0.0
 11
5827.44
 21
16554.9
 31
0.0
  0
LINE
  5
1865
  8
0
  6
CONTINUOUS
 62
     3
 10
5434.39
 20
16439.4
 30
0.0
 11
5472.13
 21
16439.4
 31
0.0
  0
LINE
  5
1866
  8
0
  6
CONTINUOUS
 62
     3
 10
5484.83
 20
16480.6
 30
0.0
 11
5507.03
 21
16480.6
 31
0.0
  0
LINE
  5
1867
  8
0
  6
CONTINUOUS
 62
     3
 10
5477.32
 20
16456.2
 30
0.0
 11
5514.54
 21
16456.2
 31
0.0
  0
LINE
  5
1868
  8
0
  6
CONTINUOUS
 62
     3
 10
5519.73
 20
16439.4
 30
0.0
 11
5557.47
 21
16439.4
 31
0.0
  0
LINE
  5
1869
  8
0
  6
CONTINUOUS
 62
     3
 10
5515.67
 20
16554.9
 30
0.0
 11
5557.47
 21
16439.4
 31
0.0
  0
LINE
  5
186A
  8
0
  6
CONTINUOUS
 62
     3
 10
5476.19
 20
16554.9
 30
0.0
 11
5434.39
 21
16439.4
 31
0.0
  0
LINE
  5
186B
  8
0
  6
CONTINUOUS
 62
     3
 10
5498.39
 20
16508.6
 30
0.0
 11
5507.03
 21
16480.6
 31
0.0
  0
LINE
  5
186C
  8
0
  6
CONTINUOUS
 62
     3
 10
5493.47
 20
16508.6
 30
0.0
 11
5484.83
 21
16480.6
 31
0.0
  0
LINE
  5
186D
  8
0
  6
CONTINUOUS
 62
     3
 10
5477.32
 20
16456.2
 30
0.0
 11
5472.13
 21
16439.4
 31
0.0
  0
LINE
  5
186E
  8
0
  6
CONTINUOUS
 62
     3
 10
5514.54
 20
16456.2
 30
0.0
 11
5519.73
 21
16439.4
 31
0.0
  0
LINE
  5
186F
  8
0
  6
CONTINUOUS
 62
     3
 10
5476.19
 20
16554.9
 30
0.0
 11
5515.67
 21
16554.9
 31
0.0
  0
LINE
  5
1870
  8
0
  6
CONTINUOUS
 62
     3
 10
5793.19
 20
16554.9
 30
0.0
 11
5793.19
 21
16439.4
 31
0.0
  0
LINE
  5
1871
  8
0
  6
CONTINUOUS
 62
     3
 10
5899.44
 20
16554.9
 30
0.0
 11
5899.44
 21
16439.4
 31
0.0
  0
LINE
  5
1872
  8
0
  6
CONTINUOUS
 62
     3
 10
5826.28
 20
16494.5
 30
0.0
 11
5826.28
 21
16439.4
 31
0.0
  0
LINE
  5
1873
  8
0
  6
CONTINUOUS
 62
     3
 10
5866.34
 20
16554.9
 30
0.0
 11
5866.34
 21
16499.8
 31
0.0
  0
LINE
  5
1874
  8
0
  6
CONTINUOUS
 62
     3
 10
5827.44
 20
16554.9
 30
0.0
 11
5861.47
 21
16499.5
 31
0.0
  0
LINE
  5
1875
  8
0
  6
CONTINUOUS
 62
     3
 10
5831.15
 20
16494.7
 30
0.0
 11
5865.18
 21
16439.4
 31
0.0
  0
LINE
  5
1876
  8
0
  6
CONTINUOUS
 62
     3
 10
5866.34
 20
16554.9
 30
0.0
 11
5899.44
 21
16554.9
 31
0.0
  0
LINE
  5
1877
  8
0
  6
CONTINUOUS
 62
     3
 10
5865.18
 20
16439.4
 30
0.0
 11
5899.44
 21
16439.4
 31
0.0
  0
LINE
  5
1878
  8
0
  6
CONTINUOUS
 62
     3
 10
5233.52
 20
16554.9
 30
0.0
 11
5233.52
 21
16439.4
 31
0.0
  0
LINE
  5
1879
  8
0
  6
CONTINUOUS
 62
     3
 10
4910.04
 20
16554.9
 30
0.0
 11
4910.04
 21
16381.6
 31
0.0
  0
LINE
  5
187A
  8
0
  6
CONTINUOUS
 62
     3
 10
4910.04
 20
16554.9
 30
0.0
 11
5135.32
 21
16554.9
 31
0.0
  0
LINE
  5
187B
  8
0
  6
CONTINUOUS
 62
     3
 10
4967.81
 20
16323.8
 30
0.0
 11
5141.1
 21
16323.8
 31
0.0
  0
LINE
  5
187C
  8
0
  6
CONTINUOUS
 62
     3
 10
4910.04
 20
16381.6
 30
0.0
 11
5135.32
 21
16554.9
 31
0.0
  0
LINE
  5
187D
  8
0
  6
CONTINUOUS
 62
     3
 10
4967.81
 20
16323.8
 30
0.0
 11
5141.1
 21
16554.9
 31
0.0
  0
LINE
  5
187E
  8
0
  6
CONTINUOUS
 62
     3
 10
5141.1
 20
16439.4
 30
0.0
 11
5233.52
 21
16439.4
 31
0.0
  0
LINE
  5
187F
  8
0
  6
CONTINUOUS
 62
     3
 10
5141.1
 20
16439.4
 30
0.0
 11
5141.1
 21
16323.8
 31
0.0
  0
LINE
  5
1880
  8
0
  6
CONTINUOUS
 62
     3
 10
5141.1
 20
16554.9
 30
0.0
 11
5233.52
 21
16554.9
 31
0.0
  0
LINE
  5
1881
  8
0
  6
CONTINUOUS
 62
     3
 10
5495.53
 20
16517.7
 30
0.0
 11
5496.33
 21
16517.7
 31
0.0
  0
LINE
  5
1882
  8
0
  6
CONTINUOUS
 62
     3
 10
5725.15
 20
16517.7
 30
0.0
 11
5725.95
 21
16517.7
 31
0.0
  0
LINE
  5
1883
  8
0
  6
CONTINUOUS
 62
     3
 10
5866.22
 20
16491.0
 30
0.0
 11
5866.85
 21
16491.0
 31
0.0
  0
LINE
  5
1884
  8
0
  6
CONTINUOUS
 62
     3
 10
5825.77
 20
16503.2
 30
0.0
 11
5826.41
 21
16503.2
 31
0.0
  0
LINE
  5
1885
  8
0
  6
CONTINUOUS
 62
     3
 10
5664.01
 20
16439.4
 30
0.0
 11
5705.81
 21
16554.9
 31
0.0
  0
LINE
  5
1886
  8
0
  6
CONTINUOUS
 62
     3
 10
44920.7
 20
16554.9
 30
0.0
 11
45021.7
 21
16554.9
 31
0.0
  0
LINE
  5
1887
  8
0
  6
CONTINUOUS
 62
     3
 10
44952.9
 20
16439.4
 30
0.0
 11
44989.5
 21
16439.4
 31
0.0
  0
LINE
  5
1888
  8
0
  6
CONTINUOUS
 62
     3
 10
44920.7
 20
16523.6
 30
0.0
 11
44952.9
 21
16523.6
 31
0.0
  0
LINE
  5
1889
  8
0
  6
CONTINUOUS
 62
     3
 10
44920.7
 20
16554.9
 30
0.0
 11
44920.7
 21
16523.6
 31
0.0
  0
LINE
  5
188A
  8
0
  6
CONTINUOUS
 62
     3
 10
45021.7
 20
16554.9
 30
0.0
 11
45021.7
 21
16523.6
 31
0.0
  0
LINE
  5
188B
  8
0
  6
CONTINUOUS
 62
     3
 10
44952.9
 20
16523.6
 30
0.0
 11
44952.9
 21
16439.4
 31
0.0
  0
LINE
  5
188C
  8
0
  6
CONTINUOUS
 62
     3
 10
44989.5
 20
16523.6
 30
0.0
 11
44989.5
 21
16439.4
 31
0.0
  0
LINE
  5
188D
  8
0
  6
CONTINUOUS
 62
     3
 10
44989.5
 20
16523.6
 30
0.0
 11
45021.7
 21
16523.6
 31
0.0
  0
LINE
  5
188E
  8
0
  6
CONTINUOUS
 62
     3
 10
45135.2
 20
16554.9
 30
0.0
 11
45192.9
 21
16554.9
 31
0.0
  0
LINE
  5
188F
  8
0
  6
CONTINUOUS
 62
     3
 10
45235.6
 20
16439.4
 30
0.0
 11
45273.4
 21
16439.4
 31
0.0
  0
LINE
  5
1890
  8
0
  6
CONTINUOUS
 62
     3
 10
45286.1
 20
16480.6
 30
0.0
 11
45308.3
 21
16480.6
 31
0.0
  0
LINE
  5
1891
  8
0
  6
CONTINUOUS
 62
     3
 10
45278.6
 20
16456.2
 30
0.0
 11
45315.8
 21
16456.2
 31
0.0
  0
LINE
  5
1892
  8
0
  6
CONTINUOUS
 62
     3
 10
45321.0
 20
16439.4
 30
0.0
 11
45358.7
 21
16439.4
 31
0.0
  0
LINE
  5
1893
  8
0
  6
CONTINUOUS
 62
     3
 10
45316.9
 20
16554.9
 30
0.0
 11
45358.7
 21
16439.4
 31
0.0
  0
LINE
  5
1894
  8
0
  6
CONTINUOUS
 62
     3
 10
45299.6
 20
16508.6
 30
0.0
 11
45308.3
 21
16480.6
 31
0.0
  0
LINE
  5
1895
  8
0
  6
CONTINUOUS
 62
     3
 10
45294.7
 20
16508.6
 30
0.0
 11
45286.1
 21
16480.6
 31
0.0
  0
LINE
  5
1896
  8
0
  6
CONTINUOUS
 62
     3
 10
45278.6
 20
16456.2
 30
0.0
 11
45273.4
 21
16439.4
 31
0.0
  0
LINE
  5
1897
  8
0
  6
CONTINUOUS
 62
     3
 10
45315.8
 20
16456.2
 30
0.0
 11
45321.0
 21
16439.4
 31
0.0
  0
LINE
  5
1898
  8
0
  6
CONTINUOUS
 62
     3
 10
45135.2
 20
16554.9
 30
0.0
 11
45135.2
 21
16439.4
 31
0.0
  0
LINE
  5
1899
  8
0
  6
CONTINUOUS
 62
     3
 10
45135.2
 20
16439.4
 30
0.0
 11
45190.2
 21
16439.4
 31
0.0
  0
LINE
  5
189A
  8
0
  6
CONTINUOUS
 62
     3
 10
45169.5
 20
16526.5
 30
0.0
 11
45169.5
 21
16468.4
 31
0.0
  0
LINE
  5
189B
  8
0
  6
CONTINUOUS
 62
     3
 10
45169.5
 20
16468.4
 30
0.0
 11
45184.3
 21
16468.4
 31
0.0
  0
LINE
  5
189C
  8
0
  6
CONTINUOUS
 62
     3
 10
45169.5
 20
16526.5
 30
0.0
 11
45184.5
 21
16526.5
 31
0.0
  0
LINE
  5
189D
  8
0
  6
CONTINUOUS
 62
     3
 10
45277.4
 20
16554.9
 30
0.0
 11
45316.9
 21
16554.9
 31
0.0
  0
LINE
  5
189E
  8
0
  6
CONTINUOUS
 62
     3
 10
45364.8
 20
16439.4
 30
0.0
 11
45397.9
 21
16439.4
 31
0.0
  0
LINE
  5
189F
  8
0
  6
CONTINUOUS
 62
     3
 10
45364.8
 20
16554.9
 30
0.0
 11
45399.1
 21
16554.9
 31
0.0
  0
LINE
  5
18A0
  8
0
  6
CONTINUOUS
 62
     3
 10
45006.0
 20
16439.4
 30
0.0
 11
45043.8
 21
16439.4
 31
0.0
  0
LINE
  5
18A1
  8
0
  6
CONTINUOUS
 62
     3
 10
45056.5
 20
16480.6
 30
0.0
 11
45078.7
 21
16480.6
 31
0.0
  0
LINE
  5
18A2
  8
0
  6
CONTINUOUS
 62
     3
 10
45048.9
 20
16456.2
 30
0.0
 11
45086.2
 21
16456.2
 31
0.0
  0
LINE
  5
18A3
  8
0
  6
CONTINUOUS
 62
     3
 10
45091.4
 20
16439.4
 30
0.0
 11
45129.1
 21
16439.4
 31
0.0
  0
LINE
  5
18A4
  8
0
  6
CONTINUOUS
 62
     3
 10
45087.3
 20
16554.9
 30
0.0
 11
45129.1
 21
16439.4
 31
0.0
  0
LINE
  5
18A5
  8
0
  6
CONTINUOUS
 62
     3
 10
45047.8
 20
16554.9
 30
0.0
 11
45006.0
 21
16439.4
 31
0.0
  0
LINE
  5
18A6
  8
0
  6
CONTINUOUS
 62
     3
 10
45070.0
 20
16508.6
 30
0.0
 11
45078.7
 21
16480.6
 31
0.0
  0
LINE
  5
18A7
  8
0
  6
CONTINUOUS
 62
     3
 10
45065.1
 20
16508.6
 30
0.0
 11
45056.5
 21
16480.6
 31
0.0
  0
LINE
  5
18A8
  8
0
  6
CONTINUOUS
 62
     3
 10
45048.9
 20
16456.2
 30
0.0
 11
45043.8
 21
16439.4
 31
0.0
  0
LINE
  5
18A9
  8
0
  6
CONTINUOUS
 62
     3
 10
45086.2
 20
16456.2
 30
0.0
 11
45091.4
 21
16439.4
 31
0.0
  0
LINE
  5
18AA
  8
0
  6
CONTINUOUS
 62
     3
 10
45047.8
 20
16554.9
 30
0.0
 11
45087.3
 21
16554.9
 31
0.0
  0
LINE
  5
18AB
  8
0
  6
CONTINUOUS
 62
     3
 10
45364.8
 20
16554.9
 30
0.0
 11
45364.8
 21
16439.4
 31
0.0
  0
LINE
  5
18AC
  8
0
  6
CONTINUOUS
 62
     3
 10
45471.1
 20
16554.9
 30
0.0
 11
45471.1
 21
16439.4
 31
0.0
  0
LINE
  5
18AD
  8
0
  6
CONTINUOUS
 62
     3
 10
45397.9
 20
16494.5
 30
0.0
 11
45397.9
 21
16439.4
 31
0.0
  0
LINE
  5
18AE
  8
0
  6
CONTINUOUS
 62
     3
 10
45438.0
 20
16554.9
 30
0.0
 11
45438.0
 21
16499.8
 31
0.0
  0
LINE
  5
18AF
  8
0
  6
CONTINUOUS
 62
     3
 10
45399.1
 20
16554.9
 30
0.0
 11
45433.1
 21
16499.5
 31
0.0
  0
LINE
  5
18B0
  8
0
  6
CONTINUOUS
 62
     3
 10
45402.8
 20
16494.7
 30
0.0
 11
45436.8
 21
16439.4
 31
0.0
  0
LINE
  5
18B1
  8
0
  6
CONTINUOUS
 62
     3
 10
45438.0
 20
16554.9
 30
0.0
 11
45471.1
 21
16554.9
 31
0.0
  0
LINE
  5
18B2
  8
0
  6
CONTINUOUS
 62
     3
 10
45436.8
 20
16439.4
 30
0.0
 11
45471.1
 21
16439.4
 31
0.0
  0
LINE
  5
18B3
  8
0
  6
CONTINUOUS
 62
     3
 10
44805.1
 20
16554.9
 30
0.0
 11
44805.1
 21
16439.4
 31
0.0
  0
LINE
  5
18B4
  8
0
  6
CONTINUOUS
 62
     3
 10
44481.7
 20
16554.9
 30
0.0
 11
44481.7
 21
16381.6
 31
0.0
  0
LINE
  5
18B5
  8
0
  6
CONTINUOUS
 62
     3
 10
44481.7
 20
16554.9
 30
0.0
 11
44707.0
 21
16554.9
 31
0.0
  0
LINE
  5
18B6
  8
0
  6
CONTINUOUS
 62
     3
 10
44539.4
 20
16323.8
 30
0.0
 11
44712.7
 21
16323.8
 31
0.0
  0
LINE
  5
18B7
  8
0
  6
CONTINUOUS
 62
     3
 10
44481.7
 20
16381.6
 30
0.0
 11
44707.0
 21
16554.9
 31
0.0
  0
LINE
  5
18B8
  8
0
  6
CONTINUOUS
 62
     3
 10
44539.4
 20
16323.8
 30
0.0
 11
44712.7
 21
16554.9
 31
0.0
  0
LINE
  5
18B9
  8
0
  6
CONTINUOUS
 62
     3
 10
44712.7
 20
16439.4
 30
0.0
 11
44805.1
 21
16439.4
 31
0.0
  0
LINE
  5
18BA
  8
0
  6
CONTINUOUS
 62
     3
 10
44712.7
 20
16439.4
 30
0.0
 11
44712.7
 21
16323.8
 31
0.0
  0
LINE
  5
18BB
  8
0
  6
CONTINUOUS
 62
     3
 10
44712.7
 20
16554.9
 30
0.0
 11
44805.1
 21
16554.9
 31
0.0
  0
LINE
  5
18BC
  8
0
  6
CONTINUOUS
 62
     3
 10
45067.2
 20
16517.7
 30
0.0
 11
45068.0
 21
16517.7
 31
0.0
  0
LINE
  5
18BD
  8
0
  6
CONTINUOUS
 62
     3
 10
45296.8
 20
16517.7
 30
0.0
 11
45297.6
 21
16517.7
 31
0.0
  0
LINE
  5
18BE
  8
0
  6
CONTINUOUS
 62
     3
 10
45437.8
 20
16491.0
 30
0.0
 11
45438.5
 21
16491.0
 31
0.0
  0
LINE
  5
18BF
  8
0
  6
CONTINUOUS
 62
     3
 10
45397.4
 20
16503.2
 30
0.0
 11
45398.0
 21
16503.2
 31
0.0
  0
LINE
  5
18C0
  8
0
  6
CONTINUOUS
 62
     3
 10
45235.6
 20
16439.4
 30
0.0
 11
45277.4
 21
16554.9
 31
0.0
  0
ARC
  5
18D8
  8
0
  6
CONTINUOUS
 62
     6
 10
35820.5
 20
5783.57
 30
0.0
 40
75.0
 50
180.0
 51
11.2933
  0
ARC
  5
18D9
  8
0
  6
CONTINUOUS
 62
     6
 10
35905.5
 20
5868.56
 30
0.0
 40
25.0
 50
18.3734
 51
191.293
  0
ARC
  5
18DA
  8
0
  6
CONTINUOUS
 62
     6
 10
35840.5
 20
5683.57
 30
0.0
 40
145.0
 50
270.0
 51
18.3734
  0
ARC
  5
18DB
  8
0
  6
CONTINUOUS
 62
     6
 10
35445.5
 20
5868.56
 30
0.0
 40
25.0
 50
348.707
 51
161.627
  0
ARC
  5
18DC
  8
0
  6
CONTINUOUS
 62
     6
 10
35530.5
 20
5783.57
 30
0.0
 40
75.0
 50
168.707
 51
0.0
  0
ARC
  5
18DD
  8
0
  6
CONTINUOUS
 62
     6
 10
35510.5
 20
5683.57
 30
0.0
 40
145.0
 50
161.627
 51
270.0
  0
ARC
  5
18DE
  8
0
  6
CONTINUOUS
 62
     6
 10
36005.5
 20
6774.91
 30
0.0
 40
20.0
 50
346.504
 51
0.0
  0
ARC
  5
18DF
  8
0
  6
CONTINUOUS
 62
     6
 10
35345.5
 20
6774.91
 30
0.0
 40
20.0
 50
180.0
 51
193.496
  0
ARC
  5
18E0
  8
0
  6
CONTINUOUS
 62
     6
 10
35848.4
 20
7152.55
 30
0.0
 40
30.0
 50
30.6506
 51
89.9999
  0
ARC
  5
18E1
  8
0
  6
CONTINUOUS
 62
     6
 10
36005.5
 20
6907.07
 30
0.0
 40
20.0
 50
0.0
 51
30.6507
  0
ARC
  5
18E2
  8
0
  6
CONTINUOUS
 62
     6
 10
35502.5
 20
7152.55
 30
0.0
 40
30.0
 50
90.0001
 51
149.349
  0
ARC
  5
18E3
  8
0
  6
CONTINUOUS
 62
     6
 10
35345.5
 20
6907.07
 30
0.0
 40
20.0
 50
149.349
 51
180.0
  0
ARC
  5
18E4
  8
0
  6
CONTINUOUS
 62
     6
 10
35766.6
 20
6122.55
 30
0.0
 40
99.9999
 50
270.0
 51
346.504
  0
ARC
  5
18E5
  8
0
  6
CONTINUOUS
 62
     6
 10
35584.3
 20
6122.55
 30
0.0
 40
99.9999
 50
193.496
 51
270.0
  0
ARC
  5
18E6
  8
0
  6
CONTINUOUS
 62
     6
 10
43237.5
 20
6734.33
 30
0.0
 40
30.0
 50
156.194
 51
180.0
  0
ARC
  5
18E7
  8
0
  6
CONTINUOUS
 62
     6
 10
43377.0
 20
7050.66
 30
0.0
 40
30.0
 50
90.0
 51
156.194
  0
ARC
  5
18E8
  8
0
  6
CONTINUOUS
 62
     6
 10
43737.9
 20
7050.66
 30
0.0
 40
30.0
 50
23.8059
 51
89.9999
  0
ARC
  5
18E9
  8
0
  6
CONTINUOUS
 62
     6
 10
43877.5
 20
6734.33
 30
0.0
 40
30.0
 50
0.0
 51
23.8059
  0
ARC
  5
18EA
  8
0
  6
CONTINUOUS
 62
     6
 10
43877.5
 20
6667.51
 30
0.0
 40
30.0
 50
334.259
 51
0.0
  0
ARC
  5
18EB
  8
0
  6
CONTINUOUS
 62
     6
 10
43618.6
 20
6130.66
 30
0.0
 40
30.0
 50
270.0
 51
334.259
  0
ARC
  5
18EC
  8
0
  6
CONTINUOUS
 62
     6
 10
43496.3
 20
6130.66
 30
0.0
 40
30.0
 50
205.741
 51
270.0
  0
ARC
  5
18ED
  8
0
  6
CONTINUOUS
 62
     6
 10
43237.5
 20
6667.51
 30
0.0
 40
30.0
 50
180.0
 51
205.741
  0
ARC
  5
18EE
  8
0
  6
CONTINUOUS
 62
     6
 10
43557.5
 20
5917.16
 30
0.0
 40
69.9999
 50
198.925
 51
45.0
  0
ARC
  5
18EF
  8
0
  6
CONTINUOUS
 62
     6
 10
43576.5
 20
5912.16
 30
0.0
 40
191.0
 50
270.0
 51
67.6805
  0
ARC
  5
18F0
  8
0
  6
CONTINUOUS
 62
     6
 10
43576.5
 20
5897.16
 30
0.0
 40
176.0
 50
183.652
 51
270.0
  0
ARC
  5
18F1
  8
0
  6
CONTINUOUS
 62
     6
 10
43207.5
 20
5797.15
 30
0.0
 40
299.999
 50
18.9251
 51
41.9998
  0
ARC
  5
18F2
  8
0
  6
CONTINUOUS
 62
     6
 10
43409.6
 20
5979.16
 30
0.0
 40
28.0
 50
41.9998
 51
200.025
  0
ARC
  5
18F3
  8
0
  6
CONTINUOUS
 62
     6
 10
43101.4
 20
5866.84
 30
0.0
 40
299.999
 50
3.65156
 51
20.0247
  0
ARC
  5
18F4
  8
0
  6
CONTINUOUS
 62
     6
 10
43710.0
 20
6146.49
 30
0.0
 40
200.0
 50
197.493
 51
225.0
  0
ARC
  5
18F5
  8
0
  6
CONTINUOUS
 62
     6
 10
43498.2
 20
6079.76
 30
0.0
 40
22.0
 50
17.493
 51
59.9999
  0
ARC
  5
18F6
  8
0
  6
CONTINUOUS
 62
     6
 10
43676.0
 20
6154.53
 30
0.0
 40
70.9999
 50
227.52
 51
247.681
  0
CIRCLE
  5
18F7
  8
0
  6
CONTINUOUS
 62
     6
 10
43557.5
 20
6755.66
 30
0.0
 40
287.5
  0
ARC
  5
18F8
  8
0
  6
CONTINUOUS
 62
     6
 10
50466.7
 20
7062.38
 30
0.0
 40
2.0
 50
330.001
 51
89.9989
  0
ARC
  5
18F9
  8
0
  6
CONTINUOUS
 62
     6
 10
50460.9
 20
7062.38
 30
0.0
 40
2.0
 50
89.9988
 51
149.999
  0
ARC
  5
18FA
  8
0
  6
CONTINUOUS
 62
     6
 10
50762.0
 20
7062.38
 30
0.0
 40
2.0
 50
30.0
 51
90.0
  0
CIRCLE
  5
18FB
  8
0
  6
CONTINUOUS
 62
     6
 10
50611.5
 20
6691.38
 30
0.0
 40
23.0
  0
ARC
  5
18FC
  8
0
  6
CONTINUOUS
 62
     6
 10
50611.5
 20
6691.38
 30
0.0
 40
50.0
 50
0.0
 51
180.0
  0
ARC
  5
18FD
  8
0
  6
CONTINUOUS
 62
     6
 10
50628.0
 20
6031.89
 30
0.0
 40
171.0
 50
256.55
 51
67.0368
  0
ARC
  5
18FE
  8
0
  6
CONTINUOUS
 62
     6
 10
50628.0
 20
6015.39
 30
0.0
 40
155.0
 50
184.217
 51
255.132
  0
ARC
  5
18FF
  8
0
  6
CONTINUOUS
 62
     6
 10
50719.5
 20
6247.25
 30
0.0
 40
62.9999
 50
180.0
 51
247.132
  0
ARC
  5
1900
  8
0
  6
CONTINUOUS
 62
     6
 10
50746.5
 20
6244.33
 30
0.0
 40
180.0
 50
180.0
 51
191.8
  0
ARC
  5
1901
  8
0
  6
CONTINUOUS
 62
     6
 10
50746.5
 20
6244.33
 30
0.0
 40
180.0
 50
213.52
 51
225.0
  0
ARC
  5
1902
  8
0
  6
CONTINUOUS
 62
     6
 10
50302.2
 20
5928.68
 30
0.0
 40
265.0
 50
19.2012
 51
42.6843
  0
ARC
  5
1903
  8
0
  6
CONTINUOUS
 62
     6
 10
50478.6
 20
6091.39
 30
0.0
 40
25.0
 50
42.6843
 51
201.679
  0
ARC
  5
1904
  8
0
  6
CONTINUOUS
 62
     6
 10
50209.1
 20
5984.26
 30
0.0
 40
265.0
 50
4.23058
 51
21.679
  0
ARC
  5
1905
  8
0
  6
CONTINUOUS
 62
     6
 10
50611.5
 20
6036.39
 30
0.0
 40
62.5
 50
199.158
 51
44.9999
  0
ARC
  5
1906
  8
0
  6
CONTINUOUS
 62
     6
 10
50743.7
 20
6243.18
 30
0.0
 40
177.073
 50
191.618
 51
213.702
  0
ARC
  5
1A06
  8
0
  6
CONTINUOUS
 62
     7
 10
47628.4
 20
27303.3
 30
0.0
 40
239.212
 50
270.0
 51
341.626
  0
ARC
  5
1A07
  8
0
  6
CONTINUOUS
 62
     7
 10
47326.8
 20
27486.2
 30
0.0
 40
293.79
 50
188.261
 51
197.133
  0
ARC
  5
1A08
  8
0
  6
CONTINUOUS
 62
     7
 10
46741.4
 20
27486.2
 30
0.0
 40
293.79
 50
342.867
 51
351.73902
  0
ARC
  5
1A09
  8
0
  6
CONTINUOUS
 62
     7
 10
47601.0
 20
27387.6
 30
0.0
 40
98.4984
 50
22.2133
 51
90.0
  0
ARC
  5
1A0A
  8
0
  6
CONTINUOUS
 62
     7
 10
47600.2
 20
27306.1
 30
0.0
 40
101.314
 50
270.0
 51
340.276
  0
ARC
  5
1A0B
  8
0
  6
CONTINUOUS
 62
     7
 10
47641.8
 20
27404.6
 30
0.0
 40
219.514
 50
23.9328
 51
90.0
  0
ARC
  5
1A0C
  8
0
  6
CONTINUOUS
 62
     7
 10
47505.5
 20
27344.1
 30
0.0
 40
368.668
 50
341.626
 51
23.9327
  0
ARC
  5
1A0D
  8
0
  6
CONTINUOUS
 62
     7
 10
47494.2
 20
27344.1
 30
0.0
 40
213.884
 50
340.276
 51
22.213
  0
ARC
  5
1A0E
  8
0
  6
CONTINUOUS
 62
     7
 10
49315.1
 20
27303.1
 30
0.0
 40
247.654
 50
206.967
 51
252.685
  0
ARC
  5
1A0F
  8
0
  6
CONTINUOUS
 62
     7
 10
49368.6
 20
27303.1
 30
0.0
 40
247.657
 50
287.263
 51
332.938
  0
ARC
  5
1A10
  8
0
  6
CONTINUOUS
 62
     7
 10
49341.8
 20
27389.1
 30
0.0
 40
337.713
 50
252.699
 51
287.263
  0
ARC
  5
1A11
  8
0
  6
CONTINUOUS
 62
     7
 10
49315.1
 20
27385.1
 30
0.0
 40
247.657
 50
107.346
 51
153.043
  0
ARC
  5
1A12
  8
0
  6
CONTINUOUS
 62
     7
 10
49395.3
 20
27344.1
 30
0.0
 40
337.713
 50
152.861
 51
207.131
  0
ARC
  5
1A13
  8
0
  6
CONTINUOUS
 62
     7
 10
47854.5
 20
27486.2
 30
0.0
 40
293.79
 50
342.867
 51
351.73902
  0
ARC
  5
1A14
  8
0
  6
CONTINUOUS
 62
     7
 10
48439.8
 20
27486.2
 30
0.0
 40
293.79
 50
188.261
 51
197.133
  0
ARC
  5
1A15
  8
0
  6
CONTINUOUS
 62
     7
 10
48275.2
 20
27331.5
 30
0.0
 40
360.226
 50
0.0
 51
6.7299
  0
ARC
  5
1A16
  8
0
  6
CONTINUOUS
 62
     7
 10
49133.5
 20
27624.1
 30
0.0
 40
557.002
 50
206.723
 51
211.578
  0
ARC
  5
1A17
  8
0
  6
CONTINUOUS
 62
     7
 10
49189.9
 20
27356.8
 30
0.0
 40
360.226
 50
180.0
 51
186.73
  0
ARC
  5
1A18
  8
0
  6
CONTINUOUS
 62
     7
 10
48331.5
 20
27064.1
 30
0.0
 40
556.999
 50
26.7228
 51
31.5781
  0
ARC
  5
1A19
  8
0
  6
CONTINUOUS
 62
     7
 10
49368.6
 20
27385.1
 30
0.0
 40
247.655
 50
27.0618
 51
72.7366
  0
ARC
  5
1A1A
  8
0
  6
CONTINUOUS
 62
     7
 10
49341.8
 20
27390.9
 30
0.0
 40
99.4976
 50
14.6894
 51
164.799
  0
ARC
  5
1A1B
  8
0
  6
CONTINUOUS
 62
     7
 10
49341.8
 20
27299.1
 30
0.0
 40
337.713
 50
72.7367
 51
107.323
  0
ARC
  5
1A1C
  8
0
  6
CONTINUOUS
 62
     7
 10
49341.8
 20
27297.3
 30
0.0
 40
99.4984
 50
195.203
 51
345.311
  0
ARC
  5
1A1D
  8
0
  6
CONTINUOUS
 62
     7
 10
49163.1
 20
27344.1
 30
0.0
 40
284.24
 50
345.311
 51
14.6886
  0
ARC
  5
1A1E
  8
0
  6
CONTINUOUS
 62
     7
 10
49520.5
 20
27344.1
 30
0.0
 40
284.24
 50
165.132
 51
194.869
  0
ARC
  5
1A1F
  8
0
  6
CONTINUOUS
 62
     7
 10
49288.3
 20
27344.1
 30
0.0
 40
337.713
 50
332.938
 51
27.062
  0
CIRCLE
  5
1AF7
  8
0
  6
CONTINUOUS
 62
     3
 10
18576.5
 20
15685.8
 30
0.0
 40
76.2
  0
ARC
  5
1AF8
  8
0
  6
CONTINUOUS
 62
     3
 10
18352.7
 20
16835.8
 30
0.0
 40
50.0
 50
90.0013
 51
175.507
  0
ARC
  5
1AF9
  8
0
  6
CONTINUOUS
 62
     3
 10
18331.5
 20
15465.8
 30
0.0
 40
80.0
 50
180.0
 51
270.0
  0
ARC
  5
1AFA
  8
0
  6
CONTINUOUS
 62
     3
 10
18576.5
 20
15685.8
 30
0.0
 40
300.0
 50
270.0
 51
343.6896
  0
ARC
  5
1AFB
  8
0
  6
CONTINUOUS
 62
     3
 10
18331.5
 20
15465.8
 30
0.0
 40
65.0
 50
180.0
 51
270.0
  0
ARC
  5
1AFC
  8
0
  6
CONTINUOUS
 62
     3
 10
18679.3
 20
16735.8
 30
0.0
 40
150.0
 50
55.0804
 51
90.0013
  0
ARC
  5
1AFD
  8
0
  6
CONTINUOUS
 62
     3
 10
18626.5
 20
17060.3
 30
0.0
 40
32.5
 50
0.0
 51
180.0
  0
ARC
  5
1AFE
  8
0
  6
CONTINUOUS
 62
     3
 10
19047.6
 20
15880.1
 30
0.0
 40
50.0
 50
254.542
 51
43.776
  0
CIRCLE
  5
1AFF
  8
0
  6
CONTINUOUS
 62
     3
 10
18626.5
 20
16765.8
 30
0.0
 40
76.2
  0
ARC
  5
1B00
  8
0
  6
CONTINUOUS
 62
     3
 10
18431.5
 20
15455.8
 30
0.0
 40
149.25
 50
204.306
 51
332.0298
  0
CIRCLE
  5
1B01
  8
0
  6
CONTINUOUS
 62
     3
 10
18626.5
 20
16765.8
 30
0.0
 40
38.5
  0
CIRCLE
  5
1B02
  8
0
  6
CONTINUOUS
 62
     3
 10
18576.5
 20
15685.8
 30
0.0
 40
38.5
  0
ARC
  5
1B03
  8
0
  6
CONTINUOUS
 62
     3
 10
27116.6
 20
16784.0
 30
0.0
 40
89.9999
 50
67.483
 51
180.001
  0
ARC
  5
1B04
  8
0
  6
CONTINUOUS
 62
     3
 10
27095.3
 20
16558.9
 30
0.0
 40
49.9999
 50
337.3122
 51
32.858
  0
ARC
  5
1B05
  8
0
  6
CONTINUOUS
 62
     3
 10
27116.6
 20
16784.0
 30
0.0
 40
89.9999
 50
180.002
 51
212.871
  0
CIRCLE
  5
1B06
  8
0
  6
CONTINUOUS
 62
     3
 10
27116.6
 20
16784.0
 30
0.0
 40
34.9999
  0
CIRCLE
  5
1B07
  8
0
  6
CONTINUOUS
 62
     3
 10
27116.6
 20
16784.0
 30
0.0
 40
69.9999
  0
ARC
  5
1B08
  8
0
  6
CONTINUOUS
 62
     3
 10
44020.5
 20
16726.7
 30
0.0
 40
25.9999
 50
338.2178
 51
68.1968
  0
ARC
  5
1B09
  8
0
  6
CONTINUOUS
 62
     3
 10
44020.5
 20
16726.7
 30
0.0
 40
14.0
 50
338.2178
 51
68.1968
  0
ARC
  5
1B0A
  8
0
  6
CONTINUOUS
 62
     3
 10
43989.0
 20
16647.7
 30
0.0
 40
25.9999
 50
248.218
 51
338.2142
  0
ARC
  5
1B0B
  8
0
  6
CONTINUOUS
 62
     3
 10
43989.0
 20
16647.7
 30
0.0
 40
14.0
 50
248.218
 51
338.2142
  0
ARC
  5
1B0C
  8
0
  6
CONTINUOUS
 62
     3
 10
27116.6
 20
16784.1
 30
0.0
 40
162.5
 50
11.6256
 51
14.2631
  0
ARC
  5
1B0D
  8
0
  6
CONTINUOUS
 62
     3
 10
27259.6
 20
16820.4
 30
0.0
 40
15.0
 50
14.2593
 51
120.016
  0
ARC
  5
1B0E
  8
0
  6
CONTINUOUS
 62
     3
 10
27116.6
 20
16784.1
 30
0.0
 40
162.5
 50
45.7276
 51
74.2637
  0
ARC
  5
1B0F
  8
0
  6
CONTINUOUS
 62
     3
 10
27156.6
 20
16926.1
 30
0.0
 40
15.0
 50
74.2593
 51
180.016
  0
ARC
  5
1B10
  8
0
  6
CONTINUOUS
 62
     3
 10
27219.6
 20
16889.7
 30
0.0
 40
15.0
 50
300.0102
 51
45.7086
  0
ARC
  5
1B11
  8
0
  6
CONTINUOUS
 62
     3
 10
27116.6
 20
16784.1
 30
0.0
 40
162.5
 50
105.728
 51
134.264
  0
ARC
  5
1B12
  8
0
  6
CONTINUOUS
 62
     3
 10
27013.7
 20
16889.7
 30
0.0
 40
15.0
 50
134.259
 51
240.016
  0
ARC
  5
1B13
  8
0
  6
CONTINUOUS
 62
     3
 10
27076.7
 20
16926.1
 30
0.0
 40
15.0
 50
0.010175
 51
105.709
  0
ARC
  5
1B14
  8
0
  6
CONTINUOUS
 62
     3
 10
27116.6
 20
16784.1
 30
0.0
 40
162.5
 50
165.728
 51
194.264
  0
ARC
  5
1B15
  8
0
  6
CONTINUOUS
 62
     3
 10
26973.7
 20
16747.8
 30
0.0
 40
15.0
 50
194.259
 51
300.0161
  0
ARC
  5
1B16
  8
0
  6
CONTINUOUS
 62
     3
 10
26973.7
 20
16820.5
 30
0.0
 40
15.0
 50
60.0102
 51
165.709
  0
ARC
  5
1B17
  8
0
  6
CONTINUOUS
 62
     3
 10
27116.6
 20
16784.1
 30
0.0
 40
162.5
 50
225.728
 51
254.264
  0
ARC
  5
1B18
  8
0
  6
CONTINUOUS
 62
     3
 10
27076.7
 20
16642.2
 30
0.0
 40
15.0
 50
254.259
 51
0.016077
  0
ARC
  5
1B19
  8
0
  6
CONTINUOUS
 62
     3
 10
27013.7
 20
16678.5
 30
0.0
 40
15.0
 50
120.01
 51
225.709
  0
ARC
  5
1B1A
  8
0
  6
CONTINUOUS
 62
     3
 10
27116.6
 20
16784.1
 30
0.0
 40
202.5
 50
5.02693
 51
276.6995
  0
ARC
  5
1B1B
  8
0
  6
CONTINUOUS
 62
     3
 10
35812.4
 20
16926.2
 30
0.0
 40
35.0
 50
289.9271
 51
320.1003
  0
ARC
  5
1B1C
  8
0
  6
CONTINUOUS
 62
     3
 10
35812.4
 20
16926.2
 30
0.0
 40
35.0
 50
98.0898
 51
151.937
  0
ARC
  5
1B1D
  8
0
  6
CONTINUOUS
 62
     3
 10
35812.4
 20
16926.2
 30
0.0
 40
35.0
 50
324.0109
 51
26.0164
  0
CIRCLE
  5
1B1E
  8
0
  6
CONTINUOUS
 62
     3
 10
49181.6
 20
15840.7
 30
0.0
 40
90.0
  0
ARC
  5
1B1F
  8
0
  6
CONTINUOUS
 62
     3
 10
49251.4
 20
15710.5
 30
0.0
 40
30.0
 50
254.871
 51
345.0687
  0
CIRCLE
  5
1B20
  8
0
  6
CONTINUOUS
 62
     3
 10
49181.6
 20
15840.7
 30
0.0
 40
65.0
  0
CIRCLE
  5
1B21
  8
0
  6
CONTINUOUS
 62
     3
 10
53681.5
 20
16640.8
 30
0.0
 40
84.0
  0
CIRCLE
  5
1B22
  8
0
  6
CONTINUOUS
 62
     3
 10
53681.5
 20
16640.8
 30
0.0
 40
62.5
  0
ARC
  5
1B23
  8
0
  6
CONTINUOUS
 62
     3
 10
18626.5
 20
16765.8
 30
0.0
 40
272.5
 50
359.911005
 51
83.1504
  0
ARC
  5
1B24
  8
0
  6
CONTINUOUS
 62
     3
 10
18626.5
 20
16765.8
 30
0.0
 40
272.5
 50
96.8499
 51
153.875
  0
CIRCLE
  5
1B25
  8
0
  6
CONTINUOUS
 62
     6
 10
6837.13
 20
6859.06
 30
0.0
 40
90.0
  0
ARC
  5
1B26
  8
0
  6
CONTINUOUS
 62
     6
 10
6837.13
 20
6859.06
 30
0.0
 40
120.0
 50
84.5212
 51
275.4788
  0
CIRCLE
  5
1B27
  8
0
  6
CONTINUOUS
 62
     6
 10
11162.1
 20
6859.08
 30
0.0
 40
89.9996
  0
CIRCLE
  5
1B28
  8
0
  6
CONTINUOUS
 62
     6
 10
11162.1
 20
6859.08
 30
0.0
 40
55.0
  0
CIRCLE
  5
1B29
  8
0
  6
CONTINUOUS
 62
     6
 10
20553.1
 20
6859.07
 30
0.0
 40
90.0
  0
ARC
  5
1B2A
  8
0
  6
CONTINUOUS
 62
     6
 10
20553.1
 20
6859.07
 30
0.0
 40
120.0
 50
84.5212
 51
275.4788
  0
CIRCLE
  5
1B2B
  8
0
  6
CONTINUOUS
 62
     6
 10
25998.1
 20
6859.09
 30
0.0
 40
89.9996
  0
CIRCLE
  5
1B2C
  8
0
  6
CONTINUOUS
 62
     6
 10
25998.1
 20
6859.09
 30
0.0
 40
55.0
  0
CIRCLE
  5
1BCE
  8
0
  6
CONTINUOUS
 62
     6
 10
35675.5
 20
6857.55
 30
0.0
 40
287.5
  0
CIRCLE
  5
1D38
  8
0
  6
CONTINUOUS
 62
     3
 10
2955.04
 20
15685.8
 30
0.0
 40
76.2
  0
ARC
  5
1D39
  8
0
  6
CONTINUOUS
 62
     3
 10
2731.27
 20
16835.8
 30
0.0
 40
50.0
 50
90.0013
 51
175.507
  0
ARC
  5
1D3A
  8
0
  6
CONTINUOUS
 62
     3
 10
2710.04
 20
15465.8
 30
0.0
 40
80.0
 50
180.0
 51
270.0
  0
ARC
  5
1D3B
  8
0
  6
CONTINUOUS
 62
     3
 10
2955.04
 20
15685.8
 30
0.0
 40
300.0
 50
270.0
 51
343.6896
  0
ARC
  5
1D3C
  8
0
  6
CONTINUOUS
 62
     3
 10
2710.04
 20
15465.8
 30
0.0
 40
65.0
 50
180.0
 51
270.0
  0
ARC
  5
1D3D
  8
0
  6
CONTINUOUS
 62
     3
 10
3057.86
 20
16735.8
 30
0.0
 40
150.0
 50
55.0804
 51
90.0013
  0
ARC
  5
1D3E
  8
0
  6
CONTINUOUS
 62
     3
 10
3005.04
 20
17060.3
 30
0.0
 40
32.5
 50
0.0
 51
180.0
  0
ARC
  5
1D3F
  8
0
  6
CONTINUOUS
 62
     3
 10
3426.15
 20
15880.1
 30
0.0
 40
50.0
 50
254.542
 51
43.776
  0
CIRCLE
  5
1D40
  8
0
  6
CONTINUOUS
 62
     3
 10
3005.04
 20
16765.8
 30
0.0
 40
76.2
  0
ARC
  5
1D41
  8
0
  6
CONTINUOUS
 62
     3
 10
2810.04
 20
15455.8
 30
0.0
 40
149.25
 50
204.306
 51
332.0298
  0
CIRCLE
  5
1D42
  8
0
  6
CONTINUOUS
 62
     3
 10
3005.04
 20
16765.8
 30
0.0
 40
38.5
  0
CIRCLE
  5
1D43
  8
0
  6
CONTINUOUS
 62
     3
 10
2955.04
 20
15685.8
 30
0.0
 40
38.5
  0
ARC
  5
1D44
  8
0
  6
CONTINUOUS
 62
     3
 10
3519.95
 20
16784.0
 30
0.0
 40
89.9999
 50
67.483
 51
180.001
  0
ARC
  5
1D45
  8
0
  6
CONTINUOUS
 62
     3
 10
3498.66
 20
16558.9
 30
0.0
 40
49.9999
 50
337.3122
 51
32.858
  0
ARC
  5
1D46
  8
0
  6
CONTINUOUS
 62
     3
 10
3519.95
 20
16784.0
 30
0.0
 40
89.9999
 50
180.002
 51
212.871
  0
CIRCLE
  5
1D47
  8
0
  6
CONTINUOUS
 62
     3
 10
3519.95
 20
16784.0
 30
0.0
 40
34.9999
  0
CIRCLE
  5
1D48
  8
0
  6
CONTINUOUS
 62
     3
 10
3519.95
 20
16784.0
 30
0.0
 40
69.9999
  0
ARC
  5
1D49
  8
0
  6
CONTINUOUS
 62
     3
 10
4448.88
 20
16726.7
 30
0.0
 40
25.9999
 50
338.2178
 51
68.1968
  0
ARC
  5
1D4A
  8
0
  6
CONTINUOUS
 62
     3
 10
4448.88
 20
16726.7
 30
0.0
 40
14.0
 50
338.2178
 51
68.1968
  0
ARC
  5
1D4B
  8
0
  6
CONTINUOUS
 62
     3
 10
4417.33
 20
16647.7
 30
0.0
 40
25.9999
 50
248.218
 51
338.2142
  0
ARC
  5
1D4C
  8
0
  6
CONTINUOUS
 62
     3
 10
4417.33
 20
16647.7
 30
0.0
 40
14.0
 50
248.218
 51
338.2142
  0
ARC
  5
1D4D
  8
0
  6
CONTINUOUS
 62
     3
 10
3520.02
 20
16784.1
 30
0.0
 40
162.5
 50
11.6256
 51
14.2631
  0
ARC
  5
1D4E
  8
0
  6
CONTINUOUS
 62
     3
 10
3662.98
 20
16820.4
 30
0.0
 40
15.0
 50
14.2593
 51
120.016
  0
ARC
  5
1D4F
  8
0
  6
CONTINUOUS
 62
     3
 10
3520.02
 20
16784.1
 30
0.0
 40
162.5
 50
45.7276
 51
74.2637
  0
ARC
  5
1D50
  8
0
  6
CONTINUOUS
 62
     3
 10
3560.02
 20
16926.1
 30
0.0
 40
15.0
 50
74.2593
 51
180.016
  0
ARC
  5
1D51
  8
0
  6
CONTINUOUS
 62
     3
 10
3622.99
 20
16889.7
 30
0.0
 40
15.0
 50
300.0102
 51
45.7086
  0
ARC
  5
1D52
  8
0
  6
CONTINUOUS
 62
     3
 10
3520.02
 20
16784.1
 30
0.0
 40
162.5
 50
105.728
 51
134.264
  0
ARC
  5
1D53
  8
0
  6
CONTINUOUS
 62
     3
 10
3417.08
 20
16889.7
 30
0.0
 40
15.0
 50
134.259
 51
240.016
  0
ARC
  5
1D54
  8
0
  6
CONTINUOUS
 62
     3
 10
3480.04
 20
16926.1
 30
0.0
 40
15.0
 50
0.010175
 51
105.709
  0
ARC
  5
1D55
  8
0
  6
CONTINUOUS
 62
     3
 10
3520.02
 20
16784.1
 30
0.0
 40
162.5
 50
165.728
 51
194.264
  0
ARC
  5
1D56
  8
0
  6
CONTINUOUS
 62
     3
 10
3377.08
 20
16747.8
 30
0.0
 40
15.0
 50
194.259
 51
300.0161
  0
ARC
  5
1D57
  8
0
  6
CONTINUOUS
 62
     3
 10
3377.08
 20
16820.5
 30
0.0
 40
15.0
 50
60.0102
 51
165.709
  0
ARC
  5
1D58
  8
0
  6
CONTINUOUS
 62
     3
 10
3520.02
 20
16784.1
 30
0.0
 40
162.5
 50
225.728
 51
254.264
  0
ARC
  5
1D59
  8
0
  6
CONTINUOUS
 62
     3
 10
3480.02
 20
16642.2
 30
0.0
 40
15.0
 50
254.259
 51
0.016077
  0
ARC
  5
1D5A
  8
0
  6
CONTINUOUS
 62
     3
 10
3417.06
 20
16678.5
 30
0.0
 40
15.0
 50
120.01
 51
225.709
  0
ARC
  5
1D5B
  8
0
  6
CONTINUOUS
 62
     3
 10
3520.02
 20
16784.1
 30
0.0
 40
202.5
 50
5.02693
 51
276.6995
  0
ARC
  5
1D5C
  8
0
  6
CONTINUOUS
 62
     3
 10
4240.82
 20
16926.2
 30
0.0
 40
35.0
 50
289.9271
 51
320.1003
  0
ARC
  5
1D5D
  8
0
  6
CONTINUOUS
 62
     3
 10
4240.82
 20
16926.2
 30
0.0
 40
35.0
 50
98.0898
 51
151.937
  0
ARC
  5
1D5E
  8
0
  6
CONTINUOUS
 62
     3
 10
4240.82
 20
16926.2
 30
0.0
 40
35.0
 50
324.0109
 51
26.0164
  0
CIRCLE
  5
1D5F
  8
0
  6
CONTINUOUS
 62
     3
 10
9609.94
 20
15840.7
 30
0.0
 40
90.0
  0
ARC
  5
1D60
  8
0
  6
CONTINUOUS
 62
     3
 10
9679.82
 20
15710.5
 30
0.0
 40
30.0
 50
254.871
 51
345.0687
  0
CIRCLE
  5
1D61
  8
0
  6
CONTINUOUS
 62
     3
 10
9609.94
 20
15840.7
 30
0.0
 40
65.0
  0
CIRCLE
  5
1D62
  8
0
  6
CONTINUOUS
 62
     3
 10
14109.9
 20
16640.8
 30
0.0
 40
84.0
  0
CIRCLE
  5
1D63
  8
0
  6
CONTINUOUS
 62
     3
 10
14109.9
 20
16640.8
 30
0.0
 40
62.5
  0
ARC
  5
1D64
  8
0
  6
CONTINUOUS
 62
     3
 10
3005.04
 20
16765.8
 30
0.0
 40
272.5
 50
359.911005
 51
83.1504
  0
ARC
  5
1D65
  8
0
  6
CONTINUOUS
 62
     3
 10
3005.04
 20
16765.8
 30
0.0
 40
272.5
 50
96.8499
 51
153.875
  0
ARC
  5
1DF2
  8
0
  6
CONTINUOUS
 62
     3
 10
5785.93
 20
16526.5
 30
0.0
 40
60.6091
 50
188.261
 51
197.133
  0
ARC
  5
1DF3
  8
0
  6
CONTINUOUS
 62
     3
 10
5665.17
 20
16526.5
 30
0.0
 40
60.6091
 50
342.867
 51
351.73869
  0
ARC
  5
1DF4
  8
0
  6
CONTINUOUS
 62
     3
 10
5590.86
 20
16497.1
 30
0.0
 40
44.1245
 50
340.2753
 51
22.213
  0
ARC
  5
1DF5
  8
0
  6
CONTINUOUS
 62
     3
 10
5612.89
 20
16506.1
 30
0.0
 40
20.3205
 50
22.213
 51
90.0
  0
ARC
  5
1DF6
  8
0
  6
CONTINUOUS
 62
     3
 10
5612.72
 20
16489.3
 30
0.0
 40
20.9011
 50
270.0
 51
340.2753
  0
ARC
  5
1DF7
  8
0
  6
CONTINUOUS
 62
     3
 10
5593.18
 20
16497.1
 30
0.0
 40
76.0567
 50
341.626
 51
23.9326
  0
ARC
  5
1DF8
  8
0
  6
CONTINUOUS
 62
     3
 10
5621.3
 20
16509.6
 30
0.0
 40
45.2856
 50
23.9325
 51
90.0
  0
ARC
  5
1DF9
  8
0
  6
CONTINUOUS
 62
     3
 10
5618.52
 20
16488.7
 30
0.0
 40
49.3497
 50
270.0
 51
341.626
  0
ARC
  5
1DFA
  8
0
  6
CONTINUOUS
 62
     3
 10
5556.31
 20
16526.5
 30
0.0
 40
60.6091
 50
188.261
 51
197.133
  0
ARC
  5
1DFB
  8
0
  6
CONTINUOUS
 62
     3
 10
5435.55
 20
16526.5
 30
0.0
 40
60.6091
 50
342.867
 51
351.73869
  0
ARC
  5
1DFC
  8
0
  6
CONTINUOUS
 62
     3
 10
5940.66
 20
16499.8
 30
0.0
 40
74.3149
 50
180.0
 51
186.73
  0
ARC
  5
1DFD
  8
0
  6
CONTINUOUS
 62
     3
 10
5751.97
 20
16494.5
 30
0.0
 40
74.3149
 50
0.0
 51
6.7298
  0
ARC
  5
1DFE
  8
0
  6
CONTINUOUS
 62
     3
 10
5929.05
 20
16554.9
 30
0.0
 40
114.91
 50
206.723
 51
211.578
  0
ARC
  5
1DFF
  8
0
  6
CONTINUOUS
 62
     3
 10
5763.58
 20
16439.4
 30
0.0
 40
114.91
 50
26.7229
 51
31.5782
  0
ARC
  5
1E00
  8
0
  6
CONTINUOUS
 62
     3
 10
5983.04
 20
16497.1
 30
0.0
 40
69.6702
 50
152.861
 51
207.131
  0
ARC
  5
1E01
  8
0
  6
CONTINUOUS
 62
     3
 10
5960.98
 20
16497.1
 30
0.0
 40
69.6702
 50
332.9381
 51
27.0619
  0
ARC
  5
1E02
  8
0
  6
CONTINUOUS
 62
     3
 10
5972.01
 20
16487.8
 30
0.0
 40
69.6702
 50
72.7368
 51
107.324
  0
ARC
  5
1E03
  8
0
  6
CONTINUOUS
 62
     3
 10
5972.01
 20
16506.4
 30
0.0
 40
69.6702
 50
252.699
 51
287.2632
  0
ARC
  5
1E04
  8
0
  6
CONTINUOUS
 62
     3
 10
5966.5
 20
16488.7
 30
0.0
 40
51.0915
 50
206.967
 51
252.685
  0
ARC
  5
1E05
  8
0
  6
CONTINUOUS
 62
     3
 10
5966.5
 20
16505.6
 30
0.0
 40
51.0915
 50
107.345
 51
153.043
  0
ARC
  5
1E06
  8
0
  6
CONTINUOUS
 62
     3
 10
5977.52
 20
16505.6
 30
0.0
 40
51.0915
 50
27.0619
 51
72.7368
  0
ARC
  5
1E07
  8
0
  6
CONTINUOUS
 62
     3
 10
5977.52
 20
16488.7
 30
0.0
 40
51.0915
 50
287.2632
 51
332.9381
  0
ARC
  5
1E08
  8
0
  6
CONTINUOUS
 62
     3
 10
6008.88
 20
16497.1
 30
0.0
 40
58.6391
 50
165.132
 51
194.869
  0
ARC
  5
1E09
  8
0
  6
CONTINUOUS
 62
     3
 10
5935.14
 20
16497.1
 30
0.0
 40
58.6391
 50
345.3112
 51
14.6888
  0
ARC
  5
1E0A
  8
0
  6
CONTINUOUS
 62
     3
 10
5972.01
 20
16506.8
 30
0.0
 40
20.5264
 50
14.6889
 51
164.8
  0
ARC
  5
1E0B
  8
0
  6
CONTINUOUS
 62
     3
 10
5972.01
 20
16487.5
 30
0.0
 40
20.5264
 50
195.203
 51
345.311
  0
ARC
  5
1E0C
  8
0
  6
CONTINUOUS
 62
     3
 10
45357.6
 20
16526.5
 30
0.0
 40
60.6091
 50
188.261
 51
197.133
  0
ARC
  5
1E0D
  8
0
  6
CONTINUOUS
 62
     3
 10
45236.8
 20
16526.5
 30
0.0
 40
60.6091
 50
342.867
 51
351.73869
  0
ARC
  5
1E0E
  8
0
  6
CONTINUOUS
 62
     3
 10
45162.5
 20
16497.1
 30
0.0
 40
44.1245
 50
340.2753
 51
22.213
  0
ARC
  5
1E0F
  8
0
  6
CONTINUOUS
 62
     3
 10
45184.5
 20
16506.1
 30
0.0
 40
20.3205
 50
22.213
 51
90.0
  0
ARC
  5
1E10
  8
0
  6
CONTINUOUS
 62
     3
 10
45184.3
 20
16489.3
 30
0.0
 40
20.9011
 50
270.0
 51
340.2753
  0
ARC
  5
1E11
  8
0
  6
CONTINUOUS
 62
     3
 10
45164.8
 20
16497.1
 30
0.0
 40
76.0567
 50
341.626
 51
23.9326
  0
ARC
  5
1E12
  8
0
  6
CONTINUOUS
 62
     3
 10
45192.9
 20
16509.6
 30
0.0
 40
45.2856
 50
23.9325
 51
90.0
  0
ARC
  5
1E13
  8
0
  6
CONTINUOUS
 62
     3
 10
45190.2
 20
16488.7
 30
0.0
 40
49.3497
 50
270.0
 51
341.626
  0
ARC
  5
1E14
  8
0
  6
CONTINUOUS
 62
     3
 10
45127.9
 20
16526.5
 30
0.0
 40
60.6091
 50
188.261
 51
197.133
  0
ARC
  5
1E15
  8
0
  6
CONTINUOUS
 62
     3
 10
45007.2
 20
16526.5
 30
0.0
 40
60.6091
 50
342.867
 51
351.73869
  0
ARC
  5
1E16
  8
0
  6
CONTINUOUS
 62
     3
 10
45512.3
 20
16499.8
 30
0.0
 40
74.3149
 50
180.0
 51
186.73
  0
ARC
  5
1E17
  8
0
  6
CONTINUOUS
 62
     3
 10
45323.6
 20
16494.5
 30
0.0
 40
74.3149
 50
0.0
 51
6.7298
  0
ARC
  5
1E18
  8
0
  6
CONTINUOUS
 62
     3
 10
45500.7
 20
16554.9
 30
0.0
 40
114.91
 50
206.723
 51
211.578
  0
ARC
  5
1E19
  8
0
  6
CONTINUOUS
 62
     3
 10
45335.2
 20
16439.4
 30
0.0
 40
114.91
 50
26.7229
 51
31.5782
  0
ARC
  5
1E1A
  8
0
  6
CONTINUOUS
 62
     3
 10
45554.7
 20
16497.1
 30
0.0
 40
69.6702
 50
152.861
 51
207.131
  0
ARC
  5
1E1B
  8
0
  6
CONTINUOUS
 62
     3
 10
45532.6
 20
16497.1
 30
0.0
 40
69.6702
 50
332.9381
 51
27.0619
  0
ARC
  5
1E1C
  8
0
  6
CONTINUOUS
 62
     3
 10
45543.6
 20
16487.8
 30
0.0
 40
69.6702
 50
72.7368
 51
107.324
  0
ARC
  5
1E1D
  8
0
  6
CONTINUOUS
 62
     3
 10
45543.6
 20
16506.4
 30
0.0
 40
69.6702
 50
252.699
 51
287.2632
  0
ARC
  5
1E1E
  8
0
  6
CONTINUOUS
 62
     3
 10
45538.1
 20
16488.7
 30
0.0
 40
51.0915
 50
206.967
 51
252.685
  0
ARC
  5
1E1F
  8
0
  6
CONTINUOUS
 62
     3
 10
45538.1
 20
16505.6
 30
0.0
 40
51.0915
 50
107.345
 51
153.043
  0
ARC
  5
1E20
  8
0
  6
CONTINUOUS
 62
     3
 10
45549.2
 20
16505.6
 30
0.0
 40
51.0915
 50
27.0619
 51
72.7368
  0
ARC
  5
1E21
  8
0
  6
CONTINUOUS
 62
     3
 10
45549.2
 20
16488.7
 30
0.0
 40
51.0915
 50
287.2632
 51
332.9381
  0
ARC
  5
1E22
  8
0
  6
CONTINUOUS
 62
     3
 10
45580.5
 20
16497.1
 30
0.0
 40
58.6391
 50
165.132
 51
194.869
  0
ARC
  5
1E23
  8
0
  6
CONTINUOUS
 62
     3
 10
45506.8
 20
16497.1
 30
0.0
 40
58.6391
 50
345.3112
 51
14.6888
  0
ARC
  5
1E24
  8
0
  6
CONTINUOUS
 62
     3
 10
45543.6
 20
16506.8
 30
0.0
 40
20.5264
 50
14.6889
 51
164.8
  0
ARC
  5
1E25
  8
0
  6
CONTINUOUS
 62
     3
 10
45543.6
 20
16487.5
 30
0.0
 40
20.5264
 50
195.203
 51
345.311
  0
TEXT
  5
1E65
  8
0
  6
CONTINUOUS
 62
     6
 10
35757.2
 20
5611.75
 30
0.0
 40
50.0
  1
80t
 41
0.714286
  0
TEXT
  5
1E66
  8
0
  6
CONTINUOUS
 62
     6
 10
43594.7
 20
5790.43
 30
0.0
 40
30.0
  1
25t
 41
0.714286
  0
TEXT
  5
1E67
  8
0
  6
CONTINUOUS
 62
     6
 10
50646.1
 20
6280.13
 30
0.0
 40
30.0
  1
12.5t
 41
0.714286
  0
TEXT
  5
1E68
  8
0
  6
CONTINUOUS
 62
     7
 10
50156.7
 20
24856.6
 30
0.0
 40
700.0
  1
AR5501ESP10B
 41
0.714286
  0
TEXT
  5
1E69
  8
0
  6
CONTINUOUS
 62
     7
 10
50219.4
 20
23869.8
 30
0.0
 40
700.0
  1
AR-5500M-1
 41
0.714286
  0
TEXT
  5
1E6A
  8
0
  6
CONTINUOUS
 62
     7
 10
50234.8
 20
22857.3
 30
0.0
 40
700.0
  1
4FLJ
 41
0.714286
  0
TEXT
  5
1E6B
  8
0
  6
CONTINUOUS
 62
     7
 10
44508.4
 20
23860.7
 30
0.0
 40
800.0
  1
 機　　　種
 41
0.714286
  0
TEXT
  5
1E6C
  8
0
  6
CONTINUOUS
 62
     7
 10
44531.5
 20
24878.4
 30
0.0
 40
800.0
  1
 ファイル名
 41
0.714286
  0
TEXT
  5
1E6D
  8
0
  6
CONTINUOUS
 62
     7
 10
44485.2
 20
22773.7
 30
0.0
 40
800.0
  1
 スペック
 41
0.714286
  0
TEXT
  5
1E70
  8
0
  6
CONTINUOUS
 62
     7
 10
32704.7
 20
9097.79
 30
0.0
 40
1000.0
  1
B5501106
 41
0.714286
  0
TEXT
  5
1E71
  8
0
  6
CONTINUOUS
 62
     7
 10
40586.7
 20
9115.6442
 30
0.0
 40
1000.0
  1
B5501107
 41
0.714286
  0
TEXT
  5
1E72
  8
0
  6
CONTINUOUS
 62
     7
 10
48462.0
 20
9097.79
 30
0.0
 40
1000.0
  1
B5501108
 41
0.714286
  0
TEXT
  5
1E7A
  8
0
  6
CONTINUOUS
 62
     7
 10
44140.6
 20
28182.733333
 30
0.0
 40
320.0
  1
ALL RIGHTS RESERVED,COPYRIGHT(C) TADANOSYSTEMS INC.
 41
0.714286
  0
TEXT
  5
1E7E
  8
0
  6
CONTINUOUS
 62
     7
 10
6130.0
 20
19835.5
 30
0.0
 40
1000.0
  1
B5501101
 41
0.714286
  0
TEXT
  5
1E7F
  8
0
  6
CONTINUOUS
 62
     7
 10
24030.0
 20
19835.5
 30
0.0
 40
1000.0
  1
B5501102
 41
0.714286
  0
TEXT
  5
1E80
  8
0
  6
CONTINUOUS
 62
     7
 10
5830.0
 20
8835.45
 30
0.0
 40
1000.0
  1
B5501104
 41
0.714286
  0
TEXT
  5
1E81
  8
0
  6
CONTINUOUS
 62
     7
 10
20166.0
 20
8835.45
 30
0.0
 40
1000.0
  1
B5501105
 41
0.714286
  0
DIMENSION
  5
1E88
  8
0
 62
     7
  2
*D0
 10
2955.04
 20
13429.8
 30
0.0
 11
8532.47
 21
13749.8
 31
0.0
  1
11155
 13
14109.9
 23
16640.8
 33
0.0
 14
2955.04
 24
15685.8
 34
0.0
1001
ACAD
1000
DSTYLE
1002
{
1070
   140
1040
500.0
1070
    74
1070
     0
1070
    73
1070
     0
1070
   272
1070
     0
1070
    77
1070
     1
1070
    45
1040
100.0
1070
   147
1040
70.0
1070
   271
1070
     0
1070
    41
1040
20.0
1002
}
  0
DIMENSION
  5
1E89
  8
0
 62
     7
  2
*D1
 10
6837.13
 20
5212.67
 30
0.0
 11
8999.615
 21
5532.67
 31
0.0
  1
4325
 13
11162.1
 23
6719.08
 33
0.0
 14
6837.13
 24
6689.06
 34
0.0
1001
ACAD
1000
DSTYLE
1002
{
1070
   140
1040
500.0
1070
    74
1070
     0
1070
    73
1070
     0
1070
   272
1070
     0
1070
    77
1070
     1
1070
    45
1040
100.0
1070
   147
1040
70.0
1070
   271
1070
     0
1070
    41
1040
20.0
1002
}
  0
DIMENSION
  5
1E8A
  8
0
 62
     7
  2
*D2
 10
20553.1
 20
5212.67
 30
0.0
 11
23275.6
 21
5532.67
 31
0.0
  1
5445
 13
25998.1
 23
6719.09
 33
0.0
 14
20553.1
 24
6689.07
 34
0.0
1001
ACAD
1000
DSTYLE
1002
{
1070
   140
1040
500.0
1070
    74
1070
     0
1070
    73
1070
     0
1070
   272
1070
     0
1070
    77
1070
     1
1070
    45
1040
100.0
1070
   147
1040
70.0
1070
   271
1070
     0
1070
    41
1040
20.0
1002
}
  0
DIMENSION
  5
1E8B
  8
0
 62
     7
  2
*D3
 10
18576.5
 20
13429.8
 30
0.0
 11
36129.0
 21
13749.8
 31
0.0
  1
35105
 13
53681.5
 23
16640.8
 33
0.0
 14
18576.5
 24
15685.8
 34
0.0
1001
ACAD
1000
DSTYLE
1002
{
1070
   140
1040
500.0
1070
    74
1070
     0
1070
    73
1070
     0
1070
   272
1070
     0
1070
    77
1070
     1
1070
    45
1040
100.0
1070
   147
1040
70.0
1070
   271
1070
     0
1070
    41
1040
20.0
1002
}
  0
LINE
  5
3B9ACA5F
  8
0
  6
CONTINUOUS
 62
     7
 10
58268.4
 20
25725.1
 30
0.0
 11
58268.4
 21
22725.1
 31
0.0
  0
TEXT
  5
3B9ACAC7
  8
0
  6
CONTINUOUS
 62
     7
 10
56189.8
 20
18463.8
 30
0.0
 40
1000.0
  1
B5501103
 41
0.714286
  0
POINT
  5
3B9ACAC8
  8
0
 62
     1
 10
57985.0
 20
16640.8
 30
0.0
  0
POINT
  5
3B9ACAC9
  8
0
 62
     1
 10
59213.1
 20
16640.9
 30
0.0
  0
POINT
  5
3B9ACACA
  8
0
 62
     1
 10
58885.0
 20
15140.9
 30
0.0
  0
POINT
  5
3B9ACACB
  8
0
 62
     1
 10
59213.1
 20
15540.7
 30
0.0
  0
LINE
  5
3B9ACACC
  8
0
  6
CONTINUOUS
 62
     4
 10
59063.0
 20
16798.9
 30
0.0
 11
59063.0
 21
15020.9
 31
0.0
  0
LINE
  5
3B9ACACD
  8
0
  6
CONTINUOUS
 62
     4
 10
59063.0
 20
15053.3
 30
0.0
 11
59270.4
 21
15410.7
 31
0.0
  0
LINE
  5
3B9ACACE
  8
0
  6
CONTINUOUS
 62
     4
 10
58785.0
 20
15020.9
 30
0.0
 11
58385.0
 21
15692.9
 31
0.0
  0
CIRCLE
  5
3B9ACACF
  8
0
  6
CONTINUOUS
 62
     4
 10
58885.0
 20
15140.9
 30
0.0
 40
55.0
  0
LINE
  5
3B9ACAD0
  8
0
  6
CONTINUOUS
 62
     4
 10
58785.0
 20
15020.9
 30
0.0
 11
59063.0
 21
15020.9
 31
0.0
  0
LINE
  5
3B9ACAD1
  8
0
  6
CONTINUOUS
 62
     4
 10
57896.1
 20
16798.8
 30
0.0
 11
59063.0
 21
16798.9
 31
0.0
  0
LINE
  5
3B9ACAD2
  8
0
  6
CONTINUOUS
 62
     4
 10
58385.0
 20
15687.5
 30
0.0
 11
57833.0
 21
16607.6
 31
0.0
  0
CIRCLE
  5
3B9ACAD3
  8
0
  6
CONTINUOUS
 62
     4
 10
57985.0
 20
16640.8
 30
0.0
 40
93.0
  0
CIRCLE
  5
3B9ACAD4
  8
0
  6
CONTINUOUS
 62
     4
 10
57985.0
 20
16640.8
 30
0.0
 40
55.0
  0
LINE
  5
3B9ACAD5
  8
0
  6
CONTINUOUS
 62
     4
 10
57833.0
 20
16735.8
 30
0.0
 11
57833.0
 21
16607.6
 31
0.0
  0
LINE
  5
3B9ACAD6
  8
0
  6
CONTINUOUS
 62
     4
 10
57896.1
 20
16798.8
 30
0.0
 11
57833.0
 21
16735.7
 31
0.0
  0
CIRCLE
  5
3B9ACAD7
  8
0
  6
CONTINUOUS
 62
     4
 10
59213.1
 20
16640.9
 30
0.0
 40
45.5
  0
ARC
  5
3B9ACAD8
  8
0
  6
CONTINUOUS
 62
     4
 10
59213.0
 20
16640.9
 30
0.0
 40
150.0
 50
280.8026
 51
90.0013
  0
LINE
  5
3B9ACAD9
  8
0
  6
CONTINUOUS
 62
     4
 10
58385.0
 20
16798.8
 30
0.0
 11
58385.0
 21
15687.5
 31
0.0
  0
ARC
  5
3B9ACADA
  8
0
  6
CONTINUOUS
 62
     4
 10
59253.0
 20
15465.7
 30
0.0
 40
20.0
 50
0.000538
 51
90.0016
  0
ARC
  5
3B9ACADB
  8
0
  6
CONTINUOUS
 62
     4
 10
59278.6
 20
16297.1
 30
0.0
 40
200.0
 50
100.802
 51
150.0
  0
CIRCLE
  5
3B9ACADC
  8
0
  6
CONTINUOUS
 62
     4
 10
58755.0
 20
16510.9
 30
0.0
 40
76.15
  0
ARC
  5
3B9ACADD
  8
0
  6
CONTINUOUS
 62
     4
 10
59213.1
 20
15540.7
 30
0.0
 40
54.9997
 50
136.658
 51
270.0019
  0
ARC
  5
3B9ACADE
  8
0
  6
CONTINUOUS
 62
     4
 10
59033.0
 20
16397.8
 30
0.0
 40
185.0
 50
279.3359
 51
359.644262
  0
CIRCLE
  5
3B9ACADF
  8
0
  6
CONTINUOUS
 62
     4
 10
58755.0
 20
15930.9
 30
0.0
 40
76.15
  0
ARC
  5
3B9ACAE0
  8
0
  6
CONTINUOUS
 62
     4
 10
59114.3
 20
15802.7
 30
0.0
 40
18.0
 50
11.3105
 51
90.0019
  0
LINE
  5
3B9ACAE1
  8
0
  6
CONTINUOUS
 62
     4
 10
59253.2
 20
15485.7
 30
0.0
 11
59213.1
 21
15485.7
 31
0.0
  0
LINE
  5
3B9ACAE3
  8
0
  6
CONTINUOUS
 62
     4
 10
59157.1
 20
15680.7
 30
0.0
 11
59173.1
 21
15600.7
 31
0.0
  0
LINE
  5
3B9ACAE4
  8
0
  6
CONTINUOUS
 62
     4
 10
59173.1
 20
15600.7
 30
0.0
 11
59173.1
 21
15578.4
 31
0.0
  0
LINE
  5
3B9ACAE5
  8
0
  6
CONTINUOUS
 62
     4
 10
59072.9
 20
16340.9
 30
0.0
 11
59105.4
 21
16397.1
 31
0.0
  0
LINE
  5
3B9ACAE6
  8
0
  6
CONTINUOUS
 62
     4
 10
59063.0
 20
16340.9
 30
0.0
 11
59072.9
 21
16340.9
 31
0.0
  0
LINE
  5
3B9ACAE7
  8
0
  6
CONTINUOUS
 62
     4
 10
59132.0
 20
15806.2
 30
0.0
 11
59157.1
 21
15680.6
 31
0.0
  0
LINE
  5
3B9ACAE8
  8
0
  6
CONTINUOUS
 62
     4
 10
59158.0
 20
16456.6
 30
0.0
 11
59218.0
 21
16396.7
 31
0.0
  0
LINE
  5
3B9ACAE9
  8
0
  6
CONTINUOUS
 62
     4
 10
59114.3
 20
15820.7
 30
0.0
 11
59063.0
 21
15820.7
 31
0.0
  0
LINE
  5
3B9ACAEA
  8
0
  6
CONTINUOUS
 62
     4
 10
59273.0
 20
15465.7
 30
0.0
 11
59273.0
 21
15410.7
 31
0.0
  0
LINE
  5
3B9ACAEB
  8
0
  6
CONTINUOUS
 62
     4
 10
59063.0
 20
16790.9
 30
0.0
 11
59214.5
 21
16790.9
 31
0.0
  0
ENDSEC
  0
EOF
