  0
SECTION
  2
HEADER
  9
$ACADVER
  1
AC1014
  9
$ACADMAINTVER
 70
     0
  9
$DWGCODEPAGE
  3
ANSI_932
  9
$INSBASE
 10
0.0
 20
0.0
 30
0.0
  9
$EXTMIN
 10
-631.403009
 20
-0.753649
 30
-0.001526
  9
$EXTMAX
 10
60235.065927
 20
24698.118308
 30
0.0
  9
$LIMMIN
 10
0.0
 20
0.0
  9
$LIMMAX
 10
420.0
 20
297.0
  9
$ORTHOMODE
 70
     0
  9
$REGENMODE
 70
     1
  9
$FILLMODE
 70
     1
  9
$QTEXTMODE
 70
     0
  9
$MIRRTEXT
 70
     1
  9
$DRAGMODE
 70
     2
  9
$LTSCALE
 40
1.0
  9
$OSMODE
 70
     0
  9
$ATTMODE
 70
     1
  9
$TEXTSIZE
 40
2.5
  9
$TRACEWID
 40
1.0
  9
$TEXTSTYLE
  7
STANDARD
  9
$CLAYER
  8
0
  9
$CELTYPE
  6
BYLAYER
  9
$CECOLOR
 62
   256
  9
$CELTSCALE
 40
1.0
  9
$DELOBJ
 70
     1
  9
$DISPSILH
 70
     0
  9
$DIMSCALE
 40
1.0
  9
$DIMASZ
 40
2.5
  9
$DIMEXO
 40
0.625
  9
$DIMDLI
 40
3.75
  9
$DIMRND
 40
0.0
  9
$DIMDLE
 40
0.0
  9
$DIMEXE
 40
1.25
  9
$DIMTP
 40
0.0
  9
$DIMTM
 40
0.0
  9
$DIMTXT
 40
2.5
  9
$DIMCEN
 40
2.5
  9
$DIMTSZ
 40
0.0
  9
$DIMTOL
 70
     0
  9
$DIMLIM
 70
     0
  9
$DIMTIH
 70
     0
  9
$DIMTOH
 70
     0
  9
$DIMSE1
 70
     0
  9
$DIMSE2
 70
     0
  9
$DIMTAD
 70
     1
  9
$DIMZIN
 70
     8
  9
$DIMBLK
  1

  9
$DIMASO
 70
     1
  9
$DIMSHO
 70
     1
  9
$DIMPOST
  1

  9
$DIMAPOST
  1

  9
$DIMALT
 70
     0
  9
$DIMALTD
 70
     4
  9
$DIMALTF
 40
0.0394
  9
$DIMLFAC
 40
1.0
  9
$DIMTOFL
 70
     1
  9
$DIMTVP
 40
0.0
  9
$DIMTIX
 70
     0
  9
$DIMSOXD
 70
     0
  9
$DIMSAH
 70
     0
  9
$DIMBLK1
  1

  9
$DIMBLK2
  1

  9
$DIMSTYLE
  2
STANDARD
  9
$DIMCLRD
 70
     0
  9
$DIMCLRE
 70
     0
  9
$DIMCLRT
 70
     0
  9
$DIMTFAC
 40
1.0
  9
$DIMGAP
 40
0.625
  9
$DIMJUST
 70
     0
  9
$DIMSD1
 70
     0
  9
$DIMSD2
 70
     0
  9
$DIMTOLJ
 70
     1
  9
$DIMTZIN
 70
     0
  9
$DIMALTZ
 70
     0
  9
$DIMALTTZ
 70
     0
  9
$DIMFIT
 70
     3
  9
$DIMUPT
 70
     0
  9
$DIMUNIT
 70
     8
  9
$DIMDEC
 70
     4
  9
$DIMTDEC
 70
     4
  9
$DIMALTU
 70
     8
  9
$DIMALTTD
 70
     4
  9
$DIMTXSTY
  7
STANDARD
  9
$DIMAUNIT
 70
     0
  9
$LUNITS
 70
     2
  9
$LUPREC
 70
     4
  9
$SKETCHINC
 40
1.0
  9
$FILLETRAD
 40
10.0
  9
$AUNITS
 70
     0
  9
$AUPREC
 70
     0
  9
$MENU
  1
acad
  9
$ELEVATION
 40
0.0
  9
$PELEVATION
 40
0.0
  9
$THICKNESS
 40
0.0
  9
$LIMCHECK
 70
     0
  9
$BLIPMODE
 70
     0
  9
$CHAMFERA
 40
10.0
  9
$CHAMFERB
 40
10.0
  9
$CHAMFERC
 40
20.0
  9
$CHAMFERD
 40
0.0
  9
$SKPOLY
 70
     0
  9
$TDCREATE
 40
2454555.401659062
  9
$TDUPDATE
 40
2454555.606857095
  9
$TDINDWG
 40
0.0050804861
  9
$TDUSRTIMER
 40
0.0050804861
  9
$USRTIMER
 70
     1
  9
$ANGBASE
 50
0.0
  9
$ANGDIR
 70
     0
  9
$PDMODE
 70
     0
  9
$PDSIZE
 40
0.0
  9
$PLINEWID
 40
0.0
  9
$COORDS
 70
     1
  9
$SPLFRAME
 70
     0
  9
$SPLINETYPE
 70
     6
  9
$SPLINESEGS
 70
     8
  9
$ATTDIA
 70
     0
  9
$ATTREQ
 70
     1
  9
$HANDLING
 70
     1
  9
$HANDSEED
  5
C40
  9
$SURFTAB1
 70
     6
  9
$SURFTAB2
 70
     6
  9
$SURFTYPE
 70
     6
  9
$SURFU
 70
     6
  9
$SURFV
 70
     6
  9
$UCSNAME
  2

  9
$UCSORG
 10
0.0
 20
0.0
 30
0.0
  9
$UCSXDIR
 10
1.0
 20
0.0
 30
0.0
  9
$UCSYDIR
 10
0.0
 20
1.0
 30
0.0
  9
$PUCSNAME
  2

  9
$PUCSORG
 10
0.0
 20
0.0
 30
0.0
  9
$PUCSXDIR
 10
1.0
 20
0.0
 30
0.0
  9
$PUCSYDIR
 10
0.0
 20
1.0
 30
0.0
  9
$USERI1
 70
     0
  9
$USERI2
 70
     0
  9
$USERI3
 70
     0
  9
$USERI4
 70
     0
  9
$USERI5
 70
     0
  9
$USERR1
 40
0.0
  9
$USERR2
 40
0.0
  9
$USERR3
 40
0.0
  9
$USERR4
 40
0.0
  9
$USERR5
 40
0.0
  9
$WORLDVIEW
 70
     1
  9
$SHADEDGE
 70
     3
  9
$SHADEDIF
 70
    70
  9
$TILEMODE
 70
     1
  9
$MAXACTVP
 70
    48
  9
$PINSBASE
 10
0.0
 20
0.0
 30
0.0
  9
$PLIMCHECK
 70
     0
  9
$PEXTMIN
 10
1.000000E+20
 20
1.000000E+20
 30
1.000000E+20
  9
$PEXTMAX
 10
-1.000000E+20
 20
-1.000000E+20
 30
-1.000000E+20
  9
$PLIMMIN
 10
0.0
 20
0.0
  9
$PLIMMAX
 10
420.0
 20
297.0
  9
$UNITMODE
 70
     0
  9
$VISRETAIN
 70
     1
  9
$PLINEGEN
 70
     0
  9
$PSLTSCALE
 70
     1
  9
$TREEDEPTH
 70
  3020
  9
$PICKSTYLE
 70
     1
  9
$CMLSTYLE
  2
STANDARD
  9
$CMLJUST
 70
     0
  9
$CMLSCALE
 40
20.0
  9
$PROXYGRAPHICS
 70
     1
  9
$MEASUREMENT
 70
     1
  0
ENDSEC
  0
SECTION
  2
CLASSES
  0
ENDSEC
  0
SECTION
  2
TABLES
  0
TABLE
  2
VPORT
  5
8
100
AcDbSymbolTable
 70
     2
  0
VPORT
  5
C3F
100
AcDbSymbolTableRecord
100
AcDbViewportTableRecord
  2
*ACTIVE
 70
     0
 10
0.0
 20
0.0
 11
1.0
 21
1.0
 12
29801.831459
 22
12348.682329
 13
0.0
 23
0.0
 14
10.0
 24
10.0
 15
10.0
 25
10.0
 16
0.0
 26
0.0
 36
1.0
 17
0.0
 27
0.0
 37
0.0
 40
33295.484089
 41
1.839695
 42
50.0
 43
0.0
 44
0.0
 50
0.0
 51
0.0
 71
     0
 72
   100
 73
     1
 74
     1
 75
     0
 76
     0
 77
     0
 78
     0
  0
ENDTAB
  0
TABLE
  2
LTYPE
  5
5
100
AcDbSymbolTable
 70
     2
  0
LTYPE
  5
12
100
AcDbSymbolTableRecord
100
AcDbLinetypeTableRecord
  2
BYBLOCK
 70
     0
  3

 72
    65
 73
     0
 40
0.0
  0
LTYPE
  5
13
100
AcDbSymbolTableRecord
100
AcDbLinetypeTableRecord
  2
BYLAYER
 70
     0
  3

 72
    65
 73
     0
 40
0.0
  0
LTYPE
  5
14
100
AcDbSymbolTableRecord
100
AcDbLinetypeTableRecord
  2
CONTINUOUS
 70
     0
  3
Solid line
 72
    65
 73
     0
 40
0.0
  0
LTYPE
  5
AE
100
AcDbSymbolTableRecord
100
AcDbLinetypeTableRecord
  2
CENTER
 70
     0
  3
Center ____ _ ____ _ ____ _ ____ _ ____ _ ____
 72
    65
 73
     4
 40
50.8
 49
31.75
 74
     0
 49
-6.35
 74
     0
 49
6.35
 74
     0
 49
-6.35
 74
     0
  0
ENDTAB
  0
TABLE
  2
LAYER
  5
2
100
AcDbSymbolTable
 70
     3
  0
LAYER
  5
E
100
AcDbSymbolTableRecord
100
AcDbLayerTableRecord
  2
0
 70
     0
 62
     7
  6
CONTINUOUS
  0
LAYER
  5
AF
100
AcDbSymbolTableRecord
100
AcDbLayerTableRecord
  2
LY_1
 70
     0
 62
     7
  6
CONTINUOUS
  0
LAYER
  5
B0
100
AcDbSymbolTableRecord
100
AcDbLayerTableRecord
  2
DEFPOINTS
 70
     0
 62
     7
  6
CONTINUOUS
  0
ENDTAB
  0
TABLE
  2
STYLE
  5
3
100
AcDbSymbolTable
 70
     6
  0
STYLE
  5
F
100
AcDbSymbolTableRecord
100
AcDbTextStyleTableRecord
  2
STANDARD
 70
     0
 40
0.0
 41
1.0
 50
0.0
 71
     0
 42
2.5
  3
txt
  4

  0
STYLE
  5
B1
100
AcDbSymbolTableRecord
100
AcDbTextStyleTableRecord
  2
MX_NOTE_STANDARD
 70
     0
 40
0.0
 41
1.0
 50
0.0
 71
     0
 42
3.15
  3
txt.shx
  4
bigfont.shx
  0
STYLE
  5
B2
100
AcDbSymbolTableRecord
100
AcDbTextStyleTableRecord
  2
MX_DIMTXSTY_2
 70
     0
 40
0.0
 41
1.1
 50
0.0
 71
     0
 42
3.15
  3
txt.shx
  4
bigfont.shx
  0
STYLE
  5
B3
100
AcDbSymbolTableRecord
100
AcDbTextStyleTableRecord
  2
MX_DIMTXSTY_3
 70
     0
 40
0.0
 41
1.2
 50
0.0
 71
     0
 42
3.15
  3
txt.shx
  4
bigfont.shx
  0
STYLE
  5
B4
100
AcDbSymbolTableRecord
100
AcDbTextStyleTableRecord
  2
MX_DIMTXSTY_4
 70
     0
 40
0.0
 41
1.15
 50
0.0
 71
     0
 42
3.15
  3
txt.shx
  4
bigfont.shx
  0
STYLE
  5
B5
100
AcDbSymbolTableRecord
100
AcDbTextStyleTableRecord
  2
MX_DIMTXSTY_5
 70
     0
 40
0.0
 41
1.05
 50
0.0
 71
     0
 42
3.15
  3
txt.shx
  4
bigfont.shx
  0
ENDTAB
  0
TABLE
  2
VIEW
  5
6
100
AcDbSymbolTable
 70
     0
  0
ENDTAB
  0
TABLE
  2
UCS
  5
7
100
AcDbSymbolTable
 70
     0
  0
ENDTAB
  0
TABLE
  2
APPID
  5
9
100
AcDbSymbolTable
 70
     3
  0
APPID
  5
10
100
AcDbSymbolTableRecord
100
AcDbRegAppTableRecord
  2
ACAD
 70
     0
  0
APPID
  5
B6E
100
AcDbSymbolTableRecord
100
AcDbRegAppTableRecord
  2
CONTENTTABDATA
 70
     0
  0
APPID
  5
B6F
100
AcDbSymbolTableRecord
100
AcDbRegAppTableRecord
  2
CONTENTCURRENTTAB
 70
     0
  0
ENDTAB
  0
TABLE
  2
DIMSTYLE
  5
A
100
AcDbSymbolTable
 70
     2
  0
DIMSTYLE
105
1D
100
AcDbSymbolTableRecord
100
AcDbDimStyleTableRecord
  2
STANDARD
 70
     0
  3

  4

  5

  6

  7

 40
1.0
 41
0.18
 42
0.0625
 43
0.38
 44
0.18
 45
0.0
 46
0.0
 47
0.0
 48
0.0
140
0.18
141
0.09
142
0.0
143
25.4
144
1.0
145
0.0
146
1.0
147
0.09
 71
     0
 72
     0
 73
     1
 74
     1
 75
     0
 76
     0
 77
     0
 78
     0
170
     0
171
     2
172
     0
173
     0
174
     0
175
     0
176
     0
177
     0
178
     0
270
     2
271
     4
272
     4
273
     2
274
     2
340
F
275
     0
280
     0
281
     0
282
     0
283
     1
284
     0
285
     0
286
     0
287
     3
288
     0
  0
DIMSTYLE
105
B7
102
{ACAD_REACTORS
330
5A1
330
5A2
330
5A3
330
5A6
330
5A8
330
5A9
330
774
330
7B8
330
7B9
330
7BA
330
7BD
330
7BE
330
7C5
330
9D1
102
}
100
AcDbSymbolTableRecord
100
AcDbDimStyleTableRecord
  2
MXDIMSTYLE
 70
     0
  3

  4

  5

  6
OPEN30
  7
OPEN30
 40
1.0
 41
2.5
 42
0.5
 43
3.75
 44
1.0
 45
0.0
 46
0.0
 47
0.0
 48
0.0
140
2.8
141
2.5
142
0.0
143
0.03937
144
1.0
145
0.0
146
1.0
147
0.5
 71
     0
 72
     0
 73
     0
 74
     0
 75
     0
 76
     0
 77
     1
 78
     8
170
     0
171
     4
172
     1
173
     1
174
     0
175
     0
176
     0
177
     0
178
     0
270
     2
271
     2
272
     2
273
     2
274
     4
340
B1
275
     0
280
     0
281
     0
282
     0
283
     0
284
     0
285
     0
286
     0
287
     3
288
     1
  0
ENDTAB
  0
TABLE
  2
BLOCK_RECORD
  5
1
100
AcDbSymbolTable
 70
    16
  0
BLOCK_RECORD
  5
18
100
AcDbSymbolTableRecord
100
AcDbBlockTableRecord
  2
*MODEL_SPACE
  0
BLOCK_RECORD
  5
15
100
AcDbSymbolTableRecord
100
AcDbBlockTableRecord
  2
*PAPER_SPACE
  0
BLOCK_RECORD
  5
20
100
AcDbSymbolTableRecord
100
AcDbBlockTableRecord
  2
_OPEN30
  0
BLOCK_RECORD
  5
A6B
100
AcDbSymbolTableRecord
100
AcDbBlockTableRecord
  2
*D1
  0
BLOCK_RECORD
  5
A73
100
AcDbSymbolTableRecord
100
AcDbBlockTableRecord
  2
*D2
  0
BLOCK_RECORD
  5
A7B
100
AcDbSymbolTableRecord
100
AcDbBlockTableRecord
  2
*D3
  0
BLOCK_RECORD
  5
A83
100
AcDbSymbolTableRecord
100
AcDbBlockTableRecord
  2
*D4
  0
BLOCK_RECORD
  5
A8B
100
AcDbSymbolTableRecord
100
AcDbBlockTableRecord
  2
*D5
  0
BLOCK_RECORD
  5
A97
100
AcDbSymbolTableRecord
100
AcDbBlockTableRecord
  2
*D6
  0
BLOCK_RECORD
  5
AA3
100
AcDbSymbolTableRecord
100
AcDbBlockTableRecord
  2
*D7
  0
BLOCK_RECORD
  5
AAF
100
AcDbSymbolTableRecord
100
AcDbBlockTableRecord
  2
*D8
  0
BLOCK_RECORD
  5
AB7
100
AcDbSymbolTableRecord
100
AcDbBlockTableRecord
  2
*D9
  0
BLOCK_RECORD
  5
ABF
100
AcDbSymbolTableRecord
100
AcDbBlockTableRecord
  2
*D10
  0
BLOCK_RECORD
  5
AC7
100
AcDbSymbolTableRecord
100
AcDbBlockTableRecord
  2
*D11
  0
BLOCK_RECORD
  5
AD3
100
AcDbSymbolTableRecord
100
AcDbBlockTableRecord
  2
*D12
  0
BLOCK_RECORD
  5
ADF
100
AcDbSymbolTableRecord
100
AcDbBlockTableRecord
  2
*D13
  0
BLOCK_RECORD
  5
AE7
100
AcDbSymbolTableRecord
100
AcDbBlockTableRecord
  2
*D14
  0
ENDTAB
  0
ENDSEC
  0
SECTION
  2
BLOCKS
  0
BLOCK
  5
19
100
AcDbEntity
  8
0
100
AcDbBlockBegin
  2
*MODEL_SPACE
 70
     0
 10
0.0
 20
0.0
 30
0.0
  3
*MODEL_SPACE
  1

  0
ENDBLK
  5
1A
100
AcDbEntity
  8
0
100
AcDbBlockEnd
  0
BLOCK
  5
16
100
AcDbEntity
 67
     1
  8
0
100
AcDbBlockBegin
  2
*PAPER_SPACE
 70
     0
 10
0.0
 20
0.0
 30
0.0
  3
*PAPER_SPACE
  1

  0
ENDBLK
  5
17
100
AcDbEntity
 67
     1
  8
0
100
AcDbBlockEnd
  0
BLOCK
  5
24
100
AcDbEntity
  8
0
  6
BYBLOCK
 62
     0
100
AcDbBlockBegin
  2
_OPEN30
 70
     2
 10
0.0
 20
0.0
 30
0.0
  3
_OPEN30
  1

  0
LINE
  5
21
100
AcDbEntity
  8
0
  6
BYBLOCK
 62
     0
100
AcDbLine
 10
-1.0
 20
0.267949
 30
0.0
 11
0.0
 21
0.0
 31
0.0
  0
LINE
  5
22
100
AcDbEntity
  8
0
  6
BYBLOCK
 62
     0
100
AcDbLine
 10
0.0
 20
0.0
 30
0.0
 11
-1.0
 21
-0.267949
 31
0.0
  0
LINE
  5
23
100
AcDbEntity
  8
0
  6
BYBLOCK
 62
     0
100
AcDbLine
 10
0.0
 20
0.0
 30
0.0
 11
-1.0
 21
0.0
 31
0.0
  0
ENDBLK
  5
25
100
AcDbEntity
  8
0
  6
BYBLOCK
 62
     0
100
AcDbBlockEnd
  0
BLOCK
  5
AF3
100
AcDbEntity
  8
0
100
AcDbBlockBegin
  2
*D1
 70
     1
 10
0.0
 20
0.0
 30
0.0
  3
*D1
  1

  0
LINE
  5
AF4
100
AcDbEntity
  8
0
  6
BYBLOCK
 62
     0
100
AcDbLine
 10
10724.061597
 20
10670.516654
 30
0.0
 11
5835.086423
 21
18679.872766
 31
0.0
  0
INSERT
  5
AF5
100
AcDbEntity
  8
0
  6
BYBLOCK
 62
     0
100
AcDbBlockReference
  2
_OPEN30
 10
5618.605523
 20
19034.522269
 30
0.0
 41
415.5
 42
415.5
 43
415.5
 50
121.400226
  0
MTEXT
  5
AF6
100
AcDbEntity
  8
0
  6
BYBLOCK
 62
     0
100
AcDbMText
 10
9069.82422
 20
13669.428867
 30
0.0
 40
300.0
 41
0.0
 71
     5
 72
     1
  1
R9800
  7
MX_NOTE_STANDARD
 11
0.521013
 21
-0.853549
 31
0.0
  0
POINT
  5
AF7
100
AcDbEntity
  8
DEFPOINTS
  6
BYBLOCK
 62
     0
100
AcDbPoint
 10
5618.605523
 20
19034.522269
 30
0.0
  0
POINT
  5
AF8
100
AcDbEntity
  8
DEFPOINTS
  6
BYBLOCK
 62
     0
100
AcDbPoint
 10
10724.061597
 20
10670.516654
 30
0.0
  0
ENDBLK
  5
AF9
100
AcDbEntity
  8
0
100
AcDbBlockEnd
  0
BLOCK
  5
AFA
100
AcDbEntity
  8
0
100
AcDbBlockBegin
  2
*D2
 70
     1
 10
0.0
 20
0.0
 30
0.0
  3
*D2
  1

  0
LINE
  5
AFB
100
AcDbEntity
  8
0
  6
BYBLOCK
 62
     0
100
AcDbLine
 10
10724.061597
 20
10670.516654
 30
0.0
 11
5905.936255
 21
12459.037345
 31
0.0
  0
INSERT
  5
AFC
100
AcDbEntity
  8
0
  6
BYBLOCK
 62
     0
100
AcDbBlockReference
  2
_OPEN30
 10
5516.40786
 20
12603.632918
 30
0.0
 41
415.5
 42
415.5
 43
415.5
 50
159.634734
  0
MTEXT
  5
AFD
100
AcDbEntity
  8
0
  6
BYBLOCK
 62
     0
100
AcDbMText
 10
8582.260508
 20
11626.102204
 30
0.0
 40
300.0
 41
0.0
 71
     5
 72
     1
  1
R5555
  7
MX_NOTE_STANDARD
 11
0.937493
 21
-0.348004
 31
0.0
  0
POINT
  5
AFE
100
AcDbEntity
  8
DEFPOINTS
  6
BYBLOCK
 62
     0
100
AcDbPoint
 10
5516.40786
 20
12603.632918
 30
0.0
  0
POINT
  5
AFF
100
AcDbEntity
  8
DEFPOINTS
  6
BYBLOCK
 62
     0
100
AcDbPoint
 10
10724.061597
 20
10670.516654
 30
0.0
  0
ENDBLK
  5
B00
100
AcDbEntity
  8
0
100
AcDbBlockEnd
  0
BLOCK
  5
B01
100
AcDbEntity
  8
0
100
AcDbBlockBegin
  2
*D3
 70
     1
 10
0.0
 20
0.0
 30
0.0
  3
*D3
  1

  0
LINE
  5
B02
100
AcDbEntity
  8
0
  6
BYBLOCK
 62
     0
100
AcDbLine
 10
10724.061597
 20
10670.516654
 30
0.0
 11
7689.997633
 21
21132.712187
 31
0.0
  0
INSERT
  5
B03
100
AcDbEntity
  8
0
  6
BYBLOCK
 62
     0
100
AcDbBlockReference
  2
_OPEN30
 10
7574.269765
 20
21531.770216
 30
0.0
 41
415.5
 42
415.5
 43
415.5
 50
106.172297
  0
MTEXT
  5
B04
100
AcDbEntity
  8
0
  6
BYBLOCK
 62
     0
100
AcDbMText
 10
10071.72321
 20
13460.282216
 30
0.0
 40
300.0
 41
0.0
 71
     5
 72
     1
  1
R11310
  7
MX_DIMTXSTY_3
 11
0.278527
 21
-0.960428
 31
0.0
  0
POINT
  5
B05
100
AcDbEntity
  8
DEFPOINTS
  6
BYBLOCK
 62
     0
100
AcDbPoint
 10
7574.269765
 20
21531.770216
 30
0.0
  0
POINT
  5
B06
100
AcDbEntity
  8
DEFPOINTS
  6
BYBLOCK
 62
     0
100
AcDbPoint
 10
10724.061597
 20
10670.516654
 30
0.0
  0
ENDBLK
  5
B07
100
AcDbEntity
  8
0
100
AcDbBlockEnd
  0
BLOCK
  5
B08
100
AcDbEntity
  8
0
100
AcDbBlockBegin
  2
*D4
 70
     1
 10
0.0
 20
0.0
 30
0.0
  3
*D4
  1

  0
LINE
  5
B09
100
AcDbEntity
  8
0
  6
BYBLOCK
 62
     0
100
AcDbLine
 10
10724.061597
 20
10670.516654
 30
0.0
 11
2014.225092
 21
6000.718296
 31
0.0
  0
INSERT
  5
B0A
100
AcDbEntity
  8
0
  6
BYBLOCK
 62
     0
100
AcDbBlockReference
  2
_OPEN30
 10
1648.036942
 20
5804.385699
 30
0.0
 41
415.5
 42
415.5
 43
415.5
 50
208.198084
  0
MTEXT
  5
B0B
100
AcDbEntity
  8
0
  6
BYBLOCK
 62
     0
100
AcDbMText
 10
8652.827952
 20
9730.786816
 30
0.0
 40
300.0
 41
0.0
 71
     5
 72
     1
  1
R10300
  7
MX_DIMTXSTY_2
 11
0.881319
 21
0.472521
 31
0.0
  0
POINT
  5
B0C
100
AcDbEntity
  8
DEFPOINTS
  6
BYBLOCK
 62
     0
100
AcDbPoint
 10
1648.036942
 20
5804.385699
 30
0.0
  0
POINT
  5
B0D
100
AcDbEntity
  8
DEFPOINTS
  6
BYBLOCK
 62
     0
100
AcDbPoint
 10
10724.061597
 20
10670.516654
 30
0.0
  0
ENDBLK
  5
B0E
100
AcDbEntity
  8
0
100
AcDbBlockEnd
  0
BLOCK
  5
B0F
100
AcDbEntity
  8
0
100
AcDbBlockBegin
  2
*D5
 70
     1
 10
0.0
 20
0.0
 30
0.0
  3
*D5
  1

  0
LINE
  5
B10
100
AcDbEntity
  8
0
  6
BYBLOCK
 62
     0
100
AcDbLine
 10
2179.186525
 20
4956.958783
 30
0.0
 11
2179.186525
 21
1160.332806
 31
0.0
  0
LINE
  5
B11
100
AcDbEntity
  8
0
  6
BYBLOCK
 62
     0
100
AcDbLine
 10
425.835827
 20
2660.832806
 30
0.0
 11
425.835827
 21
1160.332806
 31
0.0
  0
LINE
  5
B12
100
AcDbEntity
  8
0
  6
BYBLOCK
 62
     0
100
AcDbLine
 10
1763.686525
 20
1161.332806
 30
0.0
 11
841.335827
 21
1161.332806
 31
0.0
  0
INSERT
  5
B13
100
AcDbEntity
  8
0
  6
BYBLOCK
 62
     0
100
AcDbBlockReference
  2
_OPEN30
 10
2179.186525
 20
1161.332806
 30
0.0
 41
415.5
 42
415.5
 43
415.5
  0
INSERT
  5
B14
100
AcDbEntity
  8
0
  6
BYBLOCK
 62
     0
100
AcDbBlockReference
  2
_OPEN30
 10
425.835827
 20
1161.332806
 30
0.0
 41
415.5
 42
415.5
 43
415.5
 50
180.0
  0
MTEXT
  5
B15
100
AcDbEntity
  8
0
  6
BYBLOCK
 62
     0
100
AcDbMText
 10
1302.511171
 20
1311.832806
 30
0.0
 40
300.0
 41
0.0
 71
     5
 72
     1
  1
1753
  7
MX_DIMTXSTY_2
  0
POINT
  5
B16
100
AcDbEntity
  8
DEFPOINTS
  6
BYBLOCK
 62
     0
100
AcDbPoint
 10
2179.186525
 20
4957.458783
 30
0.0
  0
POINT
  5
B17
100
AcDbEntity
  8
DEFPOINTS
  6
BYBLOCK
 62
     0
100
AcDbPoint
 10
425.835827
 20
2661.332806
 30
0.0
  0
POINT
  5
B18
100
AcDbEntity
  8
DEFPOINTS
  6
BYBLOCK
 62
     0
100
AcDbPoint
 10
425.835827
 20
1161.332806
 30
0.0
  0
ENDBLK
  5
B19
100
AcDbEntity
  8
0
100
AcDbBlockEnd
  0
BLOCK
  5
B1A
100
AcDbEntity
  8
0
100
AcDbBlockBegin
  2
*D6
 70
     1
 10
0.0
 20
0.0
 30
0.0
  3
*D6
  1

  0
LINE
  5
B1B
100
AcDbEntity
  8
0
  6
BYBLOCK
 62
     0
100
AcDbLine
 10
7334.073911
 20
2660.832806
 30
0.0
 11
7334.073911
 21
110.332806
 31
0.0
  0
LINE
  5
B1C
100
AcDbEntity
  8
0
  6
BYBLOCK
 62
     0
100
AcDbLine
 10
425.835827
 20
2660.832806
 30
0.0
 11
425.835827
 21
110.332806
 31
0.0
  0
LINE
  5
B1D
100
AcDbEntity
  8
0
  6
BYBLOCK
 62
     0
100
AcDbLine
 10
6918.573911
 20
111.332806
 30
0.0
 11
841.335827
 21
111.332806
 31
0.0
  0
INSERT
  5
B1E
100
AcDbEntity
  8
0
  6
BYBLOCK
 62
     0
100
AcDbBlockReference
  2
_OPEN30
 10
7334.073911
 20
111.332806
 30
0.0
 41
415.5
 42
415.5
 43
415.5
  0
INSERT
  5
B1F
100
AcDbEntity
  8
0
  6
BYBLOCK
 62
     0
100
AcDbBlockReference
  2
_OPEN30
 10
425.835827
 20
111.332806
 30
0.0
 41
415.5
 42
415.5
 43
415.5
 50
180.0
  0
MTEXT
  5
B20
100
AcDbEntity
  8
0
  6
BYBLOCK
 62
     0
100
AcDbMText
 10
3879.955014
 20
261.832806
 30
0.0
 40
300.0
 41
0.0
 71
     5
 72
     1
  1
6910
  7
MX_DIMTXSTY_4
  0
POINT
  5
B21
100
AcDbEntity
  8
DEFPOINTS
  6
BYBLOCK
 62
     0
100
AcDbPoint
 10
7334.073911
 20
2661.332806
 30
0.0
  0
POINT
  5
B22
100
AcDbEntity
  8
DEFPOINTS
  6
BYBLOCK
 62
     0
100
AcDbPoint
 10
425.835827
 20
2661.332806
 30
0.0
  0
POINT
  5
B23
100
AcDbEntity
  8
DEFPOINTS
  6
BYBLOCK
 62
     0
100
AcDbPoint
 10
425.835827
 20
111.332806
 30
0.0
  0
ENDBLK
  5
B24
100
AcDbEntity
  8
0
100
AcDbBlockEnd
  0
BLOCK
  5
B25
100
AcDbEntity
  8
0
100
AcDbBlockBegin
  2
*D7
 70
     1
 10
0.0
 20
0.0
 30
0.0
  3
*D7
  1

  0
LINE
  5
B26
100
AcDbEntity
  8
0
  6
BYBLOCK
 62
     0
100
AcDbLine
 10
19356.73625
 20
21979.275097
 30
0.0
 11
20857.23625
 21
21979.275097
 31
0.0
  0
LINE
  5
B27
100
AcDbEntity
  8
0
  6
BYBLOCK
 62
     0
100
AcDbLine
 10
19356.73625
 20
15071.037013
 30
0.0
 11
20857.23625
 21
15071.037013
 31
0.0
  0
LINE
  5
B28
100
AcDbEntity
  8
0
  6
BYBLOCK
 62
     0
100
AcDbLine
 10
20856.23625
 20
21563.775097
 30
0.0
 11
20856.23625
 21
15486.537013
 31
0.0
  0
INSERT
  5
B29
100
AcDbEntity
  8
0
  6
BYBLOCK
 62
     0
100
AcDbBlockReference
  2
_OPEN30
 10
20856.23625
 20
21979.275097
 30
0.0
 41
415.5
 42
415.5
 43
415.5
 50
90.0
  0
INSERT
  5
B2A
100
AcDbEntity
  8
0
  6
BYBLOCK
 62
     0
100
AcDbBlockReference
  2
_OPEN30
 10
20856.23625
 20
15071.037013
 30
0.0
 41
415.5
 42
415.5
 43
415.5
 50
270.0
  0
MTEXT
  5
B2B
100
AcDbEntity
  8
0
  6
BYBLOCK
 62
     0
100
AcDbMText
 10
20705.73625
 20
18525.1562
 30
0.0
 40
300.0
 41
0.0
 71
     5
 72
     1
  1
6910
  7
MX_DIMTXSTY_4
 11
0.0
 21
1.0
 31
0.0
  0
POINT
  5
B2C
100
AcDbEntity
  8
DEFPOINTS
  6
BYBLOCK
 62
     0
100
AcDbPoint
 10
19356.23625
 20
21979.275097
 30
0.0
  0
POINT
  5
B2D
100
AcDbEntity
  8
DEFPOINTS
  6
BYBLOCK
 62
     0
100
AcDbPoint
 10
19356.23625
 20
15071.037013
 30
0.0
  0
POINT
  5
B2E
100
AcDbEntity
  8
DEFPOINTS
  6
BYBLOCK
 62
     0
100
AcDbPoint
 10
20856.23625
 20
15071.037013
 30
0.0
  0
ENDBLK
  5
B2F
100
AcDbEntity
  8
0
100
AcDbBlockEnd
  0
BLOCK
  5
B30
100
AcDbEntity
  8
0
100
AcDbBlockBegin
  2
*D8
 70
     1
 10
0.0
 20
0.0
 30
0.0
  3
*D8
  1

  0
LINE
  5
B31
100
AcDbEntity
  8
0
  6
BYBLOCK
 62
     0
100
AcDbLine
 10
37720.725789
 20
10670.516654
 30
0.0
 11
32902.600447
 21
12459.037345
 31
0.0
  0
INSERT
  5
B32
100
AcDbEntity
  8
0
  6
BYBLOCK
 62
     0
100
AcDbBlockReference
  2
_OPEN30
 10
32513.072052
 20
12603.632918
 30
0.0
 41
415.5
 42
415.5
 43
415.5
 50
159.634734
  0
MTEXT
  5
B33
100
AcDbEntity
  8
0
  6
BYBLOCK
 62
     0
100
AcDbMText
 10
35900.281484
 20
11506.812394
 30
0.0
 40
300.0
 41
0.0
 71
     5
 72
     1
  1
R5555
  7
MX_NOTE_STANDARD
 11
0.937493
 21
-0.348004
 31
0.0
  0
POINT
  5
B34
100
AcDbEntity
  8
DEFPOINTS
  6
BYBLOCK
 62
     0
100
AcDbPoint
 10
32513.072052
 20
12603.632918
 30
0.0
  0
POINT
  5
B35
100
AcDbEntity
  8
DEFPOINTS
  6
BYBLOCK
 62
     0
100
AcDbPoint
 10
37720.725789
 20
10670.516654
 30
0.0
  0
ENDBLK
  5
B36
100
AcDbEntity
  8
0
100
AcDbBlockEnd
  0
BLOCK
  5
B37
100
AcDbEntity
  8
0
100
AcDbBlockBegin
  2
*D9
 70
     1
 10
0.0
 20
0.0
 30
0.0
  3
*D9
  1

  0
LINE
  5
B38
100
AcDbEntity
  8
0
  6
BYBLOCK
 62
     0
100
AcDbLine
 10
37720.725789
 20
10670.516654
 30
0.0
 11
33042.072962
 21
18804.523741
 31
0.0
  0
INSERT
  5
B39
100
AcDbEntity
  8
0
  6
BYBLOCK
 62
     0
100
AcDbBlockReference
  2
_OPEN30
 10
32834.90501
 20
19164.692715
 30
0.0
 41
415.5
 42
415.5
 43
415.5
 50
119.907364
  0
MTEXT
  5
B3A
100
AcDbEntity
  8
0
  6
BYBLOCK
 62
     0
100
AcDbMText
 10
36006.354791
 20
13952.858288
 30
0.0
 40
300.0
 41
0.0
 71
     5
 72
     1
  1
R9800
  7
MX_NOTE_STANDARD
 11
0.498599
 21
-0.866833
 31
0.0
  0
POINT
  5
B3B
100
AcDbEntity
  8
DEFPOINTS
  6
BYBLOCK
 62
     0
100
AcDbPoint
 10
32834.90501
 20
19164.692715
 30
0.0
  0
POINT
  5
B3C
100
AcDbEntity
  8
DEFPOINTS
  6
BYBLOCK
 62
     0
100
AcDbPoint
 10
37720.725789
 20
10670.516654
 30
0.0
  0
ENDBLK
  5
B3D
100
AcDbEntity
  8
0
100
AcDbBlockEnd
  0
BLOCK
  5
B3E
100
AcDbEntity
  8
0
100
AcDbBlockBegin
  2
*D10
 70
     1
 10
0.0
 20
0.0
 30
0.0
  3
*D10
  1

  0
LINE
  5
B3F
100
AcDbEntity
  8
0
  6
BYBLOCK
 62
     0
100
AcDbLine
 10
37720.725789
 20
10670.516654
 30
0.0
 11
34904.688257
 21
21749.37674
 31
0.0
  0
INSERT
  5
B40
100
AcDbEntity
  8
0
  6
BYBLOCK
 62
     0
100
AcDbBlockReference
  2
_OPEN30
 10
34802.330794
 20
22152.071662
 30
0.0
 41
415.5
 42
415.5
 43
415.5
 50
104.261492
  0
MTEXT
  5
B41
100
AcDbEntity
  8
0
  6
BYBLOCK
 62
     0
100
AcDbMText
 10
37101.502006
 20
13717.593176
 30
0.0
 40
300.0
 41
0.0
 71
     5
 72
     1
  1
R11850
  7
MX_DIMTXSTY_2
 11
0.246348
 21
-0.969182
 31
0.0
  0
POINT
  5
B42
100
AcDbEntity
  8
DEFPOINTS
  6
BYBLOCK
 62
     0
100
AcDbPoint
 10
34802.330794
 20
22152.071662
 30
0.0
  0
POINT
  5
B43
100
AcDbEntity
  8
DEFPOINTS
  6
BYBLOCK
 62
     0
100
AcDbPoint
 10
37720.725789
 20
10670.516654
 30
0.0
  0
ENDBLK
  5
B44
100
AcDbEntity
  8
0
100
AcDbBlockEnd
  0
BLOCK
  5
B45
100
AcDbEntity
  8
0
100
AcDbBlockBegin
  2
*D11
 70
     1
 10
0.0
 20
0.0
 30
0.0
  3
*D11
  1

  0
LINE
  5
B46
100
AcDbEntity
  8
0
  6
BYBLOCK
 62
     0
100
AcDbLine
 10
29175.850718
 20
4956.958783
 30
0.0
 11
29175.850718
 21
1160.332806
 31
0.0
  0
LINE
  5
B47
100
AcDbEntity
  8
0
  6
BYBLOCK
 62
     0
100
AcDbLine
 10
27422.500019
 20
2562.586957
 30
0.0
 11
27422.500019
 21
1160.332806
 31
0.0
  0
LINE
  5
B48
100
AcDbEntity
  8
0
  6
BYBLOCK
 62
     0
100
AcDbLine
 10
28760.350718
 20
1161.332806
 30
0.0
 11
27838.000019
 21
1161.332806
 31
0.0
  0
INSERT
  5
B49
100
AcDbEntity
  8
0
  6
BYBLOCK
 62
     0
100
AcDbBlockReference
  2
_OPEN30
 10
29175.850718
 20
1161.332806
 30
0.0
 41
415.5
 42
415.5
 43
415.5
  0
INSERT
  5
B4A
100
AcDbEntity
  8
0
  6
BYBLOCK
 62
     0
100
AcDbBlockReference
  2
_OPEN30
 10
27422.500019
 20
1161.332806
 30
0.0
 41
415.5
 42
415.5
 43
415.5
 50
180.0
  0
MTEXT
  5
B4B
100
AcDbEntity
  8
0
  6
BYBLOCK
 62
     0
100
AcDbMText
 10
28299.175364
 20
1311.832806
 30
0.0
 40
300.0
 41
0.0
 71
     5
 72
     1
  1
1753
  7
MX_DIMTXSTY_2
  0
POINT
  5
B4C
100
AcDbEntity
  8
DEFPOINTS
  6
BYBLOCK
 62
     0
100
AcDbPoint
 10
29175.850718
 20
4957.458783
 30
0.0
  0
POINT
  5
B4D
100
AcDbEntity
  8
DEFPOINTS
  6
BYBLOCK
 62
     0
100
AcDbPoint
 10
27422.500019
 20
2563.086957
 30
0.0
  0
POINT
  5
B4E
100
AcDbEntity
  8
DEFPOINTS
  6
BYBLOCK
 62
     0
100
AcDbPoint
 10
27422.500019
 20
1161.332806
 30
0.0
  0
ENDBLK
  5
B4F
100
AcDbEntity
  8
0
100
AcDbBlockEnd
  0
BLOCK
  5
B50
100
AcDbEntity
  8
0
100
AcDbBlockBegin
  2
*D12
 70
     1
 10
0.0
 20
0.0
 30
0.0
  3
*D12
  1

  0
LINE
  5
B51
100
AcDbEntity
  8
0
  6
BYBLOCK
 62
     0
100
AcDbLine
 10
34644.10813
 20
2562.586957
 30
0.0
 11
34644.10813
 21
110.332806
 31
0.0
  0
LINE
  5
B52
100
AcDbEntity
  8
0
  6
BYBLOCK
 62
     0
100
AcDbLine
 10
27422.500019
 20
2562.586957
 30
0.0
 11
27422.500019
 21
110.332806
 31
0.0
  0
LINE
  5
B53
100
AcDbEntity
  8
0
  6
BYBLOCK
 62
     0
100
AcDbLine
 10
34228.60813
 20
111.332806
 30
0.0
 11
27838.000019
 21
111.332806
 31
0.0
  0
INSERT
  5
B54
100
AcDbEntity
  8
0
  6
BYBLOCK
 62
     0
100
AcDbBlockReference
  2
_OPEN30
 10
34644.10813
 20
111.332806
 30
0.0
 41
415.5
 42
415.5
 43
415.5
  0
INSERT
  5
B55
100
AcDbEntity
  8
0
  6
BYBLOCK
 62
     0
100
AcDbBlockReference
  2
_OPEN30
 10
27422.500019
 20
111.332806
 30
0.0
 41
415.5
 42
415.5
 43
415.5
 50
180.0
  0
MTEXT
  5
B56
100
AcDbEntity
  8
0
  6
BYBLOCK
 62
     0
100
AcDbMText
 10
31033.303931
 20
261.832806
 30
0.0
 40
300.0
 41
0.0
 71
     5
 72
     1
  1
7230
  7
MX_DIMTXSTY_5
  0
POINT
  5
B57
100
AcDbEntity
  8
DEFPOINTS
  6
BYBLOCK
 62
     0
100
AcDbPoint
 10
34644.10813
 20
2563.086957
 30
0.0
  0
POINT
  5
B58
100
AcDbEntity
  8
DEFPOINTS
  6
BYBLOCK
 62
     0
100
AcDbPoint
 10
27422.500019
 20
2563.086957
 30
0.0
  0
POINT
  5
B59
100
AcDbEntity
  8
DEFPOINTS
  6
BYBLOCK
 62
     0
100
AcDbPoint
 10
27422.500019
 20
111.332806
 30
0.0
  0
ENDBLK
  5
B5A
100
AcDbEntity
  8
0
100
AcDbBlockEnd
  0
BLOCK
  5
B5B
100
AcDbEntity
  8
0
100
AcDbBlockBegin
  2
*D13
 70
     1
 10
0.0
 20
0.0
 30
0.0
  3
*D13
  1

  0
LINE
  5
B5C
100
AcDbEntity
  8
0
  6
BYBLOCK
 62
     0
100
AcDbLine
 10
37720.725789
 20
10670.516654
 30
0.0
 11
29341.403548
 21
5696.896782
 31
0.0
  0
INSERT
  5
B5D
100
AcDbEntity
  8
0
  6
BYBLOCK
 62
     0
100
AcDbBlockReference
  2
_OPEN30
 10
28865.004024
 20
5414.125685
 30
0.0
 41
554.0
 42
554.0
 43
554.0
 50
210.691619
  0
MTEXT
  5
B5E
100
AcDbEntity
  8
0
  6
BYBLOCK
 62
     0
100
AcDbMText
 10
35932.624743
 20
9784.188536
 30
0.0
 40
300.0
 41
0.0
 71
     5
 72
     1
  1
R10300
  7
MX_DIMTXSTY_2
 11
0.859927
 21
0.510417
 31
0.0
  0
POINT
  5
B5F
100
AcDbEntity
  8
DEFPOINTS
  6
BYBLOCK
 62
     0
100
AcDbPoint
 10
28865.004024
 20
5414.125685
 30
0.0
  0
POINT
  5
B60
100
AcDbEntity
  8
DEFPOINTS
  6
BYBLOCK
 62
     0
100
AcDbPoint
 10
37720.725789
 20
10670.516654
 30
0.0
  0
ENDBLK
  5
B61
100
AcDbEntity
  8
0
100
AcDbBlockEnd
  0
BLOCK
  5
B62
100
AcDbEntity
  8
0
100
AcDbBlockBegin
  2
*D14
 70
     1
 10
0.0
 20
0.0
 30
0.0
  3
*D14
  1

  0
LINE
  5
B63
100
AcDbEntity
  8
0
  6
BYBLOCK
 62
     0
100
AcDbLine
 10
45221.225789
 20
22517.167436
 30
0.0
 11
46721.725789
 21
22517.167436
 31
0.0
  0
LINE
  5
B64
100
AcDbEntity
  8
0
  6
BYBLOCK
 62
     0
100
AcDbLine
 10
45221.225789
 20
15295.559325
 30
0.0
 11
46721.725789
 21
15295.559325
 31
0.0
  0
LINE
  5
B65
100
AcDbEntity
  8
0
  6
BYBLOCK
 62
     0
100
AcDbLine
 10
46720.725789
 20
22101.667436
 30
0.0
 11
46720.725789
 21
15711.059325
 31
0.0
  0
INSERT
  5
B66
100
AcDbEntity
  8
0
  6
BYBLOCK
 62
     0
100
AcDbBlockReference
  2
_OPEN30
 10
46720.725789
 20
22517.167436
 30
0.0
 41
415.5
 42
415.5
 43
415.5
 50
90.0
  0
INSERT
  5
B67
100
AcDbEntity
  8
0
  6
BYBLOCK
 62
     0
100
AcDbBlockReference
  2
_OPEN30
 10
46720.725789
 20
15295.559325
 30
0.0
 41
415.5
 42
415.5
 43
415.5
 50
270.0
  0
MTEXT
  5
B68
100
AcDbEntity
  8
0
  6
BYBLOCK
 62
     0
100
AcDbMText
 10
46570.225789
 20
18906.363236
 30
0.0
 40
300.0
 41
0.0
 71
     5
 72
     1
  1
7230
  7
MX_DIMTXSTY_5
 11
0.0
 21
1.0
 31
0.0
  0
POINT
  5
B69
100
AcDbEntity
  8
DEFPOINTS
  6
BYBLOCK
 62
     0
100
AcDbPoint
 10
45220.725789
 20
22517.167436
 30
0.0
  0
POINT
  5
B6A
100
AcDbEntity
  8
DEFPOINTS
  6
BYBLOCK
 62
     0
100
AcDbPoint
 10
45220.725789
 20
15295.559325
 30
0.0
  0
POINT
  5
B6B
100
AcDbEntity
  8
DEFPOINTS
  6
BYBLOCK
 62
     0
100
AcDbPoint
 10
46720.725789
 20
15295.559325
 30
0.0
  0
ENDBLK
  5
B6C
100
AcDbEntity
  8
0
100
AcDbBlockEnd
  0
ENDSEC
  0
SECTION
  2
ENTITIES
  0
LINE
  5
594
100
AcDbEntity
  8
LY_1
  6
CONTINUOUS
 62
   130
100
AcDbLine
 10
4882.788084
 20
12312.082692
 30
0.0
 11
4913.940922
 21
12352.2333
 31
0.0
  0
ARC
  5
595
100
AcDbEntity
  8
LY_1
  6
CONTINUOUS
 62
   130
100
AcDbCircle
 10
4882.168339
 20
12847.182537
 30
0.0
 40
615.990892
100
AcDbArc
 50
230.413186
 51
247.598679
  0
LINE
  5
596
100
AcDbEntity
  8
LY_1
  6
CONTINUOUS
 62
   220
100
AcDbLine
 10
2882.154085
 20
11988.129039
 30
0.0
 11
2616.843959
 21
12364.766841
 31
0.0
  0
LINE
  5
597
100
AcDbEntity
  8
LY_1
  6
CONTINUOUS
 62
   220
100
AcDbLine
 10
2970.402749
 20
12007.467155
 30
0.0
 11
12561.146285
 21
18763.351369
 31
0.0
  0
LINE
  5
598
100
AcDbEntity
  8
LY_1
  6
CONTINUOUS
 62
   220
100
AcDbLine
 10
1229.719412
 20
12772.761614
 30
0.0
 11
2426.360225
 21
11455.340687
 31
0.0
  0
LINE
  5
599
100
AcDbEntity
  8
LY_1
  6
CENTER
 62
   230
100
AcDbLine
 10
1470.148904
 20
11788.971394
 30
0.0
 11
11864.301023
 21
21230.195824
 31
0.0
  0
LINE
  5
59A
100
AcDbEntity
  8
LY_1
  6
CONTINUOUS
 62
   220
100
AcDbLine
 10
2760.243812
 20
10941.129317
 30
0.0
 11
11444.060129
 21
18828.820187
 31
0.0
  0
LINE
  5
59B
100
AcDbEntity
  8
LY_1
  6
CENTER
 62
   230
100
AcDbLine
 10
3674.188376
 20
4572.555626
 30
0.0
 11
3674.188376
 21
18614.461373
 31
0.0
  0
LINE
  5
59C
100
AcDbEntity
  8
LY_1
  6
CONTINUOUS
 62
   220
100
AcDbLine
 10
5169.190227
 20
4957.458893
 30
0.0
 11
5169.190227
 21
16688.798675
 31
0.0
  0
LINE
  5
59D
100
AcDbEntity
  8
LY_1
  6
CONTINUOUS
 62
   220
100
AcDbLine
 10
2179.186525
 20
4957.458893
 30
0.0
 11
2179.186525
 21
16688.798675
 31
0.0
  0
LINE
  5
59E
100
AcDbEntity
  8
LY_1
  6
CENTER
 62
   140
100
AcDbLine
 10
5220.95574
 20
13669.107051
 30
0.0
 11
4639.795619
 21
12259.18043
 31
0.0
  0
LINE
  5
59F
100
AcDbEntity
  8
LY_1
  6
CONTINUOUS
 62
   254
100
AcDbLine
 10
425.835827
 20
2661.332806
 30
0.0
 11
425.835827
 21
21979.275097
 31
0.0
  0
ARC
  5
5A0
100
AcDbEntity
  8
LY_1
  6
CONTINUOUS
 62
    52
100
AcDbCircle
 10
10724.061597
 20
10670.516654
 30
0.0
 40
5554.87137
100
AcDbArc
 50
84.647389
 51
190.47734
  0
DIMENSION
  5
5A1
100
AcDbEntity
  8
LY_1
  6
CONTINUOUS
 62
     7
100
AcDbDimension
  2
*D1
 10
10724.061597
 20
10670.516654
 30
0.0
 11
8941.365134
 21
13591.016411
 31
0.0
 70
   164
  1
R9800
  3
MXDIMSTYLE
100
AcDbRadialDimension
 15
5618.605523
 25
19034.522269
 35
0.0
 40
0.0
1001
ACAD
1000
DSTYLE
1002
{
1070
   287
1070
     2
1070
     6
1000

1070
    41
1040
415.5
1070
   140
1040
300.0
1070
   141
1040
0.0
1070
   271
1070
     0
1070
   289
1070
     2
1002
}
  0
DIMENSION
  5
5A2
100
AcDbEntity
  8
LY_1
  6
CONTINUOUS
 62
     7
100
AcDbDimension
  2
*D2
 10
10724.061597
 20
10670.516654
 30
0.0
 11
8529.885938
 21
11485.009488
 31
0.0
 70
   164
  1
<>
  3
MXDIMSTYLE
100
AcDbRadialDimension
 15
5516.40786
 25
12603.632918
 35
0.0
 40
0.0
1001
ACAD
1000
DSTYLE
1002
{
1070
   287
1070
     2
1070
     6
1000

1070
    41
1040
415.5
1070
   140
1040
300.0
1070
   141
1040
0.0
1070
   271
1070
     0
1070
   284
1070
     8
1070
   289
1070
     2
1002
}
  0
DIMENSION
  5
5A3
100
AcDbEntity
  8
LY_1
  6
CONTINUOUS
 62
     7
100
AcDbDimension
  2
*D3
 10
10724.061597
 20
10670.516654
 30
0.0
 11
9927.178725
 21
13418.363938
 31
0.0
 70
   164
  1
R11310
  3
MXDIMSTYLE
100
AcDbRadialDimension
 15
7574.269765
 25
21531.770216
 35
0.0
 40
0.0
1001
ACAD
1000
DSTYLE
1002
{
1070
   287
1070
     2
1070
     6
1000

1070
    41
1040
415.5
1070
   140
1040
300.0
1070
   141
1040
0.0
1070
   271
1070
     0
1070
   289
1070
     2
1070
   340
1005
B3
1002
}
  0
LINE
  5
5A4
100
AcDbEntity
  8
LY_1
  6
CONTINUOUS
 62
   254
100
AcDbLine
 10
7334.073911
 20
2661.332806
 30
0.0
 11
7334.073911
 21
15071.037013
 31
0.0
  0
LINE
  5
5A5
100
AcDbEntity
  8
LY_1
  6
CONTINUOUS
 62
   254
100
AcDbLine
 10
10878.203346
 20
10670.516654
 30
0.0
 11
3674.188376
 21
10670.516654
 31
0.0
  0
DIMENSION
  5
5A6
100
AcDbEntity
  8
LY_1
  6
CONTINUOUS
 62
     7
100
AcDbDimension
  2
*D4
 10
10724.061597
 20
10670.516654
 30
0.0
 11
8723.942406
 21
9598.148268
 31
0.0
 70
   164
  1
R10300
  3
MXDIMSTYLE
100
AcDbRadialDimension
 15
1648.036942
 25
5804.385699
 35
0.0
 40
0.0
1001
ACAD
1000
DSTYLE
1002
{
1070
   287
1070
     2
1070
     6
1000

1070
    41
1040
415.5
1070
   140
1040
300.0
1070
   141
1040
0.0
1070
   271
1070
     0
1070
   289
1070
     2
1070
   340
1005
B2
1002
}
  0
ARC
  5
5A7
100
AcDbEntity
  8
LY_1
  6
CONTINUOUS
 62
    52
100
AcDbCircle
 10
10724.061597
 20
10670.516654
 30
0.0
 40
10298.22577
100
AcDbArc
 50
172.551837
 51
228.941254
  0
DIMENSION
  5
5A8
100
AcDbEntity
  8
LY_1
  6
CONTINUOUS
 62
     7
100
AcDbDimension
  2
*D5
 10
425.835827
 20
1161.332806
 30
0.0
 11
1302.511171
 21
1161.332806
 31
0.0
 70
   160
  1
<>
  3
MXDIMSTYLE
100
AcDbAlignedDimension
 13
2179.186525
 23
4957.458783
 33
0.0
 14
425.835827
 24
2661.332806
 34
0.0
100
AcDbRotatedDimension
1001
ACAD
1000
DSTYLE
1002
{
1070
    41
1040
415.5
1070
   140
1040
300.0
1070
   271
1070
     0
1070
   284
1070
     8
1070
   340
1005
B2
1002
}
  0
DIMENSION
  5
5A9
100
AcDbEntity
  8
LY_1
  6
CONTINUOUS
 62
     7
100
AcDbDimension
  2
*D6
 10
425.835827
 20
111.332806
 30
0.0
 11
3879.955014
 21
111.332806
 31
0.0
 70
   160
  1
6910
  3
MXDIMSTYLE
100
AcDbAlignedDimension
 13
7334.073911
 23
2661.332806
 33
0.0
 14
425.835827
 24
2661.332806
 34
0.0
100
AcDbRotatedDimension
1001
ACAD
1000
DSTYLE
1002
{
1070
    41
1040
415.5
1070
   140
1040
300.0
1070
   271
1070
     0
1070
   340
1005
B4
1002
}
  0
LINE
  5
5AA
100
AcDbEntity
  8
LY_1
  6
CONTINUOUS
 62
   130
100
AcDbLine
 10
5312.797696
 20
8477.342551
 30
0.0
 11
5313.417857
 21
8513.552908
 31
0.0
  0
LINE
  5
5AB
100
AcDbEntity
  8
LY_1
  6
CONTINUOUS
 62
   130
100
AcDbLine
 10
4876.851649
 20
8477.580262
 30
0.0
 11
4572.258127
 21
9492.89468
 31
0.0
  0
LINE
  5
5AC
100
AcDbEntity
  8
LY_1
  6
CENTER
 62
   140
100
AcDbLine
 10
4720.003526
 20
9779.9383
 30
0.0
 11
5158.209419
 21
8319.248136
 31
0.0
  0
LINE
  5
5AD
100
AcDbEntity
  8
LY_1
  6
CONTINUOUS
 62
   130
100
AcDbLine
 10
2475.486531
 20
9472.258756
 30
0.0
 11
2771.982544
 21
8454.550205
 31
0.0
  0
LINE
  5
5AE
100
AcDbEntity
  8
LY_1
  6
CENTER
 62
   140
100
AcDbLine
 10
2621.955286
 20
8168.69261
 30
0.0
 11
2195.398938
 21
9632.827113
 31
0.0
  0
LINE
  5
5AF
100
AcDbEntity
  8
LY_1
  6
CONTINUOUS
 62
   130
100
AcDbLine
 10
2045.376806
 20
9346.951939
 30
0.0
 11
2341.872818
 21
8329.243388
 31
0.0
  0
ARC
  5
5B0
100
AcDbEntity
  8
LY_1
  6
CONTINUOUS
 62
   130
100
AcDbCircle
 10
4979.008911
 20
7280.613287
 30
0.0
 40
615.990892
100
AcDbArc
 50
279.813581
 51
296.999075
  0
LINE
  5
5B1
100
AcDbEntity
  8
LY_1
  6
CONTINUOUS
 62
   220
100
AcDbLine
 10
5134.178808
 20
4874.176301
 30
0.0
 11
4673.477715
 21
4874.176301
 31
0.0
  0
LINE
  5
5B2
100
AcDbEntity
  8
LY_1
  6
CENTER
 62
   140
100
AcDbLine
 10
5138.973489
 20
7504.108556
 30
0.0
 11
4704.179175
 21
7282.560244
 31
0.0
  0
LINE
  5
5B3
100
AcDbEntity
  8
LY_1
  6
CENTER
 62
   140
100
AcDbLine
 10
4575.413843
 20
8072.729333
 30
0.0
 11
5267.736037
 21
6713.932019
 31
0.0
  0
LINE
  5
5B4
100
AcDbEntity
  8
LY_1
  6
CONTINUOUS
 62
   130
100
AcDbLine
 10
5361.767415
 20
7022.783691
 30
0.0
 11
4880.539621
 21
7967.273178
 31
0.0
  0
ARC
  5
5B5
100
AcDbEntity
  8
LY_1
  6
CONTINUOUS
 62
   130
100
AcDbCircle
 10
4975.46048
 20
8928.422855
 30
0.0
 40
615.990892
100
AcDbArc
 50
269.513441
 51
286.698934
  0
LINE
  5
5B6
100
AcDbEntity
  8
LY_1
  6
CENTER
 62
   230
100
AcDbLine
 10
1943.536859
 20
7274.172857
 30
0.0
 11
5404.839893
 21
7274.172857
 31
0.0
  0
LINE
  5
5B7
100
AcDbEntity
  8
LY_1
  6
CONTINUOUS
 62
   130
100
AcDbLine
 10
2453.809622
 20
6525.243595
 30
0.0
 11
2423.290942
 21
6565.878321
 31
0.0
  0
ARC
  5
5B8
100
AcDbEntity
  8
LY_1
  6
CONTINUOUS
 62
   130
100
AcDbCircle
 10
2462.829776
 20
7060.26779
 30
0.0
 40
615.990906
100
AcDbArc
 50
291.501801
 51
308.687302
  0
LINE
  5
5B9
100
AcDbEntity
  8
LY_1
  6
CENTER
 62
   140
100
AcDbLine
 10
2695.898675
 20
6468.521994
 30
0.0
 11
2137.026436
 21
7887.430759
 31
0.0
  0
LINE
  5
5BA
100
AcDbEntity
  8
LY_1
  6
CONTINUOUS
 62
   220
100
AcDbLine
 10
2784.308168
 20
5056.045807
 30
0.0
 11
4564.068584
 21
5056.045807
 31
0.0
  0
LINE
  5
5BB
100
AcDbEntity
  8
LY_1
  6
CONTINUOUS
 62
   220
100
AcDbLine
 10
2214.197944
 20
4874.176301
 30
0.0
 11
2674.899036
 21
4874.176301
 31
0.0
  0
LINE
  5
5BC
100
AcDbEntity
  8
LY_1
  6
CONTINUOUS
 62
   220
100
AcDbLine
 10
2179.186525
 20
4957.458893
 30
0.0
 11
2207.19497
 21
4957.458893
 31
0.0
  0
LINE
  5
5BD
100
AcDbEntity
  8
LY_1
  6
CONTINUOUS
 62
   220
100
AcDbLine
 10
2207.19497
 20
4881.178446
 30
0.0
 11
2207.19497
 21
4957.458893
 31
0.0
  0
LINE
  5
5BE
100
AcDbEntity
  8
LY_1
  6
CONTINUOUS
 62
   220
100
AcDbLine
 10
2207.19497
 20
4881.178446
 30
0.0
 11
2214.197944
 21
4874.176301
 31
0.0
  0
LINE
  5
5BF
100
AcDbEntity
  8
LY_1
  6
CONTINUOUS
 62
   220
100
AcDbLine
 10
2784.308168
 20
5056.045807
 30
0.0
 11
2681.90201
 21
4953.638665
 31
0.0
  0
LINE
  5
5C0
100
AcDbEntity
  8
LY_1
  6
CONTINUOUS
 62
   220
100
AcDbLine
 10
2681.90201
 20
4881.178446
 30
0.0
 11
2681.90201
 21
4953.638665
 31
0.0
  0
LINE
  5
5C1
100
AcDbEntity
  8
LY_1
  6
CONTINUOUS
 62
   220
100
AcDbLine
 10
2681.90201
 20
4881.178446
 30
0.0
 11
2674.899036
 21
4874.176301
 31
0.0
  0
ARC
  5
5C2
100
AcDbEntity
  8
LY_1
  6
CONTINUOUS
 62
   130
100
AcDbCircle
 10
2520.083875
 20
6470.675414
 30
0.0
 40
26.949528
100
AcDbArc
 50
215.327805
 51
246.157896
  0
ARC
  5
5C3
100
AcDbEntity
  8
LY_1
  6
CONTINUOUS
 62
   130
100
AcDbCircle
 10
2300.23261
 20
6380.918516
 30
0.0
 40
211.310028
100
AcDbArc
 50
20.549487
 51
33.37747
  0
ARC
  5
5C4
100
AcDbEntity
  8
LY_1
  6
CONTINUOUS
 62
   130
100
AcDbCircle
 10
2462.835086
 20
7060.269882
 30
0.0
 40
615.990906
100
AcDbArc
 50
274.315769
 51
291.501269
  0
LINE
  5
5C5
100
AcDbEntity
  8
LY_1
  6
CONTINUOUS
 62
   130
100
AcDbLine
 10
2476.69011
 20
6497.171229
 30
0.0
 11
2453.809602
 21
6525.243581
 31
0.0
  0
LINE
  5
5C6
100
AcDbEntity
  8
LY_1
  6
CONTINUOUS
 62
   220
100
AcDbLine
 10
4564.068584
 20
5056.045807
 30
0.0
 11
4666.474742
 21
4953.638665
 31
0.0
  0
LINE
  5
5C7
100
AcDbEntity
  8
LY_1
  6
CONTINUOUS
 62
   220
100
AcDbLine
 10
4666.474742
 20
4881.178446
 30
0.0
 11
4666.474742
 21
4953.638665
 31
0.0
  0
LINE
  5
5C8
100
AcDbEntity
  8
LY_1
  6
CONTINUOUS
 62
   220
100
AcDbLine
 10
4666.474742
 20
4881.178446
 30
0.0
 11
4673.477715
 21
4874.176301
 31
0.0
  0
LINE
  5
5C9
100
AcDbEntity
  8
LY_1
  6
CONTINUOUS
 62
   130
100
AcDbLine
 10
2430.644051
 20
7753.192323
 30
0.0
 11
2819.111815
 21
6766.919832
 31
0.0
  0
LINE
  5
5CA
100
AcDbEntity
  8
LY_1
  6
CONTINUOUS
 62
   130
100
AcDbLine
 10
2013.82001
 20
7589.015886
 30
0.0
 11
2402.287774
 21
6602.743395
 31
0.0
  0
LINE
  5
5CB
100
AcDbEntity
  8
LY_1
  6
CENTER
 62
   140
100
AcDbLine
 10
2189.445526
 20
7088.549654
 30
0.0
 11
2643.4761
 21
7267.395953
 31
0.0
  0
LINE
  5
5CC
100
AcDbEntity
  8
LY_1
  6
CONTINUOUS
 62
   130
100
AcDbLine
 10
2836.751789
 20
6639.014461
 30
0.0
 11
2834.338301
 21
6675.149588
 31
0.0
  0
ARC
  5
5CD
100
AcDbEntity
  8
LY_1
  6
CONTINUOUS
 62
   130
100
AcDbCircle
 10
3045.086874
 20
6674.347477
 30
0.0
 40
211.310028
100
AcDbArc
 50
189.625598
 51
202.453581
  0
LINE
  5
5CE
100
AcDbEntity
  8
LY_1
  6
CONTINUOUS
 62
   130
100
AcDbLine
 10
2834.338287
 20
6675.14958
 30
0.0
 11
2828.94271
 21
6725.681368
 31
0.0
  0
LINE
  5
5CF
100
AcDbEntity
  8
LY_1
  6
CONTINUOUS
 62
   130
100
AcDbLine
 10
2828.94271
 20
6725.681352
 30
0.0
 11
2830.647709
 21
6732.266483
 31
0.0
  0
LINE
  5
5D0
100
AcDbEntity
  8
LY_1
  6
CONTINUOUS
 62
   130
100
AcDbLine
 10
2830.647701
 20
6732.266434
 30
0.0
 11
2819.131961
 21
6766.955538
 31
0.0
  0
LINE
  5
5D1
100
AcDbEntity
  8
LY_1
  6
CONTINUOUS
 62
   130
100
AcDbLine
 10
2423.29093
 20
6565.878325
 30
0.0
 11
2417.552728
 21
6569.531271
 31
0.0
  0
LINE
  5
5D2
100
AcDbEntity
  8
LY_1
  6
CONTINUOUS
 62
   130
100
AcDbLine
 10
2417.552762
 20
6569.531238
 30
0.0
 11
2402.315148
 21
6602.754142
 31
0.0
  0
ARC
  5
5D3
100
AcDbEntity
  8
LY_1
  6
CONTINUOUS
 62
   130
100
AcDbCircle
 10
2823.088324
 20
6590.041399
 30
0.0
 40
26.949528
100
AcDbArc
 50
336.845172
 51
7.675263
  0
LINE
  5
5D4
100
AcDbEntity
  8
LY_1
  6
CENTER
 62
   140
100
AcDbLine
 10
2660.677481
 20
7408.12161
 30
0.0
 11
2660.677481
 21
7103.037697
 31
0.0
  0
LINE
  5
5D5
100
AcDbEntity
  8
LY_1
  6
CONTINUOUS
 62
   130
100
AcDbLine
 10
2386.0794
 20
8247.35018
 30
0.0
 11
2359.410996
 21
8290.609479
 31
0.0
  0
LINE
  5
5D6
100
AcDbEntity
  8
LY_1
  6
CONTINUOUS
 62
   130
100
AcDbLine
 10
2356.276311
 20
7858.780002
 30
0.0
 11
2379.155178
 21
7830.706352
 31
0.0
  0
ARC
  5
5D7
100
AcDbEntity
  8
LY_1
  6
CONTINUOUS
 62
   130
100
AcDbCircle
 10
2532.740499
 20
7975.022507
 30
0.0
 40
211.310028
100
AcDbArc
 50
200.546176
 51
213.374159
  0
ARC
  5
5D8
100
AcDbEntity
  8
LY_1
  6
CONTINUOUS
 62
   130
100
AcDbCircle
 10
2370.09878
 20
7295.680547
 30
0.0
 40
615.990906
100
AcDbArc
 50
94.312463
 51
111.497956
  0
ARC
  5
5D9
100
AcDbEntity
  8
LY_1
  6
CONTINUOUS
 62
   130
100
AcDbCircle
 10
1787.869323
 20
7681.636609
 30
0.0
 40
211.310028
100
AcDbArc
 50
9.62229
 51
22.450274
  0
ARC
  5
5DA
100
AcDbEntity
  8
LY_1
  6
CONTINUOUS
 62
   130
100
AcDbCircle
 10
2009.872721
 20
7765.929837
 30
0.0
 40
26.949528
100
AcDbArc
 50
156.841865
 51
187.671952
  0
ARC
  5
5DB
100
AcDbEntity
  8
LY_1
  6
CONTINUOUS
 62
   130
100
AcDbCircle
 10
2370.104118
 20
7295.682649
 30
0.0
 40
615.990906
100
AcDbArc
 50
111.498493
 51
128.683986
  0
LINE
  5
5DC
100
AcDbEntity
  8
LY_1
  6
CONTINUOUS
 62
   130
100
AcDbLine
 10
2002.305112
 20
7623.705226
 30
0.0
 11
2013.818848
 21
7589.015456
 31
0.0
  0
LINE
  5
5DD
100
AcDbEntity
  8
LY_1
  6
CONTINUOUS
 62
   130
100
AcDbLine
 10
2004.010518
 20
7630.290225
 30
0.0
 11
2002.305139
 21
7623.705193
 31
0.0
  0
LINE
  5
5DE
100
AcDbEntity
  8
LY_1
  6
CONTINUOUS
 62
   130
100
AcDbLine
 10
1998.617861
 20
7680.822298
 30
0.0
 11
2004.010516
 21
7630.290228
 31
0.0
  0
LINE
  5
5DF
100
AcDbEntity
  8
LY_1
  6
CONTINUOUS
 62
   130
100
AcDbLine
 10
1996.206408
 20
7716.957589
 30
0.0
 11
1998.61781
 21
7680.822292
 31
0.0
  0
ARC
  5
5E0
100
AcDbEntity
  8
LY_1
  6
CONTINUOUS
 62
   130
100
AcDbCircle
 10
2312.884066
 20
7885.278334
 30
0.0
 40
26.949528
100
AcDbArc
 50
35.324497
 51
66.154585
  0
LINE
  5
5E1
100
AcDbEntity
  8
LY_1
  6
CONTINUOUS
 62
   130
100
AcDbLine
 10
2354.031531
 20
8294.772634
 30
0.0
 11
2341.901061
 21
8329.251583
 31
0.0
  0
LINE
  5
5E2
100
AcDbEntity
  8
LY_1
  6
CONTINUOUS
 62
   130
100
AcDbLine
 10
2359.410984
 20
8290.609483
 30
0.0
 11
2354.0315
 21
8294.77267
 31
0.0
  0
LINE
  5
5E3
100
AcDbEntity
  8
LY_1
  6
CONTINUOUS
 62
   130
100
AcDbLine
 10
2415.409469
 20
7786.416584
 30
0.0
 11
2430.645163
 21
7753.192799
 31
0.0
  0
LINE
  5
5E4
100
AcDbEntity
  8
LY_1
  6
CONTINUOUS
 62
   130
100
AcDbLine
 10
2409.671511
 20
7790.069832
 30
0.0
 11
2415.409501
 21
7786.416555
 31
0.0
  0
LINE
  5
5E5
100
AcDbEntity
  8
LY_1
  6
CONTINUOUS
 62
   130
100
AcDbLine
 10
2379.155199
 20
7830.706313
 30
0.0
 11
2409.671512
 21
7790.069848
 31
0.0
  0
ARC
  5
5E6
100
AcDbEntity
  8
LY_1
  6
CONTINUOUS
 62
   130
100
AcDbCircle
 10
2447.076817
 20
8186.940928
 30
0.0
 40
26.949527
100
AcDbArc
 50
210.072368
 51
240.902459
  0
ARC
  5
5E7
100
AcDbEntity
  8
LY_1
  6
CONTINUOUS
 62
   130
100
AcDbCircle
 10
2444.067767
 20
8779.29904
 30
0.0
 40
615.990892
100
AcDbArc
 50
286.246364
 51
303.431866
  0
ARC
  5
5E8
100
AcDbEntity
  8
LY_1
  6
CONTINUOUS
 62
   130
100
AcDbCircle
 10
2988.528386
 20
8341.668569
 30
0.0
 40
211.310023
100
AcDbArc
 50
184.370161
 51
197.198145
  0
ARC
  5
5E9
100
AcDbEntity
  8
LY_1
  6
CONTINUOUS
 62
   130
100
AcDbCircle
 10
2219.928376
 20
8117.698869
 30
0.0
 40
211.310023
100
AcDbArc
 50
15.29405
 51
28.122033
  0
ARC
  5
5EA
100
AcDbEntity
  8
LY_1
  6
CONTINUOUS
 62
   130
100
AcDbCircle
 10
2444.073246
 20
8779.300636
 30
0.0
 40
615.990892
100
AcDbArc
 50
269.060332
 51
286.245832
  0
LINE
  5
5EB
100
AcDbEntity
  8
LY_1
  6
CONTINUOUS
 62
   130
100
AcDbLine
 10
2777.832729
 20
8325.566767
 30
0.0
 11
2778.739224
 21
8361.771057
 31
0.0
  0
LINE
  5
5EC
100
AcDbEntity
  8
LY_1
  6
CONTINUOUS
 62
   130
100
AcDbLine
 10
2778.73921
 20
8361.77105
 30
0.0
 11
2777.994829
 21
8412.584627
 31
0.0
  0
LINE
  5
5ED
100
AcDbEntity
  8
LY_1
  6
CONTINUOUS
 62
   130
100
AcDbLine
 10
2777.994828
 20
8412.584611
 30
0.0
 11
2780.295831
 21
8418.985888
 31
0.0
  0
LINE
  5
5EE
100
AcDbEntity
  8
LY_1
  6
CONTINUOUS
 62
   130
100
AcDbLine
 10
2780.295819
 20
8418.98584
 30
0.0
 11
2772.005876
 21
8454.583916
 31
0.0
  0
LINE
  5
5EF
100
AcDbEntity
  8
LY_1
  6
CONTINUOUS
 62
   130
100
AcDbLine
 10
2406.292383
 20
8217.30006
 30
0.0
 11
2386.079378
 21
8247.350168
 31
0.0
  0
ARC
  5
5F0
100
AcDbEntity
  8
LY_1
  6
CONTINUOUS
 62
   130
100
AcDbCircle
 10
2759.740961
 20
8278.051098
 30
0.0
 40
26.949527
100
AcDbArc
 50
331.589736
 51
2.419826
  0
LINE
  5
5F1
100
AcDbEntity
  8
LY_1
  6
CONTINUOUS
 62
   130
100
AcDbLine
 10
4962.601943
 20
6819.404488
 30
0.0
 11
4481.374149
 21
7763.893974
 31
0.0
  0
ARC
  5
5F2
100
AcDbEntity
  8
LY_1
  6
CONTINUOUS
 62
   130
100
AcDbCircle
 10
4882.241511
 20
6588.808491
 30
0.0
 40
211.310023
100
AcDbArc
 50
26.047294
 51
38.875278
  0
LINE
  5
5F3
100
AcDbEntity
  8
LY_1
  6
CONTINUOUS
 62
   130
100
AcDbLine
 10
4980.951409
 20
6787.793713
 30
0.0
 11
4962.600882
 21
6819.403907
 31
0.0
  0
LINE
  5
5F4
100
AcDbEntity
  8
LY_1
  6
CONTINUOUS
 62
   130
100
AcDbLine
 10
4987.013159
 20
6784.707361
 30
0.0
 11
4980.951374
 21
6787.79374
 31
0.0
  0
LINE
  5
5F5
100
AcDbEntity
  8
LY_1
  6
CONTINUOUS
 62
   130
100
AcDbLine
 10
5021.284546
 20
6747.183491
 30
0.0
 11
4987.013159
 21
6784.707345
 31
0.0
  0
LINE
  5
5F6
100
AcDbEntity
  8
LY_1
  6
CONTINUOUS
 62
   130
100
AcDbLine
 10
5046.74935
 20
6721.43239
 30
0.0
 11
5021.284571
 21
6747.183454
 31
0.0
  0
ARC
  5
5F7
100
AcDbEntity
  8
LY_1
  6
CONTINUOUS
 62
   130
100
AcDbCircle
 10
5092.482011
 20
6699.215907
 30
0.0
 40
26.949527
100
AcDbArc
 50
220.825616
 51
251.655703
  0
LINE
  5
5F8
100
AcDbEntity
  8
LY_1
  6
CENTER
 62
   140
100
AcDbLine
 10
4687.699271
 20
7408.12161
 30
0.0
 11
4687.699271
 21
7103.037697
 31
0.0
  0
LINE
  5
5F9
100
AcDbEntity
  8
LY_1
  6
CONTINUOUS
 62
   130
100
AcDbLine
 10
4821.825535
 20
8039.476886
 30
0.0
 11
4856.09911
 21
8001.95499
 31
0.0
  0
ARC
  5
5FA
100
AcDbEntity
  8
LY_1
  6
CONTINUOUS
 62
   130
100
AcDbCircle
 10
4864.137117
 20
7506.05213
 30
0.0
 40
615.990892
100
AcDbArc
 50
117.00292
 51
134.188421
  0
ARC
  5
5FB
100
AcDbEntity
  8
LY_1
  6
CONTINUOUS
 62
   130
100
AcDbCircle
 10
4247.565397
 20
7834.376828
 30
0.0
 40
211.310023
100
AcDbArc
 50
15.126717
 51
27.9547
  0
ARC
  5
5FC
100
AcDbEntity
  8
LY_1
  6
CONTINUOUS
 62
   130
100
AcDbCircle
 10
4460.459472
 20
7939.57655
 30
0.0
 40
26.949527
100
AcDbArc
 50
162.346291
 51
193.176382
  0
LINE
  5
5FD
100
AcDbEntity
  8
LY_1
  6
CONTINUOUS
 62
   130
100
AcDbLine
 10
4451.553748
 20
7889.519193
 30
0.0
 11
4457.420221
 21
7853.781862
 31
0.0
  0
LINE
  5
5FE
100
AcDbEntity
  8
LY_1
  6
CONTINUOUS
 62
   130
100
AcDbLine
 10
4457.420233
 20
7853.781872
 30
0.0
 11
4467.6352
 21
7804.000066
 31
0.0
  0
LINE
  5
5FF
100
AcDbEntity
  8
LY_1
  6
CONTINUOUS
 62
   130
100
AcDbLine
 10
4467.635198
 20
7804.000082
 30
0.0
 11
4466.569337
 21
7797.28183
 31
0.0
  0
LINE
  5
600
100
AcDbEntity
  8
LY_1
  6
CONTINUOUS
 62
   130
100
AcDbLine
 10
4466.56934
 20
7797.28188
 30
0.0
 11
4481.357519
 21
7763.856501
 31
0.0
  0
LINE
  5
601
100
AcDbEntity
  8
LY_1
  6
CONTINUOUS
 62
   130
100
AcDbLine
 10
4862.16105
 20
7998.868989
 30
0.0
 11
4880.513404
 21
7967.259856
 31
0.0
  0
LINE
  5
602
100
AcDbEntity
  8
LY_1
  6
CONTINUOUS
 62
   130
100
AcDbLine
 10
4856.099123
 20
8001.954988
 30
0.0
 11
4862.161086
 21
7998.86896
 31
0.0
  0
ARC
  5
603
100
AcDbEntity
  8
LY_1
  6
CONTINUOUS
 62
   130
100
AcDbCircle
 10
4864.132033
 20
7506.04954
 30
0.0
 40
615.990892
100
AcDbArc
 50
99.816887
 51
117.002387
  0
ARC
  5
604
100
AcDbEntity
  8
LY_1
  6
CONTINUOUS
 62
   130
100
AcDbCircle
 10
4750.625332
 20
8087.440349
 30
0.0
 40
26.949527
100
AcDbArc
 50
40.828923
 51
71.659014
  0
ARC
  5
605
100
AcDbEntity
  8
LY_1
  6
CONTINUOUS
 62
   130
100
AcDbCircle
 10
4960.859468
 20
8197.859936
 30
0.0
 40
211.310023
100
AcDbArc
 50
206.050605
 51
218.878588
  0
ARC
  5
606
100
AcDbEntity
  8
LY_1
  6
CONTINUOUS
 62
   130
100
AcDbCircle
 10
4983.148373
 20
8336.105411
 30
0.0
 40
26.949527
100
AcDbArc
 50
210.525475
 51
241.355562
  0
ARC
  5
607
100
AcDbEntity
  8
LY_1
  6
CONTINUOUS
 62
   130
100
AcDbCircle
 10
4756.554626
 20
8265.06923
 30
0.0
 40
211.310023
100
AcDbArc
 50
15.747154
 51
28.575137
  0
LINE
  5
608
100
AcDbEntity
  8
LY_1
  6
CONTINUOUS
 62
   130
100
AcDbLine
 10
4889.253253
 20
8443.197939
 30
0.0
 11
4876.850501
 21
8477.57988
 31
0.0
  0
LINE
  5
609
100
AcDbEntity
  8
LY_1
  6
CONTINUOUS
 62
   130
100
AcDbLine
 10
4894.665461
 20
8439.077455
 30
0.0
 11
4889.253223
 21
8443.197971
 31
0.0
  0
LINE
  5
60A
100
AcDbEntity
  8
LY_1
  6
CONTINUOUS
 62
   130
100
AcDbLine
 10
4921.675109
 20
8396.030415
 30
0.0
 11
4894.665458
 21
8439.07744
 31
0.0
  0
LINE
  5
60B
100
AcDbEntity
  8
LY_1
  6
CONTINUOUS
 62
   130
100
AcDbLine
 10
4942.125122
 20
8366.141078
 30
0.0
 11
4921.675127
 21
8396.030374
 31
0.0
  0
LINE
  5
60C
100
AcDbEntity
  8
LY_1
  6
CONTINUOUS
 62
   130
100
AcDbLine
 10
4796.359265
 20
8065.226517
 30
0.0
 11
4821.825553
 21
8039.476902
 31
0.0
  0
LINE
  5
60D
100
AcDbEntity
  8
LY_1
  6
CONTINUOUS
 62
   220
100
AcDbLine
 10
5169.190227
 20
4957.458893
 30
0.0
 11
5141.181782
 21
4957.458893
 31
0.0
  0
LINE
  5
60E
100
AcDbEntity
  8
LY_1
  6
CONTINUOUS
 62
   220
100
AcDbLine
 10
5141.181782
 20
4881.178446
 30
0.0
 11
5141.181782
 21
4957.458893
 31
0.0
  0
LINE
  5
60F
100
AcDbEntity
  8
LY_1
  6
CONTINUOUS
 62
   220
100
AcDbLine
 10
5141.181782
 20
4881.178446
 30
0.0
 11
5134.178808
 21
4874.176301
 31
0.0
  0
ARC
  5
610
100
AcDbEntity
  8
LY_1
  6
CONTINUOUS
 62
   130
100
AcDbCircle
 10
5595.556545
 20
6952.250355
 30
0.0
 40
211.310023
100
AcDbArc
 50
195.123409
 51
207.951392
  0
ARC
  5
611
100
AcDbEntity
  8
LY_1
  6
CONTINUOUS
 62
   130
100
AcDbCircle
 10
5382.656413
 20
6847.06296
 30
0.0
 40
26.949527
100
AcDbArc
 50
342.342983
 51
13.173071
  0
ARC
  5
612
100
AcDbEntity
  8
LY_1
  6
CONTINUOUS
 62
   130
100
AcDbCircle
 10
4979.003799
 20
7280.610683
 30
0.0
 40
615.990892
100
AcDbArc
 50
296.999611
 51
314.185105
  0
LINE
  5
613
100
AcDbEntity
  8
LY_1
  6
CONTINUOUS
 62
   130
100
AcDbLine
 10
5376.554778
 20
6989.357998
 30
0.0
 11
5361.768531
 21
7022.78423
 31
0.0
  0
LINE
  5
614
100
AcDbEntity
  8
LY_1
  6
CONTINUOUS
 62
   130
100
AcDbLine
 10
5375.488499
 20
6982.639838
 30
0.0
 11
5376.554748
 21
6989.358028
 31
0.0
  0
LINE
  5
615
100
AcDbEntity
  8
LY_1
  6
CONTINUOUS
 62
   130
100
AcDbLine
 10
5385.700586
 20
6932.857469
 30
0.0
 11
5375.488501
 21
6982.639835
 31
0.0
  0
LINE
  5
616
100
AcDbEntity
  8
LY_1
  6
CONTINUOUS
 62
   130
100
AcDbLine
 10
5391.565049
 20
6897.119779
 30
0.0
 11
5385.700636
 21
6932.857479
 31
0.0
  0
ARC
  5
617
100
AcDbEntity
  8
LY_1
  6
CONTINUOUS
 62
   130
100
AcDbCircle
 10
5523.35939
 20
8495.110052
 30
0.0
 40
211.310023
100
AcDbArc
 50
184.823268
 51
197.651252
  0
ARC
  5
618
100
AcDbEntity
  8
LY_1
  6
CONTINUOUS
 62
   130
100
AcDbCircle
 10
5295.082235
 20
8429.685323
 30
0.0
 40
26.949527
100
AcDbArc
 50
332.042843
 51
2.87293
  0
ARC
  5
619
100
AcDbEntity
  8
LY_1
  6
CONTINUOUS
 62
   130
100
AcDbCircle
 10
4975.454985
 20
8928.421207
 30
0.0
 40
615.990892
100
AcDbArc
 50
286.699471
 51
303.884964
  0
LINE
  5
61A
100
AcDbEntity
  8
LY_1
  6
CENTER
 62
   140
100
AcDbLine
 10
5172.809155
 20
9119.714
 30
0.0
 11
4705.407861
 21
8979.479265
 31
0.0
  0
LINE
  5
61B
100
AcDbEntity
  8
LY_1
  6
CONTINUOUS
 62
   130
100
AcDbLine
 10
5305.949552
 20
8606.309294
 30
0.0
 11
5001.356031
 21
9621.623711
 31
0.0
  0
ARC
  5
61C
100
AcDbEntity
  8
LY_1
  6
CONTINUOUS
 62
   130
100
AcDbCircle
 10
4950.16507
 20
11540.682527
 30
0.0
 40
615.990892
100
AcDbArc
 50
72.817544
 51
90.003044
  0
ARC
  5
61D
100
AcDbEntity
  8
LY_1
  6
CONTINUOUS
 62
   130
100
AcDbCircle
 10
4950.172364
 20
11287.664344
 30
0.0
 40
615.990892
100
AcDbArc
 50
270.000268
 51
287.185762
  0
LINE
  5
61E
100
AcDbEntity
  8
LY_1
  6
CENTER
 62
   140
100
AcDbLine
 10
5194.170863
 20
11414.180484
 30
0.0
 11
4706.185463
 21
11414.166388
 31
0.0
  0
LINE
  5
61F
100
AcDbEntity
  8
LY_1
  6
CENTER
 62
   230
100
AcDbLine
 10
5404.839893
 20
8974.17406
 30
0.0
 11
1943.536859
 21
8974.17406
 31
0.0
  0
LINE
  5
620
100
AcDbEntity
  8
LY_1
  6
CENTER
 62
   230
100
AcDbLine
 10
1943.536859
 20
11414.173436
 30
0.0
 11
5404.839893
 21
11414.173436
 31
0.0
  0
LINE
  5
621
100
AcDbEntity
  8
LY_1
  6
CONTINUOUS
 62
   130
100
AcDbLine
 10
2039.556209
 20
9475.969141
 30
0.0
 11
2038.647622
 21
9439.764873
 31
0.0
  0
LINE
  5
622
100
AcDbEntity
  8
LY_1
  6
CENTER
 62
   140
100
AcDbLine
 10
2174.423273
 20
8832.502945
 30
0.0
 11
2642.926826
 21
8969.009981
 31
0.0
  0
LINE
  5
623
100
AcDbEntity
  8
LY_1
  6
CONTINUOUS
 62
   130
100
AcDbLine
 10
2037.087723
 20
9382.550173
 30
0.0
 11
2045.375609
 21
9346.951618
 31
0.0
  0
LINE
  5
624
100
AcDbEntity
  8
LY_1
  6
CONTINUOUS
 62
   130
100
AcDbLine
 10
2039.389119
 20
9388.951281
 30
0.0
 11
2037.087746
 21
9382.550137
 31
0.0
  0
LINE
  5
625
100
AcDbEntity
  8
LY_1
  6
CONTINUOUS
 62
   130
100
AcDbLine
 10
2038.647673
 20
9439.764874
 30
0.0
 11
2039.389118
 21
9388.951284
 31
0.0
  0
LINE
  5
626
100
AcDbEntity
  8
LY_1
  6
CENTER
 62
   140
100
AcDbLine
 10
2660.677481
 20
9108.123004
 30
0.0
 11
2660.677481
 21
8803.039091
 31
0.0
  0
ARC
  5
627
100
AcDbEntity
  8
LY_1
  6
CONTINUOUS
 62
   130
100
AcDbCircle
 10
2373.289483
 20
9022.21597
 30
0.0
 40
615.990892
100
AcDbArc
 50
89.057026
 51
106.24252
  0
ARC
  5
628
100
AcDbEntity
  8
LY_1
  6
CONTINUOUS
 62
   130
100
AcDbCircle
 10
2057.650739
 20
9523.483739
 30
0.0
 40
26.949527
100
AcDbArc
 50
151.586428
 51
182.416516
  0
ARC
  5
629
100
AcDbEntity
  8
LY_1
  6
CONTINUOUS
 62
   130
100
AcDbCircle
 10
2373.294991
 20
9022.217575
 30
0.0
 40
615.990892
100
AcDbArc
 50
106.243056
 51
123.42855
  0
ARC
  5
62A
100
AcDbEntity
  8
LY_1
  6
CONTINUOUS
 62
   130
100
AcDbCircle
 10
1828.859663
 20
9459.879508
 30
0.0
 40
211.310023
100
AcDbArc
 50
4.366854
 51
17.194837
  0
ARC
  5
62B
100
AcDbEntity
  8
LY_1
  6
CONTINUOUS
 62
   130
100
AcDbCircle
 10
2370.320147
 20
9614.575862
 30
0.0
 40
26.949527
100
AcDbArc
 50
30.069061
 51
60.899148
  0
ARC
  5
62C
100
AcDbEntity
  8
LY_1
  6
CONTINUOUS
 62
   130
100
AcDbCircle
 10
2597.472569
 20
9683.804777
 30
0.0
 40
211.310023
100
AcDbArc
 50
195.290739
 51
208.118722
  0
LINE
  5
62D
100
AcDbEntity
  8
LY_1
  6
CONTINUOUS
 62
   130
100
AcDbLine
 10
2457.979992
 20
9510.902243
 30
0.0
 11
2463.359234
 21
9506.738746
 31
0.0
  0
LINE
  5
62E
100
AcDbEntity
  8
LY_1
  6
CONTINUOUS
 62
   130
100
AcDbLine
 10
2431.314107
 20
9554.163073
 30
0.0
 11
2457.979995
 21
9510.902259
 31
0.0
  0
LINE
  5
62F
100
AcDbEntity
  8
LY_1
  6
CONTINUOUS
 62
   130
100
AcDbLine
 10
2411.102837
 20
9584.214363
 30
0.0
 11
2431.314089
 21
9554.163114
 31
0.0
  0
LINE
  5
630
100
AcDbEntity
  8
LY_1
  6
CONTINUOUS
 62
   130
100
AcDbLine
 10
2463.359205
 20
9506.738778
 30
0.0
 11
2475.487682
 21
9472.259129
 31
0.0
  0
LINE
  5
631
100
AcDbEntity
  8
LY_1
  6
CENTER
 62
   140
100
AcDbLine
 10
4687.699271
 20
9108.123004
 30
0.0
 11
4687.699271
 21
8803.039091
 31
0.0
  0
ARC
  5
632
100
AcDbEntity
  8
LY_1
  6
CONTINUOUS
 62
   130
100
AcDbCircle
 10
4902.749401
 20
9170.768269
 30
0.0
 40
615.990892
100
AcDbArc
 50
106.702779
 51
123.88828
  0
ARC
  5
633
100
AcDbEntity
  8
LY_1
  6
CONTINUOUS
 62
   130
100
AcDbCircle
 10
4354.819957
 20
9604.047762
 30
0.0
 40
211.310023
100
AcDbArc
 50
4.826576
 51
17.654559
  0
ARC
  5
634
100
AcDbEntity
  8
LY_1
  6
CONTINUOUS
 62
   130
100
AcDbCircle
 10
4583.093356
 20
9669.485701
 30
0.0
 40
26.949527
100
AcDbArc
 50
152.04615
 51
182.876241
  0
LINE
  5
635
100
AcDbEntity
  8
LY_1
  6
CONTINUOUS
 62
   130
100
AcDbLine
 10
4565.380664
 20
9621.827423
 30
0.0
 11
4564.762596
 21
9585.617061
 31
0.0
  0
LINE
  5
636
100
AcDbEntity
  8
LY_1
  6
CONTINUOUS
 62
   130
100
AcDbLine
 10
4564.76261
 20
9585.617069
 30
0.0
 11
4565.911741
 21
9534.811033
 31
0.0
  0
LINE
  5
637
100
AcDbEntity
  8
LY_1
  6
CONTINUOUS
 62
   130
100
AcDbLine
 10
4565.911742
 20
9534.811049
 30
0.0
 11
4563.661803
 21
9528.391646
 31
0.0
  0
LINE
  5
638
100
AcDbEntity
  8
LY_1
  6
CONTINUOUS
 62
   130
100
AcDbLine
 10
4563.661815
 20
9528.391694
 30
0.0
 11
4572.235064
 21
9492.860784
 31
0.0
  0
ARC
  5
639
100
AcDbEntity
  8
LY_1
  6
CONTINUOUS
 62
   130
100
AcDbCircle
 10
4895.021809
 20
9763.083617
 30
0.0
 40
26.949527
100
AcDbArc
 50
30.528783
 51
61.358874
  0
ARC
  5
63A
100
AcDbEntity
  8
LY_1
  6
CONTINUOUS
 62
   130
100
AcDbCircle
 10
5121.611471
 20
9834.132911
 30
0.0
 40
211.310023
100
AcDbArc
 50
195.750465
 51
208.578448
  0
ARC
  5
63B
100
AcDbEntity
  8
LY_1
  6
CONTINUOUS
 62
   130
100
AcDbCircle
 10
4902.743935
 20
9170.76663
 30
0.0
 40
615.990892
100
AcDbArc
 50
89.516747
 51
106.702247
  0
LINE
  5
63C
100
AcDbEntity
  8
LY_1
  6
CONTINUOUS
 62
   130
100
AcDbLine
 10
4988.923115
 20
9655.996517
 30
0.0
 11
5001.327854
 21
9621.615292
 31
0.0
  0
LINE
  5
63D
100
AcDbEntity
  8
LY_1
  6
CONTINUOUS
 62
   130
100
AcDbLine
 10
4983.51067
 20
9660.116684
 30
0.0
 11
4988.923145
 21
9655.996481
 31
0.0
  0
LINE
  5
63E
100
AcDbEntity
  8
LY_1
  6
CONTINUOUS
 62
   130
100
AcDbLine
 10
4956.498502
 20
9703.162178
 30
0.0
 11
4983.510657
 21
9660.116688
 31
0.0
  0
LINE
  5
63F
100
AcDbEntity
  8
LY_1
  6
CONTINUOUS
 62
   130
100
AcDbLine
 10
4936.046785
 20
9733.050331
 30
0.0
 11
4956.498524
 21
9703.162191
 31
0.0
  0
LINE
  5
640
100
AcDbEntity
  8
LY_1
  6
CONTINUOUS
 62
   220
100
AcDbLine
 10
2426.360225
 20
11455.340687
 30
0.0
 11
2419.409894
 21
11310.682687
 31
0.0
  0
LINE
  5
641
100
AcDbEntity
  8
LY_1
  6
CONTINUOUS
 62
   130
100
AcDbLine
 10
2622.196773
 20
11944.176537
 30
0.0
 11
2622.196773
 21
10884.157395
 31
0.0
  0
LINE
  5
642
100
AcDbEntity
  8
LY_1
  6
CENTER
 62
   140
100
AcDbLine
 10
2398.201138
 20
10651.673636
 30
0.0
 11
2398.201138
 21
12176.678607
 31
0.0
  0
LINE
  5
643
100
AcDbEntity
  8
LY_1
  6
CONTINUOUS
 62
   130
100
AcDbLine
 10
2174.205507
 20
11944.176537
 30
0.0
 11
2174.205507
 21
10884.157395
 31
0.0
  0
LINE
  5
644
100
AcDbEntity
  8
LY_1
  6
CONTINUOUS
 62
   220
100
AcDbLine
 10
2365.77312
 20
11261.96329
 30
0.0
 11
2419.409894
 21
11310.682687
 31
0.0
  0
LINE
  5
645
100
AcDbEntity
  8
LY_1
  6
CONTINUOUS
 62
   220
100
AcDbLine
 10
2675.055761
 20
10911.049666
 30
0.0
 11
2365.298489
 21
11252.071556
 31
0.0
  0
ARC
  5
646
100
AcDbEntity
  8
LY_1
  6
CONTINUOUS
 62
   130
100
AcDbCircle
 10
2398.2113
 20
11287.664344
 30
0.0
 40
615.990892
100
AcDbArc
 50
252.817544
 51
270.003044
  0
ARC
  5
647
100
AcDbEntity
  8
LY_1
  6
CONTINUOUS
 62
   130
100
AcDbCircle
 10
2235.407135
 20
10718.10851
 30
0.0
 40
26.949527
100
AcDbArc
 50
193.82958
 51
224.659671
  0
ARC
  5
648
100
AcDbEntity
  8
LY_1
  6
CONTINUOUS
 62
   130
100
AcDbCircle
 10
1997.957739
 20
10715.165517
 30
0.0
 40
211.310023
100
AcDbArc
 50
359.051262
 51
11.879245
  0
LINE
  5
649
100
AcDbEntity
  8
LY_1
  6
CONTINUOUS
 62
   130
100
AcDbLine
 10
2176.237154
 20
10847.661648
 30
0.0
 11
2174.234915
 21
10884.157363
 31
0.0
  0
LINE
  5
64A
100
AcDbEntity
  8
LY_1
  6
CONTINUOUS
 62
   130
100
AcDbLine
 10
2180.237419
 20
10842.159992
 30
0.0
 11
2176.237135
 21
10847.661691
 31
0.0
  0
LINE
  5
64B
100
AcDbEntity
  8
LY_1
  6
CONTINUOUS
 62
   130
100
AcDbLine
 10
2193.741387
 20
10793.168007
 30
0.0
 11
2180.23743
 21
10842.159984
 31
0.0
  0
LINE
  5
64C
100
AcDbEntity
  8
LY_1
  6
CONTINUOUS
 62
   130
100
AcDbLine
 10
2204.742307
 20
10758.663599
 30
0.0
 11
2193.741362
 21
10793.168001
 31
0.0
  0
LINE
  5
64D
100
AcDbEntity
  8
LY_1
  6
CONTINUOUS
 62
   220
100
AcDbLine
 10
2365.77312
 20
11261.96329
 30
0.0
 11
2365.298489
 21
11252.071556
 31
0.0
  0
ARC
  5
64E
100
AcDbEntity
  8
LY_1
  6
CONTINUOUS
 62
   130
100
AcDbCircle
 10
2398.205594
 20
11287.664344
 30
0.0
 40
615.990892
100
AcDbArc
 50
270.003576
 51
287.189078
  0
ARC
  5
64F
100
AcDbEntity
  8
LY_1
  6
CONTINUOUS
 62
   130
100
AcDbCircle
 10
2798.525287
 20
10715.211782
 30
0.0
 40
211.310023
100
AcDbArc
 50
168.127373
 51
180.955357
  0
ARC
  5
650
100
AcDbEntity
  8
LY_1
  6
CONTINUOUS
 62
   130
100
AcDbCircle
 10
2561.07557
 20
10718.127309
 30
0.0
 40
26.949527
100
AcDbArc
 50
315.346948
 51
346.177038
  0
LINE
  5
651
100
AcDbEntity
  8
LY_1
  6
CONTINUOUS
 62
   130
100
AcDbLine
 10
2591.735727
 20
10758.685978
 30
0.0
 11
2602.732675
 21
10793.191622
 31
0.0
  0
LINE
  5
652
100
AcDbEntity
  8
LY_1
  6
CONTINUOUS
 62
   130
100
AcDbLine
 10
2602.73266
 20
10793.191619
 30
0.0
 11
2616.230963
 21
10842.185186
 31
0.0
  0
LINE
  5
653
100
AcDbEntity
  8
LY_1
  6
CONTINUOUS
 62
   130
100
AcDbLine
 10
2616.230958
 20
10842.18517
 30
0.0
 11
2620.230606
 21
10847.687331
 31
0.0
  0
LINE
  5
654
100
AcDbEntity
  8
LY_1
  6
CONTINUOUS
 62
   130
100
AcDbLine
 10
2620.230581
 20
10847.687289
 30
0.0
 11
2622.228603
 21
10884.183235
 31
0.0
  0
LINE
  5
655
100
AcDbEntity
  8
LY_1
  6
CONTINUOUS
 62
   220
100
AcDbLine
 10
2760.243812
 20
10941.129317
 30
0.0
 11
2741.412037
 21
10961.861833
 31
0.0
  0
LINE
  5
656
100
AcDbEntity
  8
LY_1
  6
CONTINUOUS
 62
   220
100
AcDbLine
 10
2684.947439
 20
10910.573865
 30
0.0
 11
2675.055761
 21
10911.049666
 31
0.0
  0
LINE
  5
657
100
AcDbEntity
  8
LY_1
  6
CONTINUOUS
 62
   220
100
AcDbLine
 10
2684.947439
 20
10910.573865
 30
0.0
 11
2741.412037
 21
10961.861833
 31
0.0
  0
ARC
  5
658
100
AcDbEntity
  8
LY_1
  6
CONTINUOUS
 62
   130
100
AcDbCircle
 10
2398.204007
 20
11540.682527
 30
0.0
 40
615.990892
100
AcDbArc
 50
90.000268
 51
107.185762
  0
LINE
  5
659
100
AcDbEntity
  8
LY_1
  6
CENTER
 62
   140
100
AcDbLine
 10
2154.205508
 20
11414.166387
 30
0.0
 11
2642.190907
 21
11414.180484
 31
0.0
  0
ARC
  5
65A
100
AcDbEntity
  8
LY_1
  6
CONTINUOUS
 62
   130
100
AcDbCircle
 10
1997.917395
 20
12113.158222
 30
0.0
 40
211.310023
100
AcDbArc
 50
348.124066
 51
0.952049
  0
ARC
  5
65B
100
AcDbEntity
  8
LY_1
  6
CONTINUOUS
 62
   130
100
AcDbCircle
 10
2235.366913
 20
12110.228962
 30
0.0
 40
26.949527
100
AcDbArc
 50
135.34364
 51
166.173728
  0
LINE
  5
65C
100
AcDbEntity
  8
LY_1
  6
CONTINUOUS
 62
   130
100
AcDbLine
 10
2176.204399
 20
11980.672393
 30
0.0
 11
2174.204268
 21
11944.176563
 31
0.0
  0
LINE
  5
65D
100
AcDbEntity
  8
LY_1
  6
CONTINUOUS
 62
   130
100
AcDbLine
 10
2180.204378
 20
11986.174283
 30
0.0
 11
2176.204412
 21
11980.672353
 31
0.0
  0
LINE
  5
65E
100
AcDbEntity
  8
LY_1
  6
CONTINUOUS
 62
   130
100
AcDbLine
 10
2193.705503
 20
12035.167044
 30
0.0
 11
2180.204377
 21
11986.174286
 31
0.0
  0
LINE
  5
65F
100
AcDbEntity
  8
LY_1
  6
CONTINUOUS
 62
   130
100
AcDbLine
 10
2204.704405
 20
12069.672094
 30
0.0
 11
2193.705454
 21
12035.167057
 31
0.0
  0
ARC
  5
660
100
AcDbEntity
  8
LY_1
  6
CONTINUOUS
 62
   130
100
AcDbCircle
 10
2561.035355
 20
12110.228962
 30
0.0
 40
26.949527
100
AcDbArc
 50
13.826272
 51
44.65636
  0
ARC
  5
661
100
AcDbEntity
  8
LY_1
  6
CONTINUOUS
 62
   130
100
AcDbCircle
 10
2798.484897
 20
12113.158222
 30
0.0
 40
211.310023
100
AcDbArc
 50
179.047951
 51
191.875934
  0
ARC
  5
662
100
AcDbEntity
  8
LY_1
  6
CONTINUOUS
 62
   130
100
AcDbCircle
 10
2398.198269
 20
11540.682527
 30
0.0
 40
615.990892
100
AcDbArc
 50
72.814238
 51
89.999732
  0
LINE
  5
663
100
AcDbEntity
  8
LY_1
  6
CONTINUOUS
 62
   130
100
AcDbLine
 10
2620.197852
 20
11980.672403
 30
0.0
 11
2622.197982
 21
11944.176573
 31
0.0
  0
LINE
  5
664
100
AcDbEntity
  8
LY_1
  6
CONTINUOUS
 62
   130
100
AcDbLine
 10
2616.197905
 20
11986.174294
 30
0.0
 11
2620.197871
 21
11980.672364
 31
0.0
  0
LINE
  5
665
100
AcDbEntity
  8
LY_1
  6
CONTINUOUS
 62
   130
100
AcDbLine
 10
2602.696795
 20
12035.167036
 30
0.0
 11
2616.197912
 21
11986.174308
 31
0.0
  0
LINE
  5
666
100
AcDbEntity
  8
LY_1
  6
CONTINUOUS
 62
   130
100
AcDbLine
 10
2591.697847
 20
12069.672089
 30
0.0
 11
2602.696789
 21
12035.167081
 31
0.0
  0
LINE
  5
667
100
AcDbEntity
  8
LY_1
  6
CONTINUOUS
 62
   220
100
AcDbLine
 10
2970.402749
 20
12007.467155
 30
0.0
 11
2954.27315
 21
12030.36495
 31
0.0
  0
LINE
  5
668
100
AcDbEntity
  8
LY_1
  6
CONTINUOUS
 62
   220
100
AcDbLine
 10
2891.911458
 20
11986.436304
 30
0.0
 11
2954.27315
 21
12030.36495
 31
0.0
  0
LINE
  5
669
100
AcDbEntity
  8
LY_1
  6
CONTINUOUS
 62
   220
100
AcDbLine
 10
2891.911458
 20
11986.436304
 30
0.0
 11
2882.154085
 21
11988.129039
 31
0.0
  0
LINE
  5
66A
100
AcDbEntity
  8
LY_1
  6
CONTINUOUS
 62
   130
100
AcDbLine
 10
4726.179597
 20
10884.170335
 30
0.0
 11
4726.179597
 21
11944.189476
 31
0.0
  0
LINE
  5
66B
100
AcDbEntity
  8
LY_1
  6
CENTER
 62
   140
100
AcDbLine
 10
4950.175232
 20
12176.673236
 30
0.0
 11
4950.175232
 21
10651.668265
 31
0.0
  0
LINE
  5
66C
100
AcDbEntity
  8
LY_1
  6
CENTER
 62
   230
100
AcDbLine
 10
3376.602982
 20
10670.516654
 30
0.0
 11
3971.77377
 21
10670.516654
 31
0.0
  0
ARC
  5
66D
100
AcDbEntity
  8
LY_1
  6
CONTINUOUS
 62
   130
100
AcDbCircle
 10
4787.341015
 20
10718.117909
 30
0.0
 40
26.949527
100
AcDbArc
 50
193.826272
 51
224.65636
  0
ARC
  5
66E
100
AcDbEntity
  8
LY_1
  6
CONTINUOUS
 62
   130
100
AcDbCircle
 10
4549.891473
 20
10715.188649
 30
0.0
 40
211.310023
100
AcDbArc
 50
359.047951
 51
11.875934
  0
ARC
  5
66F
100
AcDbEntity
  8
LY_1
  6
CONTINUOUS
 62
   130
100
AcDbCircle
 10
4950.178101
 20
11287.664344
 30
0.0
 40
615.990892
100
AcDbArc
 50
252.814238
 51
269.999732
  0
LINE
  5
670
100
AcDbEntity
  8
LY_1
  6
CONTINUOUS
 62
   130
100
AcDbLine
 10
4728.178519
 20
10847.674468
 30
0.0
 11
4726.178388
 21
10884.170299
 31
0.0
  0
LINE
  5
671
100
AcDbEntity
  8
LY_1
  6
CONTINUOUS
 62
   130
100
AcDbLine
 10
4732.178465
 20
10842.172578
 30
0.0
 11
4728.178499
 21
10847.674508
 31
0.0
  0
LINE
  5
672
100
AcDbEntity
  8
LY_1
  6
CONTINUOUS
 62
   130
100
AcDbLine
 10
4745.679576
 20
10793.179835
 30
0.0
 11
4732.178458
 21
10842.172563
 31
0.0
  0
LINE
  5
673
100
AcDbEntity
  8
LY_1
  6
CONTINUOUS
 62
   130
100
AcDbLine
 10
4756.678523
 20
10758.674783
 30
0.0
 11
4745.679581
 21
10793.179791
 31
0.0
  0
ARC
  5
674
100
AcDbEntity
  8
LY_1
  6
CONTINUOUS
 62
   130
100
AcDbCircle
 10
4882.163035
 20
12847.184724
 30
0.0
 40
615.990892
100
AcDbArc
 50
247.599216
 51
264.784709
  0
ARC
  5
675
100
AcDbEntity
  8
LY_1
  6
CONTINUOUS
 62
   130
100
AcDbCircle
 10
4950.170777
 20
11540.682527
 30
0.0
 40
615.990892
100
AcDbArc
 50
90.003576
 51
107.189078
  0
ARC
  5
676
100
AcDbEntity
  8
LY_1
  6
CONTINUOUS
 62
   130
100
AcDbCircle
 10
4549.851083
 20
12113.13509
 30
0.0
 40
211.310023
100
AcDbArc
 50
348.127373
 51
0.955357
  0
ARC
  5
677
100
AcDbEntity
  8
LY_1
  6
CONTINUOUS
 62
   130
100
AcDbCircle
 10
4787.3008
 20
12110.219563
 30
0.0
 40
26.949527
100
AcDbArc
 50
135.346948
 51
166.177038
  0
LINE
  5
678
100
AcDbEntity
  8
LY_1
  6
CONTINUOUS
 62
   130
100
AcDbLine
 10
4756.640643
 20
12069.660894
 30
0.0
 11
4745.643695
 21
12035.15525
 31
0.0
  0
LINE
  5
679
100
AcDbEntity
  8
LY_1
  6
CONTINUOUS
 62
   130
100
AcDbLine
 10
4745.643711
 20
12035.155253
 30
0.0
 11
4732.145407
 21
11986.161686
 31
0.0
  0
LINE
  5
67A
100
AcDbEntity
  8
LY_1
  6
CONTINUOUS
 62
   130
100
AcDbLine
 10
4732.145412
 20
11986.161701
 30
0.0
 11
4728.145764
 21
11980.65954
 31
0.0
  0
LINE
  5
67B
100
AcDbEntity
  8
LY_1
  6
CONTINUOUS
 62
   130
100
AcDbLine
 10
4728.145789
 20
11980.659583
 30
0.0
 11
4726.147767
 21
11944.163637
 31
0.0
  0
ARC
  5
67C
100
AcDbEntity
  8
LY_1
  6
CONTINUOUS
 62
   130
100
AcDbCircle
 10
5034.080379
 20
12165.364429
 30
0.0
 40
211.310023
100
AcDbArc
 50
145.723013
 51
158.550996
  0
ARC
  5
67D
100
AcDbEntity
  8
LY_1
  6
CONTINUOUS
 62
   130
100
AcDbCircle
 10
4815.665335
 20
12258.561655
 30
0.0
 40
26.949527
100
AcDbArc
 50
292.942587
 51
323.772675
  0
LINE
  5
67E
100
AcDbEntity
  8
LY_1
  6
CONTINUOUS
 62
   130
100
AcDbLine
 10
4859.469731
 20
12284.372968
 30
0.0
 11
4882.788124
 21
12312.082661
 31
0.0
  0
LINE
  5
67F
100
AcDbEntity
  8
LY_1
  6
CONTINUOUS
 62
   130
100
AcDbLine
 10
5314.521943
 20
8570.778219
 30
0.0
 11
5305.950746
 21
8606.309625
 31
0.0
  0
LINE
  5
680
100
AcDbEntity
  8
LY_1
  6
CONTINUOUS
 62
   130
100
AcDbLine
 10
5312.271609
 20
8564.358981
 30
0.0
 11
5314.521919
 21
8570.778254
 31
0.0
  0
LINE
  5
681
100
AcDbEntity
  8
LY_1
  6
CONTINUOUS
 62
   130
100
AcDbLine
 10
5313.417806
 20
8513.552906
 30
0.0
 11
5312.271611
 21
8564.358978
 31
0.0
  0
LINE
  5
682
100
AcDbEntity
  8
LY_1
  6
CONTINUOUS
 62
   130
100
AcDbLine
 10
5174.170863
 20
10884.170335
 30
0.0
 11
5174.170863
 21
11944.189476
 31
0.0
  0
ARC
  5
683
100
AcDbEntity
  8
LY_1
  6
CONTINUOUS
 62
   130
100
AcDbCircle
 10
5350.458976
 20
10715.188649
 30
0.0
 40
211.310023
100
AcDbArc
 50
168.124066
 51
180.952049
  0
ARC
  5
684
100
AcDbEntity
  8
LY_1
  6
CONTINUOUS
 62
   130
100
AcDbCircle
 10
5113.009457
 20
10718.117909
 30
0.0
 40
26.949527
100
AcDbArc
 50
315.34364
 51
346.173728
  0
LINE
  5
685
100
AcDbEntity
  8
LY_1
  6
CONTINUOUS
 62
   130
100
AcDbLine
 10
5172.171971
 20
10847.674478
 30
0.0
 11
5174.172102
 21
10884.170309
 31
0.0
  0
LINE
  5
686
100
AcDbEntity
  8
LY_1
  6
CONTINUOUS
 62
   130
100
AcDbLine
 10
5168.171992
 20
10842.172589
 30
0.0
 11
5172.171959
 21
10847.674519
 31
0.0
  0
LINE
  5
687
100
AcDbEntity
  8
LY_1
  6
CONTINUOUS
 62
   130
100
AcDbLine
 10
5154.670867
 20
10793.179828
 30
0.0
 11
5168.171993
 21
10842.172586
 31
0.0
  0
LINE
  5
688
100
AcDbEntity
  8
LY_1
  6
CONTINUOUS
 62
   130
100
AcDbLine
 10
5143.671965
 20
10758.674777
 30
0.0
 11
5154.670916
 21
10793.179815
 31
0.0
  0
ARC
  5
689
100
AcDbEntity
  8
LY_1
  6
CONTINUOUS
 62
   130
100
AcDbCircle
 10
5112.969235
 20
12110.238362
 30
0.0
 40
26.949527
100
AcDbArc
 50
13.82958
 51
44.659671
  0
ARC
  5
68A
100
AcDbEntity
  8
LY_1
  6
CONTINUOUS
 62
   130
100
AcDbCircle
 10
5350.418631
 20
12113.181355
 30
0.0
 40
211.310023
100
AcDbArc
 50
179.051262
 51
191.879245
  0
LINE
  5
68B
100
AcDbEntity
  8
LY_1
  6
CONTINUOUS
 62
   130
100
AcDbLine
 10
5172.139216
 20
11980.685224
 30
0.0
 11
5174.141456
 21
11944.189509
 31
0.0
  0
LINE
  5
68C
100
AcDbEntity
  8
LY_1
  6
CONTINUOUS
 62
   130
100
AcDbLine
 10
5168.138951
 20
11986.18688
 30
0.0
 11
5172.139235
 21
11980.685181
 31
0.0
  0
LINE
  5
68D
100
AcDbEntity
  8
LY_1
  6
CONTINUOUS
 62
   130
100
AcDbLine
 10
5154.634984
 20
12035.178865
 30
0.0
 11
5168.13894
 21
11986.186888
 31
0.0
  0
LINE
  5
68E
100
AcDbEntity
  8
LY_1
  6
CONTINUOUS
 62
   130
100
AcDbLine
 10
5143.634064
 20
12069.683273
 30
0.0
 11
5154.635008
 21
12035.178871
 31
0.0
  0
LINE
  5
68F
100
AcDbEntity
  8
LY_1
  6
CONTINUOUS
 62
   254
100
AcDbLine
 10
10724.061597
 20
10521.386881
 30
0.0
 11
10724.061597
 21
10848.108968
 31
0.0
  0
LINE
  5
690
100
AcDbEntity
  8
LY_1
  6
CENTER
 62
   230
100
AcDbLine
 10
4294.76293
 20
16063.748796
 30
0.0
 11
17496.192424
 21
20848.869102
 31
0.0
  0
LINE
  5
691
100
AcDbEntity
  8
LY_1
  6
CONTINUOUS
 62
   220
100
AcDbLine
 10
5166.086045
 20
14789.3952
 30
0.0
 11
16195.248168
 21
18787.134055
 31
0.0
  0
LINE
  5
692
100
AcDbEntity
  8
LY_1
  6
CONTINUOUS
 62
   220
100
AcDbLine
 10
4147.16969
 20
17600.432658
 30
0.0
 11
15176.331812
 21
21598.171514
 31
0.0
  0
LINE
  5
693
100
AcDbEntity
  8
LY_1
  6
CONTINUOUS
 62
   220
100
AcDbLine
 10
8700.565949
 20
17932.051754
 30
0.0
 11
8944.102711
 21
17388.988117
 31
0.0
  0
LINE
  5
694
100
AcDbEntity
  8
LY_1
  6
CENTER
 62
   230
100
AcDbLine
 10
3258.249273
 20
15165.307284
 30
0.0
 11
16070.787363
 21
20911.087015
 31
0.0
  0
LINE
  5
695
100
AcDbEntity
  8
LY_1
  6
CONTINUOUS
 62
   220
100
AcDbLine
 10
4221.191152
 20
13958.690528
 30
0.0
 11
14925.453131
 21
18759.014326
 31
0.0
  0
LINE
  5
696
100
AcDbEntity
  8
LY_1
  6
CONTINUOUS
 62
   220
100
AcDbLine
 10
2997.717432
 20
16686.919659
 30
0.0
 11
13701.979411
 21
21487.243457
 31
0.0
  0
LINE
  5
697
100
AcDbEntity
  8
LY_1
  6
CENTER
 62
   230
100
AcDbLine
 10
2414.631601
 20
14142.156085
 30
0.0
 11
14673.894723
 21
20989.461009
 31
0.0
  0
LINE
  5
698
100
AcDbEntity
  8
LY_1
  6
CONTINUOUS
 62
   220
100
AcDbLine
 10
3479.683897
 20
13024.638897
 30
0.0
 11
13721.711137
 21
18745.234242
 31
0.0
  0
LINE
  5
699
100
AcDbEntity
  8
LY_1
  6
CONTINUOUS
 62
   220
100
AcDbLine
 10
2021.657655
 20
15635.056797
 30
0.0
 11
12263.684895
 21
21355.652142
 31
0.0
  0
LINE
  5
69A
100
AcDbEntity
  8
LY_1
  6
CENTER
 62
   230
100
AcDbLine
 10
1794.785286
 20
13008.019321
 30
0.0
 11
13274.490014
 21
21094.520193
 31
0.0
  0
LINE
  5
69B
100
AcDbEntity
  8
LY_1
  6
CONTINUOUS
 62
   220
100
AcDbLine
 10
1248.509157
 20
14451.890316
 30
0.0
 11
10839.252692
 21
21207.77453
 31
0.0
  0
LINE
  5
69C
100
AcDbEntity
  8
LY_1
  6
CONTINUOUS
 62
   220
100
AcDbLine
 10
749.883075
 20
13154.401067
 30
0.0
 11
9433.699392
 21
21042.091937
 31
0.0
  0
LINE
  5
69D
100
AcDbEntity
  8
LY_1
  6
CONTINUOUS
 62
   254
100
AcDbLine
 10
425.835827
 20
21979.275097
 30
0.0
 11
19356.23625
 21
21979.275097
 31
0.0
  0
ARC
  5
69E
100
AcDbEntity
  8
LY_1
  6
CONTINUOUS
 62
    52
100
AcDbCircle
 10
10724.061597
 20
10670.516654
 30
0.0
 40
11308.758443
100
AcDbArc
 50
90.0
 51
142.583562
  0
LINE
  5
69F
100
AcDbEntity
  8
LY_1
  6
CONTINUOUS
 62
   254
100
AcDbLine
 10
7334.073911
 20
15071.037013
 30
0.0
 11
19356.23625
 21
15071.037013
 31
0.0
  0
ARC
  5
6A0
100
AcDbEntity
  8
LY_1
  6
CONTINUOUS
 62
    52
100
AcDbCircle
 10
10724.061597
 20
10670.516654
 30
0.0
 40
9799.095451
100
AcDbArc
 50
116.291591
 51
154.952288
  0
LINE
  5
6A1
100
AcDbEntity
  8
LY_1
  6
CONTINUOUS
 62
   220
100
AcDbLine
 10
1200.585484
 20
14375.306302
 30
0.0
 11
1465.89561
 21
13998.668501
 31
0.0
  0
LINE
  5
6A2
100
AcDbEntity
  8
LY_1
  6
CONTINUOUS
 62
   220
100
AcDbLine
 10
711.775622
 20
13072.488849
 30
0.0
 11
1021.532893
 21
12731.466959
 31
0.0
  0
LINE
  5
6A3
100
AcDbEntity
  8
LY_1
  6
CONTINUOUS
 62
   220
100
AcDbLine
 10
1229.719412
 20
12772.761614
 30
0.0
 11
1085.061345
 21
12779.710555
 31
0.0
  0
LINE
  5
6A4
100
AcDbEntity
  8
LY_1
  6
CONTINUOUS
 62
   220
100
AcDbLine
 10
1031.424571
 20
12730.991158
 30
0.0
 11
1085.061345
 21
12779.710555
 31
0.0
  0
LINE
  5
6A5
100
AcDbEntity
  8
LY_1
  6
CONTINUOUS
 62
   220
100
AcDbLine
 10
1031.424571
 20
12730.991158
 30
0.0
 11
1021.532893
 21
12731.466959
 31
0.0
  0
LINE
  5
6A6
100
AcDbEntity
  8
LY_1
  6
CONTINUOUS
 62
   220
100
AcDbLine
 10
749.883075
 20
13154.401067
 30
0.0
 11
768.71485
 21
13133.668551
 31
0.0
  0
LINE
  5
6A7
100
AcDbEntity
  8
LY_1
  6
CONTINUOUS
 62
   220
100
AcDbLine
 10
712.250252
 20
13082.380583
 30
0.0
 11
768.71485
 21
13133.668551
 31
0.0
  0
LINE
  5
6A8
100
AcDbEntity
  8
LY_1
  6
CONTINUOUS
 62
   220
100
AcDbLine
 10
712.250252
 20
13082.380583
 30
0.0
 11
711.775622
 21
13072.488849
 31
0.0
  0
LINE
  5
6A9
100
AcDbEntity
  8
LY_1
  6
CONTINUOUS
 62
   220
100
AcDbLine
 10
1248.509157
 20
14451.890316
 30
0.0
 11
1264.638756
 21
14428.992521
 31
0.0
  0
LINE
  5
6AA
100
AcDbEntity
  8
LY_1
  6
CONTINUOUS
 62
   220
100
AcDbLine
 10
1202.277064
 20
14385.063875
 30
0.0
 11
1264.638756
 21
14428.992521
 31
0.0
  0
LINE
  5
6AB
100
AcDbEntity
  8
LY_1
  6
CONTINUOUS
 62
   220
100
AcDbLine
 10
1202.277064
 20
14385.063875
 30
0.0
 11
1200.585484
 21
14375.306302
 31
0.0
  0
LINE
  5
6AC
100
AcDbEntity
  8
LY_1
  6
CONTINUOUS
 62
   130
100
AcDbLine
 10
5115.699644
 20
16217.819227
 30
0.0
 11
5074.89897
 21
16187.522712
 31
0.0
  0
LINE
  5
6AD
100
AcDbEntity
  8
LY_1
  6
CONTINUOUS
 62
   220
100
AcDbLine
 10
4446.06559
 20
17065.126369
 30
0.0
 11
5052.562162
 21
15391.893258
 31
0.0
  0
LINE
  5
6AE
100
AcDbEntity
  8
LY_1
  6
CONTINUOUS
 62
   220
100
AcDbLine
 10
3335.281602
 20
16175.116949
 30
0.0
 11
3199.936822
 21
16226.65368
 31
0.0
  0
LINE
  5
6AF
100
AcDbEntity
  8
LY_1
  6
CONTINUOUS
 62
   220
100
AcDbLine
 10
3133.82049
 20
16197.003826
 30
0.0
 11
3199.936822
 21
16226.65368
 31
0.0
  0
LINE
  5
6B0
100
AcDbEntity
  8
LY_1
  6
CONTINUOUS
 62
   220
100
AcDbLine
 10
2936.052477
 20
16620.895247
 30
0.0
 11
3124.565849
 21
16200.528496
 31
0.0
  0
ARC
  5
6B1
100
AcDbEntity
  8
LY_1
  6
CONTINUOUS
 62
   130
100
AcDbCircle
 10
4972.434314
 20
15702.251925
 30
0.0
 40
615.990892
100
AcDbArc
 50
52.002793
 51
69.188294
  0
LINE
  5
6B2
100
AcDbEntity
  8
LY_1
  6
CONTINUOUS
 62
   130
100
AcDbLine
 10
2904.779552
 20
16236.19071
 30
0.0
 11
2350.908482
 21
15332.383502
 31
0.0
  0
LINE
  5
6B3
100
AcDbEntity
  8
LY_1
  6
CENTER
 62
   140
100
AcDbLine
 10
2038.447239
 20
15251.200255
 30
0.0
 11
2835.27826
 21
16551.469685
 31
0.0
  0
LINE
  5
6B4
100
AcDbEntity
  8
LY_1
  6
CONTINUOUS
 62
   130
100
AcDbLine
 10
2522.807454
 20
16470.270824
 30
0.0
 11
1968.936384
 21
15566.463616
 31
0.0
  0
LINE
  5
6B5
100
AcDbEntity
  8
LY_1
  6
CONTINUOUS
 62
   220
100
AcDbLine
 10
5084.826796
 20
14789.732789
 30
0.0
 11
5156.541488
 21
14815.727203
 31
0.0
  0
ARC
  5
6B6
100
AcDbEntity
  8
LY_1
  6
CONTINUOUS
 62
   130
100
AcDbCircle
 10
4978.583599
 20
13081.110514
 30
0.0
 40
615.990892
100
AcDbArc
 50
67.602524
 51
84.788025
  0
LINE
  5
6B7
100
AcDbEntity
  8
LY_1
  6
CENTER
 62
   140
100
AcDbLine
 10
5155.962873
 20
12871.169089
 30
0.0
 11
4704.795952
 21
13057.121124
 31
0.0
  0
LINE
  5
6B8
100
AcDbEntity
  8
LY_1
  6
CONTINUOUS
 62
   130
100
AcDbLine
 10
4935.491923
 20
12388.775765
 30
0.0
 11
5339.451821
 21
13368.804836
 31
0.0
  0
LINE
  5
6B9
100
AcDbEntity
  8
LY_1
  6
CENTER
 62
   140
100
AcDbLine
 10
5363.999656
 20
16203.411345
 30
0.0
 11
4425.096413
 21
15001.703868
 31
0.0
  0
LINE
  5
6BA
100
AcDbEntity
  8
LY_1
  6
CONTINUOUS
 62
   130
100
AcDbLine
 10
4744.750566
 20
15047.008148
 30
0.0
 11
5397.374937
 21
15882.305706
 31
0.0
  0
LINE
  5
6BB
100
AcDbEntity
  8
LY_1
  6
CENTER
 62
   230
100
AcDbLine
 10
1943.536859
 20
15764.173692
 30
0.0
 11
5404.839893
 21
15764.173692
 31
0.0
  0
LINE
  5
6BC
100
AcDbEntity
  8
LY_1
  6
CENTER
 62
   230
100
AcDbLine
 10
1943.536859
 20
13064.173419
 30
0.0
 11
5404.839893
 21
13064.173419
 31
0.0
  0
LINE
  5
6BD
100
AcDbEntity
  8
LY_1
  6
CONTINUOUS
 62
   220
100
AcDbLine
 10
4130.873691
 20
13956.55846
 30
0.0
 11
3942.360319
 21
14376.925211
 31
0.0
  0
LINE
  5
6BE
100
AcDbEntity
  8
LY_1
  6
CONTINUOUS
 62
   220
100
AcDbLine
 10
2402.806441
 20
15154.830615
 30
0.0
 11
3270.677404
 21
13601.01366
 31
0.0
  0
LINE
  5
6BF
100
AcDbEntity
  8
LY_1
  6
CONTINUOUS
 62
   220
100
AcDbLine
 10
3389.901421
 20
13014.59417
 30
0.0
 11
3165.248093
 21
13416.808514
 31
0.0
  0
LINE
  5
6C0
100
AcDbEntity
  8
LY_1
  6
CONTINUOUS
 62
   220
100
AcDbLine
 10
1677.586624
 20
14013.958689
 30
0.0
 11
2702.52116
 21
12558.947922
 31
0.0
  0
LINE
  5
6C1
100
AcDbEntity
  8
LY_1
  6
CONTINUOUS
 62
   130
100
AcDbLine
 10
2725.377871
 20
13591.618119
 30
0.0
 11
2520.464851
 21
12551.593488
 31
0.0
  0
LINE
  5
6C2
100
AcDbEntity
  8
LY_1
  6
CONTINUOUS
 62
   130
100
AcDbLine
 10
2285.836798
 20
13678.219615
 30
0.0
 11
2080.923778
 21
12638.194984
 31
0.0
  0
LINE
  5
6C3
100
AcDbEntity
  8
LY_1
  6
CENTER
 62
   140
100
AcDbLine
 10
2255.752719
 20
12366.795679
 30
0.0
 11
2550.552466
 21
13863.035389
 31
0.0
  0
LINE
  5
6C4
100
AcDbEntity
  8
LY_1
  6
CENTER
 62
   140
100
AcDbLine
 10
2163.757424
 20
13162.072945
 30
0.0
 11
2642.540971
 21
13067.753987
 31
0.0
  0
ARC
  5
6C5
100
AcDbEntity
  8
LY_1
  6
CONTINUOUS
 62
   130
100
AcDbCircle
 10
2378.700886
 20
12990.789212
 30
0.0
 40
615.990892
100
AcDbArc
 50
258.857521
 51
276.043023
  0
ARC
  5
6C6
100
AcDbEntity
  8
LY_1
  6
CONTINUOUS
 62
   130
100
AcDbCircle
 10
2108.871973
 20
12463.447251
 30
0.0
 40
26.949527
100
AcDbArc
 50
182.683525
 51
213.513616
  0
ARC
  5
6C7
100
AcDbEntity
  8
LY_1
  6
CONTINUOUS
 62
   130
100
AcDbCircle
 10
1875.332531
 20
12506.461274
 30
0.0
 40
211.310023
100
AcDbArc
 50
347.905207
 51
0.73319
  0
ARC
  5
6C8
100
AcDbEntity
  8
LY_1
  6
CONTINUOUS
 62
   130
100
AcDbCircle
 10
2378.706485
 20
12990.788109
 30
0.0
 40
615.990892
100
AcDbArc
 50
241.671489
 51
258.856989
  0
LINE
  5
6C9
100
AcDbEntity
  8
LY_1
  6
CONTINUOUS
 62
   130
100
AcDbLine
 10
2075.862085
 20
12601.994894
 30
0.0
 11
2080.952624
 21
12638.189267
 31
0.0
  0
LINE
  5
6CA
100
AcDbEntity
  8
LY_1
  6
CONTINUOUS
 62
   130
100
AcDbLine
 10
2078.723367
 20
12595.823719
 30
0.0
 11
2075.862074
 21
12601.99494
 31
0.0
  0
LINE
  5
6CB
100
AcDbEntity
  8
LY_1
  6
CONTINUOUS
 62
   130
100
AcDbLine
 10
2082.501943
 20
12545.14538
 30
0.0
 11
2078.723376
 21
12595.823709
 31
0.0
  0
LINE
  5
6CC
100
AcDbEntity
  8
LY_1
  6
CONTINUOUS
 62
   130
100
AcDbLine
 10
2086.625288
 20
12509.165212
 30
0.0
 11
2082.501918
 21
12545.145378
 31
0.0
  0
LINE
  5
6CD
100
AcDbEntity
  8
LY_1
  6
CONTINUOUS
 62
   220
100
AcDbLine
 10
2702.52116
 20
12558.947922
 30
0.0
 11
2677.774072
 21
12416.253053
 31
0.0
  0
ARC
  5
6CE
100
AcDbEntity
  8
LY_1
  6
CONTINUOUS
 62
   130
100
AcDbCircle
 10
2660.808394
 20
12351.74841
 30
0.0
 40
211.310023
100
AcDbArc
 50
156.981318
 51
169.809301
  0
ARC
  5
6CF
100
AcDbEntity
  8
LY_1
  6
CONTINUOUS
 62
   130
100
AcDbCircle
 10
2428.401152
 20
12400.510509
 30
0.0
 40
26.949527
100
AcDbArc
 50
304.200892
 51
335.030983
  0
LINE
  5
6D0
100
AcDbEntity
  8
LY_1
  6
CONTINUOUS
 62
   130
100
AcDbLine
 10
2466.323409
 20
12434.377208
 30
0.0
 11
2483.783237
 21
12466.106165
 31
0.0
  0
LINE
  5
6D1
100
AcDbEntity
  8
LY_1
  6
CONTINUOUS
 62
   130
100
AcDbLine
 10
2483.783221
 20
12466.106166
 30
0.0
 11
2506.497894
 21
12511.56623
 31
0.0
  0
LINE
  5
6D2
100
AcDbEntity
  8
LY_1
  6
CONTINUOUS
 62
   130
100
AcDbLine
 10
2506.497886
 20
12511.566215
 30
0.0
 11
2511.485718
 21
12516.191418
 31
0.0
  0
LINE
  5
6D3
100
AcDbEntity
  8
LY_1
  6
CONTINUOUS
 62
   130
100
AcDbLine
 10
2511.485685
 20
12516.191381
 30
0.0
 11
2520.501075
 21
12551.612686
 31
0.0
  0
LINE
  5
6D4
100
AcDbEntity
  8
LY_1
  6
CONTINUOUS
 62
   220
100
AcDbLine
 10
2618.535539
 20
12374.524414
 30
0.0
 11
2616.843959
 21
12364.766841
 31
0.0
  0
LINE
  5
6D5
100
AcDbEntity
  8
LY_1
  6
CONTINUOUS
 62
   220
100
AcDbLine
 10
2618.535539
 20
12374.524414
 30
0.0
 11
2677.774072
 21
12416.253053
 31
0.0
  0
LINE
  5
6D6
100
AcDbEntity
  8
LY_1
  6
CENTER
 62
   140
100
AcDbLine
 10
2660.677481
 20
13198.104205
 30
0.0
 11
2660.677481
 21
12893.020292
 31
0.0
  0
ARC
  5
6D7
100
AcDbEntity
  8
LY_1
  6
CONTINUOUS
 62
   130
100
AcDbCircle
 10
2427.610446
 20
13239.035171
 30
0.0
 40
615.990892
100
AcDbArc
 50
78.854213
 51
96.039707
  0
ARC
  5
6D8
100
AcDbEntity
  8
LY_1
  6
CONTINUOUS
 62
   130
100
AcDbCircle
 10
2145.539867
 20
13878.092275
 30
0.0
 40
211.310023
100
AcDbArc
 50
336.978011
 51
349.805994
  0
LINE
  5
6D9
100
AcDbEntity
  8
LY_1
  6
CONTINUOUS
 62
   130
100
AcDbLine
 10
2294.853024
 20
13713.640665
 30
0.0
 11
2285.835587
 21
13678.21988
 31
0.0
  0
LINE
  5
6DA
100
AcDbEntity
  8
LY_1
  6
CONTINUOUS
 62
   130
100
AcDbLine
 10
2299.841128
 20
13718.265537
 30
0.0
 11
2294.853029
 21
13713.640623
 31
0.0
  0
LINE
  5
6DB
100
AcDbEntity
  8
LY_1
  6
CONTINUOUS
 62
   130
100
AcDbLine
 10
2322.558414
 20
13763.724265
 30
0.0
 11
2299.841128
 21
13718.26554
 31
0.0
  0
LINE
  5
6DC
100
AcDbEntity
  8
LY_1
  6
CONTINUOUS
 62
   130
100
AcDbLine
 10
2340.020044
 20
13795.452262
 30
0.0
 11
2322.558368
 21
13763.724287
 31
0.0
  0
LINE
  5
6DD
100
AcDbEntity
  8
LY_1
  6
CONTINUOUS
 62
   220
100
AcDbLine
 10
1677.586624
 20
14013.958689
 30
0.0
 11
1534.891517
 21
14038.704405
 31
0.0
  0
LINE
  5
6DE
100
AcDbEntity
  8
LY_1
  6
CONTINUOUS
 62
   220
100
AcDbLine
 10
1475.652983
 20
13996.975766
 30
0.0
 11
1534.891517
 21
14038.704405
 31
0.0
  0
LINE
  5
6DF
100
AcDbEntity
  8
LY_1
  6
CONTINUOUS
 62
   220
100
AcDbLine
 10
1475.652983
 20
13996.975766
 30
0.0
 11
1465.89561
 21
13998.668501
 31
0.0
  0
ARC
  5
6E0
100
AcDbEntity
  8
LY_1
  6
CONTINUOUS
 62
   130
100
AcDbCircle
 10
2377.94426
 20
13829.31674
 30
0.0
 40
26.949527
100
AcDbArc
 50
124.197585
 51
155.027672
  0
ARC
  5
6E1
100
AcDbEntity
  8
LY_1
  6
CONTINUOUS
 62
   130
100
AcDbCircle
 10
2427.604817
 20
13239.03628
 30
0.0
 40
615.990892
100
AcDbArc
 50
61.668183
 51
78.853677
  0
ARC
  5
6E2
100
AcDbEntity
  8
LY_1
  6
CONTINUOUS
 62
   130
100
AcDbCircle
 10
2697.469812
 20
13766.361552
 30
0.0
 40
26.949527
100
AcDbArc
 50
2.680217
 51
33.510305
  0
ARC
  5
6E3
100
AcDbEntity
  8
LY_1
  6
CONTINUOUS
 62
   130
100
AcDbCircle
 10
2931.006742
 20
13723.334027
 30
0.0
 40
211.310023
100
AcDbArc
 50
167.901896
 51
180.729879
  0
LINE
  5
6E4
100
AcDbEntity
  8
LY_1
  6
CONTINUOUS
 62
   130
100
AcDbLine
 10
2730.471695
 20
13627.811999
 30
0.0
 11
2725.379065
 21
13591.617921
 31
0.0
  0
LINE
  5
6E5
100
AcDbEntity
  8
LY_1
  6
CONTINUOUS
 62
   130
100
AcDbLine
 10
2727.610771
 20
13633.983343
 30
0.0
 11
2730.471707
 21
13627.811957
 31
0.0
  0
LINE
  5
6E6
100
AcDbEntity
  8
LY_1
  6
CONTINUOUS
 62
   130
100
AcDbLine
 10
2723.835144
 20
13684.661873
 30
0.0
 11
2727.610781
 21
13633.983356
 31
0.0
  0
LINE
  5
6E7
100
AcDbEntity
  8
LY_1
  6
CONTINUOUS
 62
   130
100
AcDbLine
 10
2719.713859
 20
13720.642292
 30
0.0
 11
2723.835147
 21
13684.661918
 31
0.0
  0
LINE
  5
6E8
100
AcDbEntity
  8
LY_1
  6
CONTINUOUS
 62
   220
100
AcDbLine
 10
3167.94642
 20
13426.336931
 30
0.0
 11
3231.207696
 21
13461.670967
 31
0.0
  0
LINE
  5
6E9
100
AcDbEntity
  8
LY_1
  6
CONTINUOUS
 62
   220
100
AcDbLine
 10
3167.94642
 20
13426.336931
 30
0.0
 11
3165.248093
 21
13416.808514
 31
0.0
  0
LINE
  5
6EA
100
AcDbEntity
  8
LY_1
  6
CONTINUOUS
 62
   220
100
AcDbLine
 10
3270.677404
 20
13601.01366
 30
0.0
 11
3231.207696
 21
13461.670967
 31
0.0
  0
LINE
  5
6EB
100
AcDbEntity
  8
LY_1
  6
CONTINUOUS
 62
   130
100
AcDbLine
 10
4521.306512
 20
12559.499575
 30
0.0
 11
4925.26641
 21
13539.528646
 31
0.0
  0
LINE
  5
6EC
100
AcDbEntity
  8
LY_1
  6
CONTINUOUS
 62
   220
100
AcDbLine
 10
3479.683897
 20
13024.638897
 30
0.0
 11
3466.026039
 21
13049.091624
 31
0.0
  0
LINE
  5
6ED
100
AcDbEntity
  8
LY_1
  6
CONTINUOUS
 62
   220
100
AcDbLine
 10
3399.429518
 20
13011.894716
 30
0.0
 11
3466.026039
 21
13049.091624
 31
0.0
  0
LINE
  5
6EE
100
AcDbEntity
  8
LY_1
  6
CONTINUOUS
 62
   220
100
AcDbLine
 10
3399.429518
 20
13011.894716
 30
0.0
 11
3389.901421
 21
13014.59417
 31
0.0
  0
ARC
  5
6EF
100
AcDbEntity
  8
LY_1
  6
CONTINUOUS
 62
   130
100
AcDbCircle
 10
4293.924475
 20
12470.450587
 30
0.0
 40
211.310023
100
AcDbArc
 50
336.646898
 51
349.474882
  0
LINE
  5
6F0
100
AcDbEntity
  8
LY_1
  6
CONTINUOUS
 62
   130
100
AcDbLine
 10
4509.246479
 20
12524.995958
 30
0.0
 11
4521.30538
 21
12559.500002
 31
0.0
  0
LINE
  5
6F1
100
AcDbEntity
  8
LY_1
  6
CONTINUOUS
 62
   130
100
AcDbLine
 10
4510.847885
 20
12518.384916
 30
0.0
 11
4509.246476
 21
12524.996002
 31
0.0
  0
LINE
  5
6F2
100
AcDbEntity
  8
LY_1
  6
CONTINUOUS
 62
   130
100
AcDbLine
 10
4504.659673
 20
12467.944111
 30
0.0
 11
4510.847873
 21
12518.384906
 31
0.0
  0
LINE
  5
6F3
100
AcDbEntity
  8
LY_1
  6
CONTINUOUS
 62
   130
100
AcDbLine
 10
4501.67919
 20
12431.851283
 30
0.0
 11
4504.659662
 21
12467.944068
 31
0.0
  0
ARC
  5
6F4
100
AcDbEntity
  8
LY_1
  6
CONTINUOUS
 62
   130
100
AcDbCircle
 10
4514.572149
 20
12382.669783
 30
0.0
 40
26.949527
100
AcDbArc
 50
171.42522
 51
202.255307
  0
LINE
  5
6F5
100
AcDbEntity
  8
LY_1
  6
CONTINUOUS
 62
   130
100
AcDbLine
 10
4913.940922
 20
12352.233304
 30
0.0
 11
4919.735763
 21
12355.795716
 31
0.0
  0
LINE
  5
6F6
100
AcDbEntity
  8
LY_1
  6
CONTINUOUS
 62
   130
100
AcDbLine
 10
4919.73576
 20
12355.795674
 30
0.0
 11
4935.493058
 21
12388.775269
 31
0.0
  0
LINE
  5
6F7
100
AcDbEntity
  8
LY_1
  6
CENTER
 62
   140
100
AcDbLine
 10
4687.699271
 20
13198.104205
 30
0.0
 11
4687.699271
 21
12893.020292
 31
0.0
  0
LINE
  5
6F8
100
AcDbEntity
  8
LY_1
  6
CONTINUOUS
 62
   220
100
AcDbLine
 10
4140.128331
 20
13953.03379
 30
0.0
 11
4209.730431
 21
13984.246836
 31
0.0
  0
LINE
  5
6F9
100
AcDbEntity
  8
LY_1
  6
CONTINUOUS
 62
   220
100
AcDbLine
 10
4140.128331
 20
13953.03379
 30
0.0
 11
4130.873691
 21
13956.55846
 31
0.0
  0
ARC
  5
6FA
100
AcDbEntity
  8
LY_1
  6
CONTINUOUS
 62
   130
100
AcDbCircle
 10
4826.626855
 20
13762.922029
 30
0.0
 40
211.310023
100
AcDbArc
 50
325.726321
 51
338.554304
  0
ARC
  5
6FB
100
AcDbEntity
  8
LY_1
  6
CONTINUOUS
 62
   130
100
AcDbCircle
 10
5045.047316
 20
13669.737424
 30
0.0
 40
26.949527
100
AcDbArc
 50
112.945895
 51
143.775986
  0
LINE
  5
6FC
100
AcDbEntity
  8
LY_1
  6
CONTINUOUS
 62
   130
100
AcDbLine
 10
5001.244407
 20
13643.923549
 30
0.0
 11
4977.927635
 21
13616.212533
 31
0.0
  0
LINE
  5
6FD
100
AcDbEntity
  8
LY_1
  6
CONTINUOUS
 62
   130
100
AcDbLine
 10
4977.92765
 20
13616.212529
 30
0.0
 11
4946.777113
 21
13576.060098
 31
0.0
  0
LINE
  5
6FE
100
AcDbEntity
  8
LY_1
  6
CONTINUOUS
 62
   130
100
AcDbLine
 10
4946.777123
 20
13576.06011
 30
0.0
 11
4940.982488
 21
13572.497363
 31
0.0
  0
LINE
  5
6FF
100
AcDbEntity
  8
LY_1
  6
CONTINUOUS
 62
   130
100
AcDbLine
 10
4940.982528
 20
13572.497392
 30
0.0
 11
4925.227135
 21
13539.516887
 31
0.0
  0
LINE
  5
700
100
AcDbEntity
  8
LY_1
  6
CONTINUOUS
 62
   220
100
AcDbLine
 10
4221.191152
 20
13958.690528
 30
0.0
 11
4209.730431
 21
13984.246836
 31
0.0
  0
LINE
  5
701
100
AcDbEntity
  8
LY_1
  6
CONTINUOUS
 62
   220
100
AcDbLine
 10
1966.020667
 20
15563.878745
 30
0.0
 11
2190.673995
 21
15161.664401
 31
0.0
  0
ARC
  5
702
100
AcDbEntity
  8
LY_1
  6
CONTINUOUS
 62
   130
100
AcDbCircle
 10
2370.762824
 20
15793.464537
 30
0.0
 40
615.990906
100
AcDbArc
 50
238.502779
 51
255.68828
  0
LINE
  5
703
100
AcDbEntity
  8
LY_1
  6
CONTINUOUS
 62
   130
100
AcDbLine
 10
2259.376266
 20
15241.318656
 30
0.0
 11
2286.782185
 21
15264.993284
 31
0.0
  0
LINE
  5
704
100
AcDbEntity
  8
LY_1
  6
CONTINUOUS
 62
   220
100
AcDbLine
 10
2402.806441
 20
15154.830615
 30
0.0
 11
2263.463368
 21
15194.298983
 31
0.0
  0
LINE
  5
705
100
AcDbEntity
  8
LY_1
  6
CONTINUOUS
 62
   220
100
AcDbLine
 10
2200.202092
 20
15158.964947
 30
0.0
 11
2263.463368
 21
15194.298983
 31
0.0
  0
LINE
  5
706
100
AcDbEntity
  8
LY_1
  6
CONTINUOUS
 62
   220
100
AcDbLine
 10
2200.202092
 20
15158.964947
 30
0.0
 11
2190.673995
 21
15161.664401
 31
0.0
  0
ARC
  5
707
100
AcDbEntity
  8
LY_1
  6
CONTINUOUS
 62
   130
100
AcDbCircle
 10
2412.976129
 20
15096.201422
 30
0.0
 40
211.310028
100
AcDbArc
 50
136.626576
 51
149.454559
  0
ARC
  5
708
100
AcDbEntity
  8
LY_1
  6
CONTINUOUS
 62
   130
100
AcDbCircle
 10
2212.042078
 20
15222.757253
 30
0.0
 40
26.949528
100
AcDbArc
 50
283.84615
 51
314.676241
  0
LINE
  5
709
100
AcDbEntity
  8
LY_1
  6
CENTER
 62
   140
100
AcDbLine
 10
2228.818959
 20
16028.816935
 30
0.0
 11
2644.898737
 21
15773.851488
 31
0.0
  0
ARC
  5
70A
100
AcDbEntity
  8
LY_1
  6
CONTINUOUS
 62
   130
100
AcDbCircle
 10
1730.361715
 20
15514.466878
 30
0.0
 40
211.310028
100
AcDbArc
 50
327.550465
 51
340.378448
  0
ARC
  5
70B
100
AcDbEntity
  8
LY_1
  6
CONTINUOUS
 62
   130
100
AcDbCircle
 10
2370.76769
 20
15793.461555
 30
0.0
 40
615.990906
100
AcDbArc
 50
221.316747
 51
238.502247
  0
ARC
  5
70C
100
AcDbEntity
  8
LY_1
  6
CONTINUOUS
 62
   130
100
AcDbCircle
 10
1934.35663
 20
15392.906382
 30
0.0
 40
26.949528
100
AcDbArc
 50
162.328783
 51
193.158874
  0
LINE
  5
70D
100
AcDbEntity
  8
LY_1
  6
CONTINUOUS
 62
   130
100
AcDbLine
 10
2330.17603
 20
15302.315245
 30
0.0
 11
2350.949122
 21
15332.388902
 31
0.0
  0
LINE
  5
70E
100
AcDbEntity
  8
LY_1
  6
CONTINUOUS
 62
   220
100
AcDbLine
 10
2021.657655
 20
15635.056797
 30
0.0
 11
2035.315514
 21
15610.604069
 31
0.0
  0
LINE
  5
70F
100
AcDbEntity
  8
LY_1
  6
CONTINUOUS
 62
   220
100
AcDbLine
 10
1968.718993
 20
15573.407161
 30
0.0
 11
2035.315514
 21
15610.604069
 31
0.0
  0
LINE
  5
710
100
AcDbEntity
  8
LY_1
  6
CONTINUOUS
 62
   220
100
AcDbLine
 10
1968.718993
 20
15573.407161
 30
0.0
 11
1966.020667
 21
15563.878745
 31
0.0
  0
LINE
  5
711
100
AcDbEntity
  8
LY_1
  6
CONTINUOUS
 62
   130
100
AcDbLine
 10
2286.78217
 20
15264.99329
 30
0.0
 11
2323.890918
 21
15299.713813
 31
0.0
  0
LINE
  5
712
100
AcDbEntity
  8
LY_1
  6
CONTINUOUS
 62
   130
100
AcDbLine
 10
1951.599224
 20
15534.284584
 30
0.0
 11
1968.961441
 21
15566.448223
 31
0.0
  0
LINE
  5
713
100
AcDbEntity
  8
LY_1
  6
CONTINUOUS
 62
   130
100
AcDbLine
 10
1952.135309
 20
15527.503511
 30
0.0
 11
1951.59923
 21
15534.284631
 31
0.0
  0
LINE
  5
714
100
AcDbEntity
  8
LY_1
  6
CONTINUOUS
 62
   130
100
AcDbLine
 10
1938.050412
 20
15478.675368
 30
0.0
 11
1952.135314
 21
15527.503498
 31
0.0
  0
LINE
  5
715
100
AcDbEntity
  8
LY_1
  6
CONTINUOUS
 62
   130
100
AcDbLine
 10
1929.401245
 20
15443.507678
 30
0.0
 11
1938.050389
 21
15478.675375
 31
0.0
  0
LINE
  5
716
100
AcDbEntity
  8
LY_1
  6
CONTINUOUS
 62
   130
100
AcDbLine
 10
2323.890906
 20
15299.713802
 30
0.0
 11
2330.176074
 21
15302.315268
 31
0.0
  0
LINE
  5
717
100
AcDbEntity
  8
LY_1
  6
CENTER
 62
   140
100
AcDbLine
 10
2660.677481
 20
15898.104478
 30
0.0
 11
2660.677481
 21
15593.020565
 31
0.0
  0
LINE
  5
718
100
AcDbEntity
  8
LY_1
  6
CONTINUOUS
 62
   220
100
AcDbLine
 10
3133.82049
 20
16197.003826
 30
0.0
 11
3124.565849
 21
16200.528496
 31
0.0
  0
LINE
  5
719
100
AcDbEntity
  8
LY_1
  6
CONTINUOUS
 62
   220
100
AcDbLine
 10
4923.058847
 20
15236.026307
 30
0.0
 11
4991.181969
 21
15260.718886
 31
0.0
  0
LINE
  5
71A
100
AcDbEntity
  8
LY_1
  6
CONTINUOUS
 62
   220
100
AcDbLine
 10
3335.281602
 20
16175.116949
 30
0.0
 11
4063.538258
 21
14551.174407
 31
0.0
  0
LINE
  5
71B
100
AcDbEntity
  8
LY_1
  6
CONTINUOUS
 62
   130
100
AcDbLine
 10
4351.078105
 20
15239.117617
 30
0.0
 11
4370.602656
 21
15286.036265
 31
0.0
  0
LINE
  5
71C
100
AcDbEntity
  8
LY_1
  6
CONTINUOUS
 62
   220
100
AcDbLine
 10
4063.538258
 20
14551.174407
 30
0.0
 11
4012.000226
 21
14415.830123
 31
0.0
  0
LINE
  5
71D
100
AcDbEntity
  8
LY_1
  6
CONTINUOUS
 62
   220
100
AcDbLine
 10
3945.883894
 20
14386.180269
 30
0.0
 11
4012.000226
 21
14415.830123
 31
0.0
  0
LINE
  5
71E
100
AcDbEntity
  8
LY_1
  6
CONTINUOUS
 62
   220
100
AcDbLine
 10
3945.883894
 20
14386.180269
 30
0.0
 11
3942.360319
 21
14376.925211
 31
0.0
  0
LINE
  5
71F
100
AcDbEntity
  8
LY_1
  6
CONTINUOUS
 62
   130
100
AcDbLine
 10
4643.453231
 20
14966.894681
 30
0.0
 11
4673.364224
 21
14987.312982
 31
0.0
  0
ARC
  5
720
100
AcDbEntity
  8
LY_1
  6
CONTINUOUS
 62
   130
100
AcDbCircle
 10
4337.693872
 20
15154.318852
 30
0.0
 40
26.949527
100
AcDbArc
 50
155.825489
 51
186.655576
  0
ARC
  5
721
100
AcDbEntity
  8
LY_1
  6
CONTINUOUS
 62
   130
100
AcDbCircle
 10
4148.779614
 20
15298.201682
 30
0.0
 40
211.310023
100
AcDbArc
 50
321.047168
 51
333.875151
  0
ARC
  5
722
100
AcDbEntity
  8
LY_1
  6
CONTINUOUS
 62
   130
100
AcDbCircle
 10
4816.663811
 20
15502.868497
 30
0.0
 40
615.990892
100
AcDbArc
 50
214.813455
 51
231.998948
  0
ARC
  5
723
100
AcDbEntity
  8
LY_1
  6
CONTINUOUS
 62
   130
100
AcDbCircle
 10
4594.321364
 20
14953.813829
 30
0.0
 40
26.949527
100
AcDbArc
 50
277.342857
 51
308.172944
  0
ARC
  5
724
100
AcDbEntity
  8
LY_1
  6
CONTINUOUS
 62
   130
100
AcDbCircle
 10
4816.65929
 20
15502.87203
 30
0.0
 40
615.990892
100
AcDbArc
 50
231.999485
 51
249.184978
  0
LINE
  5
725
100
AcDbEntity
  8
LY_1
  6
CONTINUOUS
 62
   130
100
AcDbLine
 10
4338.501498
 20
15205.155809
 30
0.0
 11
4351.078082
 21
15239.117579
 31
0.0
  0
ARC
  5
726
100
AcDbEntity
  8
LY_1
  6
CONTINUOUS
 62
   130
100
AcDbCircle
 10
4779.628675
 20
14805.314486
 30
0.0
 40
211.310023
100
AcDbArc
 50
130.123282
 51
142.951265
  0
LINE
  5
727
100
AcDbEntity
  8
LY_1
  6
CONTINUOUS
 62
   220
100
AcDbLine
 10
5084.826796
 20
14789.732789
 30
0.0
 11
5075.85733
 21
14793.93045
 31
0.0
  0
LINE
  5
728
100
AcDbEntity
  8
LY_1
  6
CONTINUOUS
 62
   220
100
AcDbLine
 10
4923.058847
 20
15236.026307
 30
0.0
 11
4918.862247
 21
15227.056344
 31
0.0
  0
LINE
  5
729
100
AcDbEntity
  8
LY_1
  6
CONTINUOUS
 62
   130
100
AcDbLine
 10
4720.705948
 20
15019.47999
 30
0.0
 11
4744.751526
 21
15047.007365
 31
0.0
  0
LINE
  5
72A
100
AcDbEntity
  8
LY_1
  6
CONTINUOUS
 62
   130
100
AcDbLine
 10
4714.166594
 20
15017.607164
 30
0.0
 11
4720.705963
 21
15019.48003
 31
0.0
  0
LINE
  5
72B
100
AcDbEntity
  8
LY_1
  6
CONTINUOUS
 62
   130
100
AcDbLine
 10
4673.364193
 20
14987.313022
 30
0.0
 11
4714.166593
 21
15017.607161
 31
0.0
  0
LINE
  5
72C
100
AcDbEntity
  8
LY_1
  6
CONTINUOUS
 62
   220
100
AcDbLine
 10
5075.85733
 20
14793.93045
 30
0.0
 11
4918.862247
 21
15227.056344
 31
0.0
  0
LINE
  5
72D
100
AcDbEntity
  8
LY_1
  6
CONTINUOUS
 62
   130
100
AcDbLine
 10
4391.732402
 20
15322.823939
 30
0.0
 11
5044.356773
 21
16158.121497
 31
0.0
  0
LINE
  5
72E
100
AcDbEntity
  8
LY_1
  6
CENTER
 62
   140
100
AcDbLine
 10
4687.699271
 20
15898.104478
 30
0.0
 11
4687.699271
 21
15593.020565
 31
0.0
  0
LINE
  5
72F
100
AcDbEntity
  8
LY_1
  6
CENTER
 62
   140
100
AcDbLine
 10
5086.823154
 20
15452.343938
 30
0.0
 11
4702.280841
 21
15752.771899
 31
0.0
  0
LINE
  5
730
100
AcDbEntity
  8
LY_1
  6
CONTINUOUS
 62
   130
100
AcDbLine
 10
4370.838065
 20
15292.834431
 30
0.0
 11
4391.731427
 21
15322.824655
 31
0.0
  0
LINE
  5
731
100
AcDbEntity
  8
LY_1
  6
CONTINUOUS
 62
   130
100
AcDbLine
 10
4370.602671
 20
15286.036271
 30
0.0
 11
4370.838073
 21
15292.834473
 31
0.0
  0
LINE
  5
732
100
AcDbEntity
  8
LY_1
  6
CONTINUOUS
 62
   220
100
AcDbLine
 10
5052.562162
 20
15391.893258
 30
0.0
 11
4991.181969
 21
15260.718886
 31
0.0
  0
LINE
  5
733
100
AcDbEntity
  8
LY_1
  6
CONTINUOUS
 62
   130
100
AcDbLine
 10
5068.35977
 20
16185.649496
 30
0.0
 11
5044.315783
 21
16158.120732
 31
0.0
  0
LINE
  5
734
100
AcDbEntity
  8
LY_1
  6
CONTINUOUS
 62
   130
100
AcDbLine
 10
5074.898984
 20
16187.522721
 30
0.0
 11
5068.359724
 21
16185.649478
 31
0.0
  0
ARC
  5
735
100
AcDbEntity
  8
LY_1
  6
CONTINUOUS
 62
   130
100
AcDbCircle
 10
5346.147659
 20
13545.646679
 30
0.0
 40
26.949527
100
AcDbArc
 50
351.428527
 51
22.258618
  0
ARC
  5
736
100
AcDbEntity
  8
LY_1
  6
CONTINUOUS
 62
   130
100
AcDbCircle
 10
5566.800432
 20
13457.878627
 30
0.0
 40
211.310023
100
AcDbArc
 50
156.650209
 51
169.478192
  0
ARC
  5
737
100
AcDbEntity
  8
LY_1
  6
CONTINUOUS
 62
   130
100
AcDbCircle
 10
4978.578323
 20
13081.112689
 30
0.0
 40
615.990892
100
AcDbArc
 50
50.416491
 51
67.601992
  0
LINE
  5
738
100
AcDbEntity
  8
LY_1
  6
CONTINUOUS
 62
   130
100
AcDbLine
 10
5351.481553
 20
13403.320815
 30
0.0
 11
5339.424645
 21
13368.816074
 31
0.0
  0
LINE
  5
739
100
AcDbEntity
  8
LY_1
  6
CONTINUOUS
 62
   130
100
AcDbLine
 10
5349.879763
 20
13409.931761
 30
0.0
 11
5351.481554
 21
13403.320767
 31
0.0
  0
LINE
  5
73A
100
AcDbEntity
  8
LY_1
  6
CONTINUOUS
 62
   130
100
AcDbLine
 10
5356.065044
 20
13460.372954
 30
0.0
 11
5349.879756
 21
13409.931772
 31
0.0
  0
LINE
  5
73B
100
AcDbEntity
  8
LY_1
  6
CONTINUOUS
 62
   130
100
AcDbLine
 10
5359.043458
 20
13496.465938
 30
0.0
 11
5356.065069
 21
13460.372951
 31
0.0
  0
LINE
  5
73C
100
AcDbEntity
  8
LY_1
  6
CONTINUOUS
 62
   220
100
AcDbLine
 10
5166.086045
 20
14789.3952
 30
0.0
 11
5156.541488
 21
14815.727203
 31
0.0
  0
LINE
  5
73D
100
AcDbEntity
  8
LY_1
  6
CONTINUOUS
 62
   220
100
AcDbLine
 10
5783.919779
 20
16109.280017
 30
0.0
 11
6184.089179
 21
15668.720465
 31
0.0
  0
ARC
  5
73E
100
AcDbEntity
  8
LY_1
  6
CONTINUOUS
 62
   130
100
AcDbCircle
 10
5451.379602
 20
16050.832759
 30
0.0
 40
26.949527
100
AcDbArc
 50
335.828797
 51
6.658887
  0
ARC
  5
73F
100
AcDbEntity
  8
LY_1
  6
CONTINUOUS
 62
   130
100
AcDbCircle
 10
5640.3022
 20
15906.96084
 30
0.0
 40
211.310023
100
AcDbArc
 50
141.050478
 51
153.878462
  0
ARC
  5
740
100
AcDbEntity
  8
LY_1
  6
CONTINUOUS
 62
   130
100
AcDbCircle
 10
4972.429817
 20
15702.255439
 30
0.0
 40
615.990892
100
AcDbArc
 50
34.816761
 51
52.002261
  0
LINE
  5
741
100
AcDbEntity
  8
LY_1
  6
CONTINUOUS
 62
   130
100
AcDbLine
 10
5418.243413
 20
15912.315269
 30
0.0
 11
5397.351783
 21
15882.323837
 31
0.0
  0
LINE
  5
742
100
AcDbEntity
  8
LY_1
  6
CONTINUOUS
 62
   130
100
AcDbLine
 10
5418.478412
 20
15919.113439
 30
0.0
 11
5418.243402
 21
15912.315223
 31
0.0
  0
LINE
  5
743
100
AcDbEntity
  8
LY_1
  6
CONTINUOUS
 62
   130
100
AcDbLine
 10
5438.00026
 20
15966.033255
 30
0.0
 11
5418.478408
 21
15919.113451
 31
0.0
  0
LINE
  5
744
100
AcDbEntity
  8
LY_1
  6
CONTINUOUS
 62
   130
100
AcDbLine
 10
5450.574916
 20
15999.99577
 30
0.0
 11
5438.000282
 21
15966.033245
 31
0.0
  0
LINE
  5
745
100
AcDbEntity
  8
LY_1
  6
CONTINUOUS
 62
   220
100
AcDbLine
 10
5136.977703
 20
16880.924347
 30
0.0
 11
5020.669353
 21
17004.697174
 31
0.0
  0
LINE
  5
746
100
AcDbEntity
  8
LY_1
  6
CONTINUOUS
 62
   130
100
AcDbLine
 10
5145.609418
 20
16238.239246
 30
0.0
 11
5115.699631
 21
16217.819234
 31
0.0
  0
LINE
  5
747
100
AcDbEntity
  8
LY_1
  6
CONTINUOUS
 62
   220
100
AcDbLine
 10
2329.187868
 20
17006.272657
 30
0.0
 11
2329.187868
 21
18212.319736
 31
0.0
  0
LINE
  5
748
100
AcDbEntity
  8
LY_1
  6
CONTINUOUS
 62
   220
100
AcDbLine
 10
5019.188884
 20
17006.272657
 30
0.0
 11
5019.188884
 21
18212.319736
 31
0.0
  0
LINE
  5
749
100
AcDbEntity
  8
LY_1
  6
CONTINUOUS
 62
   220
100
AcDbLine
 10
2209.187445
 20
16688.798675
 30
0.0
 11
2209.187445
 21
16878.570806
 31
0.0
  0
LINE
  5
74A
100
AcDbEntity
  8
LY_1
  6
CONTINUOUS
 62
   220
100
AcDbLine
 10
2179.186525
 20
16688.798675
 30
0.0
 11
2209.187445
 21
16688.798675
 31
0.0
  0
LINE
  5
74B
100
AcDbEntity
  8
LY_1
  6
CONTINUOUS
 62
   220
100
AcDbLine
 10
2211.399049
 20
16880.924347
 30
0.0
 11
2327.707399
 21
17004.697174
 31
0.0
  0
ARC
  5
74C
100
AcDbEntity
  8
LY_1
  6
CONTINUOUS
 62
   130
100
AcDbCircle
 10
2502.961222
 20
16009.199994
 30
0.0
 40
615.990906
100
AcDbArc
 50
41.313441
 51
58.498934
  0
ARC
  5
74D
100
AcDbEntity
  8
LY_1
  6
CONTINUOUS
 62
   130
100
AcDbCircle
 10
2460.793102
 20
16706.46255
 30
0.0
 40
211.310028
100
AcDbArc
 50
316.623268
 51
329.451252
  0
ARC
  5
74E
100
AcDbEntity
  8
LY_1
  6
CONTINUOUS
 62
   130
100
AcDbCircle
 10
2661.719808
 20
16579.895114
 30
0.0
 40
26.949528
100
AcDbArc
 50
103.842843
 51
134.67293
  0
LINE
  5
74F
100
AcDbEntity
  8
LY_1
  6
CONTINUOUS
 62
   130
100
AcDbLine
 10
2543.581241
 20
16500.34395
 30
0.0
 11
2522.806411
 21
16470.271493
 31
0.0
  0
LINE
  5
750
100
AcDbEntity
  8
LY_1
  6
CONTINUOUS
 62
   130
100
AcDbLine
 10
2549.86655
 20
16502.945011
 30
0.0
 11
2543.581231
 21
16500.343909
 31
0.0
  0
LINE
  5
751
100
AcDbEntity
  8
LY_1
  6
CONTINUOUS
 62
   130
100
AcDbLine
 10
2586.977282
 20
16537.663373
 30
0.0
 11
2549.866551
 21
16502.945015
 31
0.0
  0
LINE
  5
752
100
AcDbEntity
  8
LY_1
  6
CONTINUOUS
 62
   130
100
AcDbLine
 10
2614.384557
 20
16561.336474
 30
0.0
 11
2586.977247
 21
16537.66341
 31
0.0
  0
ARC
  5
753
100
AcDbEntity
  8
LY_1
  6
CONTINUOUS
 62
   130
100
AcDbCircle
 10
2502.966114
 20
16009.196996
 30
0.0
 40
615.990906
100
AcDbArc
 50
58.499471
 51
75.684964
  0
LINE
  5
754
100
AcDbEntity
  8
LY_1
  6
CONTINUOUS
 62
   220
100
AcDbLine
 10
2997.717432
 20
16686.919659
 30
0.0
 11
3009.178152
 21
16661.363351
 31
0.0
  0
LINE
  5
755
100
AcDbEntity
  8
LY_1
  6
CONTINUOUS
 62
   220
100
AcDbLine
 10
2939.576052
 20
16630.150305
 30
0.0
 11
3009.178152
 21
16661.363351
 31
0.0
  0
LINE
  5
756
100
AcDbEntity
  8
LY_1
  6
CONTINUOUS
 62
   220
100
AcDbLine
 10
2939.576052
 20
16630.150305
 30
0.0
 11
2936.052477
 21
16620.895247
 31
0.0
  0
ARC
  5
757
100
AcDbEntity
  8
LY_1
  6
CONTINUOUS
 62
   130
100
AcDbCircle
 10
2939.39544
 20
16409.729952
 30
0.0
 40
26.949528
100
AcDbArc
 50
342.325475
 51
13.155563
  0
ARC
  5
758
100
AcDbEntity
  8
LY_1
  6
CONTINUOUS
 62
   130
100
AcDbCircle
 10
3143.383303
 20
16288.157671
 30
0.0
 40
211.310028
100
AcDbArc
 50
147.547154
 51
160.375137
  0
LINE
  5
759
100
AcDbEntity
  8
LY_1
  6
CONTINUOUS
 62
   130
100
AcDbLine
 10
2922.144677
 20
16268.352744
 30
0.0
 11
2904.780601
 21
16236.190108
 31
0.0
  0
LINE
  5
75A
100
AcDbEntity
  8
LY_1
  6
CONTINUOUS
 62
   130
100
AcDbLine
 10
2921.608986
 20
16275.133851
 30
0.0
 11
2922.144673
 21
16268.3527
 31
0.0
  0
LINE
  5
75B
100
AcDbEntity
  8
LY_1
  6
CONTINUOUS
 62
   130
100
AcDbLine
 10
2935.696714
 20
16323.961146
 30
0.0
 11
2921.608999
 21
16275.133859
 31
0.0
  0
LINE
  5
75C
100
AcDbEntity
  8
LY_1
  6
CONTINUOUS
 62
   130
100
AcDbLine
 10
2944.3479
 20
16359.128355
 30
0.0
 11
2935.696733
 21
16323.961187
 31
0.0
  0
LINE
  5
75D
100
AcDbEntity
  8
LY_1
  6
CONTINUOUS
 62
   220
100
AcDbLine
 10
4080.802956
 20
17539.136278
 30
0.0
 11
4237.798039
 21
17106.010383
 31
0.0
  0
LINE
  5
75E
100
AcDbEntity
  8
LY_1
  6
CONTINUOUS
 62
   220
100
AcDbLine
 10
4446.06559
 20
17065.126369
 30
0.0
 11
4314.890627
 21
17126.505301
 31
0.0
  0
LINE
  5
75F
100
AcDbEntity
  8
LY_1
  6
CONTINUOUS
 62
   220
100
AcDbLine
 10
4246.767505
 20
17101.812723
 30
0.0
 11
4314.890627
 21
17126.505301
 31
0.0
  0
LINE
  5
760
100
AcDbEntity
  8
LY_1
  6
CONTINUOUS
 62
   220
100
AcDbLine
 10
4246.767505
 20
17101.812723
 30
0.0
 11
4237.798039
 21
17106.010383
 31
0.0
  0
LINE
  5
761
100
AcDbEntity
  8
LY_1
  6
CONTINUOUS
 62
   220
100
AcDbLine
 10
4147.16969
 20
17600.432658
 30
0.0
 11
4156.714247
 21
17574.100655
 31
0.0
  0
LINE
  5
762
100
AcDbEntity
  8
LY_1
  6
CONTINUOUS
 62
   220
100
AcDbLine
 10
4084.999556
 20
17548.106241
 30
0.0
 11
4156.714247
 21
17574.100655
 31
0.0
  0
LINE
  5
763
100
AcDbEntity
  8
LY_1
  6
CONTINUOUS
 62
   220
100
AcDbLine
 10
4084.999556
 20
17548.106241
 30
0.0
 11
4080.802956
 21
17539.136278
 31
0.0
  0
LINE
  5
764
100
AcDbEntity
  8
LY_1
  6
CONTINUOUS
 62
   220
100
AcDbLine
 10
2421.044434
 20
18304.176301
 30
0.0
 11
4927.332318
 21
18304.176301
 31
0.0
  0
ARC
  5
765
100
AcDbEntity
  8
LY_1
  6
CONTINUOUS
 62
   220
100
AcDbCircle
 10
2421.044434
 20
18212.319736
 30
0.0
 40
91.856565
100
AcDbArc
 50
90.0
 51
180.0
  0
ARC
  5
766
100
AcDbEntity
  8
LY_1
  6
CONTINUOUS
 62
   220
100
AcDbCircle
 10
4927.332318
 20
18212.319736
 30
0.0
 40
91.856565
100
AcDbArc
 50
0.0
 51
90.0
  0
LINE
  5
767
100
AcDbEntity
  8
LY_1
  6
CONTINUOUS
 62
   220
100
AcDbLine
 10
5139.189306
 20
16688.798675
 30
0.0
 11
5139.189306
 21
16878.570806
 31
0.0
  0
LINE
  5
768
100
AcDbEntity
  8
LY_1
  6
CONTINUOUS
 62
   220
100
AcDbLine
 10
5169.190227
 20
16688.798675
 30
0.0
 11
5139.189306
 21
16688.798675
 31
0.0
  0
ARC
  5
769
100
AcDbEntity
  8
LY_1
  6
CONTINUOUS
 62
   130
100
AcDbCircle
 10
5009.424619
 20
16399.811608
 30
0.0
 40
211.310023
100
AcDbArc
 50
310.12659
 51
322.954573
  0
ARC
  5
76A
100
AcDbEntity
  8
LY_1
  6
CONTINUOUS
 62
   130
100
AcDbCircle
 10
5194.740541
 20
16251.322964
 30
0.0
 40
26.949527
100
AcDbArc
 50
97.346164
 51
128.176255
  0
LINE
  5
76B
100
AcDbEntity
  8
LY_1
  6
CONTINUOUS
 62
   220
100
AcDbLine
 10
6608.68795
 20
16763.019573
 30
0.0
 11
6951.436947
 21
16276.448517
 31
0.0
  0
LINE
  5
76C
100
AcDbEntity
  8
LY_1
  6
CONTINUOUS
 62
   220
100
AcDbLine
 10
7593.333988
 20
17375.533166
 30
0.0
 11
7883.559257
 21
16855.920271
 31
0.0
  0
MTEXT
  5
76D
100
AcDbEntity
  8
LY_1
  6
CONTINUOUS
 62
     7
100
AcDbMText
 10
-0.000028
 20
24697.364546
 30
0.0
 40
600.0
 41
0.0
 71
     1
 72
     1
  1
最小直角通路幅
  7
MX_NOTE_STANDARD
1001
ACAD
1000
MTEXTBEGIN
1070
    73
1070
     1
1070
    44
1040
0.463333
1070
    74
1070
     0
1000
MTEXTEND
  0
MTEXT
  5
76E
100
AcDbEntity
  8
LY_1
  6
CONTINUOUS
 62
     7
100
AcDbMText
 10
2187.310974
 20
22933.738633
 30
0.0
 40
350.0
 41
0.0
 71
     1
 72
     1
  1
公道走行状態
  7
MX_NOTE_STANDARD
1001
ACAD
1000
MTEXTBEGIN
1070
    73
1070
     1
1070
    44
1040
0.794286
1070
    74
1070
     0
1000
MTEXTEND
  0
LINE
  5
76F
100
AcDbEntity
  8
LY_1
  6
CONTINUOUS
 62
   220
100
AcDbLine
 10
16777.440197
 20
21921.269122
 30
0.0
 11
17631.518643
 21
19564.994739
 31
0.0
  0
LINE
  5
770
100
AcDbEntity
  8
LY_1
  6
CONTINUOUS
 62
   220
100
AcDbLine
 10
15274.896224
 20
21927.553374
 30
0.0
 11
16300.439222
 21
19640.690781
 31
0.0
  0
LINE
  5
771
100
AcDbEntity
  8
LY_1
  6
CONTINUOUS
 62
   220
100
AcDbLine
 10
13791.925762
 20
21932.210878
 30
0.0
 11
15014.075923
 21
19744.100291
 31
0.0
  0
LINE
  5
772
100
AcDbEntity
  8
LY_1
  6
CONTINUOUS
 62
   220
100
AcDbLine
 10
12299.157261
 20
21940.317206
 30
0.0
 11
13742.48693
 21
19891.347116
 31
0.0
  0
ARC
  5
773
100
AcDbEntity
  8
LY_1
  6
CONTINUOUS
 62
   220
100
AcDbCircle
 10
12409.190868
 20
20032.204717
 30
0.0
 40
91.856565
100
AcDbArc
 50
312.249521
 51
42.249521
  0
DIMENSION
  5
774
100
AcDbEntity
  8
LY_1
  6
CONTINUOUS
 62
     7
100
AcDbDimension
  2
*D7
 10
20856.23625
 20
15071.037013
 30
0.0
 11
20856.23625
 21
18525.1562
 31
0.0
 70
   160
  1
6910
  3
MXDIMSTYLE
100
AcDbAlignedDimension
 13
19356.23625
 23
21979.275097
 33
0.0
 14
19356.23625
 24
15071.037013
 34
0.0
 50
90.0
100
AcDbRotatedDimension
1001
ACAD
1000
DSTYLE
1002
{
1070
    41
1040
415.5
1070
   140
1040
300.0
1070
   271
1070
     0
1070
   340
1005
B4
1002
}
  0
LINE
  5
775
100
AcDbEntity
  8
LY_1
  6
CONTINUOUS
 62
   220
100
AcDbLine
 10
15153.753539
 20
19025.789617
 30
0.0
 11
16254.211298
 21
19519.289644
 31
0.0
  0
LINE
  5
776
100
AcDbEntity
  8
LY_1
  6
CONTINUOUS
 62
   220
100
AcDbLine
 10
11578.206915
 20
19153.311746
 30
0.0
 11
12470.951605
 21
19964.210306
 31
0.0
  0
LINE
  5
777
100
AcDbEntity
  8
LY_1
  6
CONTINUOUS
 62
   220
100
AcDbLine
 10
9926.321927
 20
18421.550531
 30
0.0
 11
10129.140824
 21
17862.003605
 31
0.0
  0
LINE
  5
778
100
AcDbEntity
  8
LY_1
  6
CONTINUOUS
 62
   220
100
AcDbLine
 10
11564.617682
 20
18981.842398
 30
0.0
 11
11578.036114
 21
19151.156575
 31
0.0
  0
LINE
  5
779
100
AcDbEntity
  8
LY_1
  6
CONTINUOUS
 62
   220
100
AcDbLine
 10
11423.888692
 20
18851.02758
 30
0.0
 11
11564.362531
 21
18978.622888
 31
0.0
  0
LINE
  5
77A
100
AcDbEntity
  8
LY_1
  6
CONTINUOUS
 62
   220
100
AcDbLine
 10
11444.060129
 20
18828.820187
 30
0.0
 11
11423.888692
 21
18851.02758
 31
0.0
  0
LINE
  5
77B
100
AcDbEntity
  8
LY_1
  6
CONTINUOUS
 62
   220
100
AcDbLine
 10
13925.73559
 20
19031.00365
 30
0.0
 11
14978.673044
 21
19619.112718
 31
0.0
  0
LINE
  5
77C
100
AcDbEntity
  8
LY_1
  6
CONTINUOUS
 62
   220
100
AcDbLine
 10
12734.308078
 20
19068.810246
 30
0.0
 11
13720.289939
 21
19763.352777
 31
0.0
  0
LINE
  5
77D
100
AcDbEntity
  8
LY_1
  6
CONTINUOUS
 62
   220
100
AcDbLine
 10
12561.146285
 20
18763.351369
 30
0.0
 11
12543.869252
 21
18787.878076
 31
0.0
  0
LINE
  5
77E
100
AcDbEntity
  8
LY_1
  6
CONTINUOUS
 62
   220
100
AcDbLine
 10
12543.869252
 20
18787.878076
 30
0.0
 11
12699.014007
 21
18897.164702
 31
0.0
  0
LINE
  5
77F
100
AcDbEntity
  8
LY_1
  6
CONTINUOUS
 62
   220
100
AcDbLine
 10
12699.664476
 20
18900.328124
 30
0.0
 11
12733.872648
 21
19066.692621
 31
0.0
  0
LINE
  5
780
100
AcDbEntity
  8
LY_1
  6
CONTINUOUS
 62
   220
100
AcDbLine
 10
13707.081681
 20
18771.426497
 30
0.0
 11
13872.761933
 21
18863.965763
 31
0.0
  0
LINE
  5
781
100
AcDbEntity
  8
LY_1
  6
CONTINUOUS
 62
   220
100
AcDbLine
 10
13721.711137
 20
18745.234242
 30
0.0
 11
13707.081681
 21
18771.426497
 31
0.0
  0
LINE
  5
782
100
AcDbEntity
  8
LY_1
  6
CONTINUOUS
 62
   220
100
AcDbLine
 10
13873.738236
 20
18867.044265
 30
0.0
 11
13925.082044
 21
19028.94287
 31
0.0
  0
ARC
  5
783
100
AcDbEntity
  8
LY_1
  6
CONTINUOUS
 62
   220
100
AcDbCircle
 10
13667.391265
 20
19838.448442
 30
0.0
 40
91.856565
100
AcDbArc
 50
305.161523
 51
35.161523
  0
LINE
  5
784
100
AcDbEntity
  8
LY_1
  6
CONTINUOUS
 62
   220
100
AcDbLine
 10
14925.453131
 20
18759.014326
 30
0.0
 11
14913.177113
 21
18786.388668
 31
0.0
  0
LINE
  5
785
100
AcDbEntity
  8
LY_1
  6
CONTINUOUS
 62
   220
100
AcDbLine
 10
14913.177113
 20
18786.388668
 30
0.0
 11
15086.334711
 21
18864.041152
 31
0.0
  0
LINE
  5
786
100
AcDbEntity
  8
LY_1
  6
CONTINUOUS
 62
   220
100
AcDbLine
 10
15087.577237
 20
18867.022171
 30
0.0
 11
15152.921779
 21
19023.794094
 31
0.0
  0
ARC
  5
787
100
AcDbEntity
  8
LY_1
  6
CONTINUOUS
 62
   220
100
AcDbCircle
 10
14933.880697
 20
19699.307944
 30
0.0
 40
91.856565
100
AcDbArc
 50
299.185163
 51
29.185163
  0
LINE
  5
788
100
AcDbEntity
  8
LY_1
  6
CONTINUOUS
 62
   220
100
AcDbLine
 10
16442.60319
 20
19036.344057
 30
0.0
 11
17576.462494
 21
19447.333881
 31
0.0
  0
LINE
  5
789
100
AcDbEntity
  8
LY_1
  6
CONTINUOUS
 62
   220
100
AcDbLine
 10
16195.248168
 20
18787.134055
 30
0.0
 11
16185.024626
 21
18815.339275
 31
0.0
  0
LINE
  5
78A
100
AcDbEntity
  8
LY_1
  6
CONTINUOUS
 62
   220
100
AcDbLine
 10
16185.024626
 20
18815.339275
 30
0.0
 11
16363.437973
 21
18880.008736
 31
0.0
  0
LINE
  5
78B
100
AcDbEntity
  8
LY_1
  6
CONTINUOUS
 62
   220
100
AcDbLine
 10
16364.896985
 20
18882.889991
 30
0.0
 11
16441.626513
 21
19034.415317
 31
0.0
  0
ARC
  5
78C
100
AcDbEntity
  8
LY_1
  6
CONTINUOUS
 62
   220
100
AcDbCircle
 10
16216.624691
 20
19603.104174
 30
0.0
 40
91.856565
100
AcDbArc
 50
294.153838
 51
24.153838
  0
ARC
  5
78D
100
AcDbEntity
  8
LY_1
  6
CONTINUOUS
 62
   220
100
AcDbCircle
 10
17545.16014
 20
19533.692384
 30
0.0
 40
91.856565
100
AcDbArc
 50
289.924054
 51
19.924054
  0
LINE
  5
78E
100
AcDbEntity
  8
LY_1
  6
CONTINUOUS
 62
   220
100
AcDbLine
 10
15525.920034
 20
21565.335447
 30
0.0
 11
16659.779338
 21
21976.325271
 31
0.0
  0
LINE
  5
78F
100
AcDbEntity
  8
LY_1
  6
CONTINUOUS
 62
   220
100
AcDbLine
 10
12278.314351
 20
21329.459887
 30
0.0
 11
12443.994604
 21
21421.999153
 31
0.0
  0
LINE
  5
790
100
AcDbEntity
  8
LY_1
  6
CONTINUOUS
 62
   220
100
AcDbLine
 10
10792.056008
 20
21949.179269
 30
0.0
 11
12477.18528
 21
20093.965454
 31
0.0
  0
LINE
  5
791
100
AcDbEntity
  8
LY_1
  6
CONTINUOUS
 62
   220
100
AcDbLine
 10
9769.556169
 20
21144.514383
 30
0.0
 11
10662.300859
 21
21955.412943
 31
0.0
  0
LINE
  5
792
100
AcDbEntity
  8
LY_1
  6
CONTINUOUS
 62
   220
100
AcDbLine
 10
9453.870829
 20
21019.884543
 30
0.0
 11
9594.344668
 21
21147.479851
 31
0.0
  0
LINE
  5
793
100
AcDbEntity
  8
LY_1
  6
CONTINUOUS
 62
   220
100
AcDbLine
 10
9433.699392
 20
21042.091937
 30
0.0
 11
9453.870829
 21
21019.884543
 31
0.0
  0
LINE
  5
794
100
AcDbEntity
  8
LY_1
  6
CONTINUOUS
 62
   220
100
AcDbLine
 10
9597.57381
 20
21147.425197
 30
0.0
 11
9767.39455
 21
21144.550969
 31
0.0
  0
LINE
  5
795
100
AcDbEntity
  8
LY_1
  6
CONTINUOUS
 62
   220
100
AcDbLine
 10
11185.181062
 20
21267.971666
 30
0.0
 11
12171.162922
 21
21962.514196
 31
0.0
  0
LINE
  5
796
100
AcDbEntity
  8
LY_1
  6
CONTINUOUS
 62
   220
100
AcDbLine
 10
11014.872201
 20
21292.081758
 30
0.0
 11
11183.040477
 21
21268.274702
 31
0.0
  0
LINE
  5
797
100
AcDbEntity
  8
LY_1
  6
CONTINUOUS
 62
   220
100
AcDbLine
 10
10856.529725
 20
21183.247823
 30
0.0
 11
11011.67448
 21
21292.534449
 31
0.0
  0
LINE
  5
798
100
AcDbEntity
  8
LY_1
  6
CONTINUOUS
 62
   220
100
AcDbLine
 10
10839.252692
 20
21207.77453
 30
0.0
 11
10856.529725
 21
21183.247823
 31
0.0
  0
ARC
  5
799
100
AcDbEntity
  8
LY_1
  6
CONTINUOUS
 62
   220
100
AcDbCircle
 10
10724.061597
 20
21887.418532
 30
0.0
 40
91.856565
100
AcDbArc
 50
42.249521
 51
132.249521
  0
LINE
  5
79A
100
AcDbEntity
  8
LY_1
  6
CONTINUOUS
 62
   220
100
AcDbLine
 10
12263.684895
 20
21355.652142
 30
0.0
 11
12278.314351
 21
21329.459887
 31
0.0
  0
ARC
  5
79B
100
AcDbEntity
  8
LY_1
  6
CONTINUOUS
 62
   220
100
AcDbCircle
 10
12224.061597
 20
21887.418532
 30
0.0
 40
91.856565
100
AcDbArc
 50
35.161523
 51
125.161523
  0
ARC
  5
79C
100
AcDbEntity
  8
LY_1
  6
CONTINUOUS
 62
   220
100
AcDbCircle
 10
15191.081693
 20
21889.966767
 30
0.0
 40
91.856565
100
AcDbArc
 50
24.153838
 51
114.153838
  0
LINE
  5
79D
100
AcDbEntity
  8
LY_1
  6
CONTINUOUS
 62
   220
100
AcDbLine
 10
14053.037326
 20
21480.281272
 30
0.0
 11
15153.495086
 21
21973.781298
 31
0.0
  0
LINE
  5
79E
100
AcDbEntity
  8
LY_1
  6
CONTINUOUS
 62
   220
100
AcDbLine
 10
12614.000736
 20
21379.50469
 30
0.0
 11
13666.938189
 21
21967.613758
 31
0.0
  0
LINE
  5
79F
100
AcDbEntity
  8
LY_1
  6
CONTINUOUS
 62
   220
100
AcDbLine
 10
12447.127811
 20
21421.215981
 30
0.0
 11
12611.903336
 21
21380.028952
 31
0.0
  0
LINE
  5
7A0
100
AcDbEntity
  8
LY_1
  6
CONTINUOUS
 62
   220
100
AcDbLine
 10
13714.255428
 20
21459.869115
 30
0.0
 11
13887.413025
 21
21537.521599
 31
0.0
  0
LINE
  5
7A1
100
AcDbEntity
  8
LY_1
  6
CONTINUOUS
 62
   220
100
AcDbLine
 10
13890.465476
 20
21536.466662
 30
0.0
 11
14050.993987
 21
21480.987457
 31
0.0
  0
LINE
  5
7A2
100
AcDbEntity
  8
LY_1
  6
CONTINUOUS
 62
   220
100
AcDbLine
 10
13701.979411
 20
21487.243457
 30
0.0
 11
13714.255428
 21
21459.869115
 31
0.0
  0
ARC
  5
7A3
100
AcDbEntity
  8
LY_1
  6
CONTINUOUS
 62
   220
100
AcDbCircle
 10
13711.730536
 20
21887.418532
 30
0.0
 40
91.856565
100
AcDbArc
 50
29.185163
 51
119.185163
  0
LINE
  5
7A4
100
AcDbEntity
  8
LY_1
  6
CONTINUOUS
 62
   220
100
AcDbLine
 10
15176.331812
 20
21598.171514
 30
0.0
 11
15186.555354
 21
21569.966295
 31
0.0
  0
LINE
  5
7A5
100
AcDbEntity
  8
LY_1
  6
CONTINUOUS
 62
   220
100
AcDbLine
 10
15186.555354
 20
21569.966295
 30
0.0
 11
15364.968701
 21
21634.635756
 31
0.0
  0
LINE
  5
7A6
100
AcDbEntity
  8
LY_1
  6
CONTINUOUS
 62
   220
100
AcDbLine
 10
15367.935029
 20
21633.358554
 30
0.0
 11
15523.934345
 21
21566.190419
 31
0.0
  0
ARC
  5
7A7
100
AcDbEntity
  8
LY_1
  6
CONTINUOUS
 62
   220
100
AcDbCircle
 10
16691.081693
 20
21889.966767
 30
0.0
 40
91.856565
100
AcDbArc
 50
19.924054
 51
109.924054
  0
LINE
  5
7A8
100
AcDbEntity
  8
LY_1
  6
CONTINUOUS
 62
   130
100
AcDbLine
 10
31879.452276
 20
12312.082692
 30
0.0
 11
31910.605115
 21
12352.2333
 31
0.0
  0
ARC
  5
7A9
100
AcDbEntity
  8
LY_1
  6
CONTINUOUS
 62
   130
100
AcDbCircle
 10
31878.832532
 20
12847.182537
 30
0.0
 40
615.990892
100
AcDbArc
 50
230.413186
 51
247.598679
  0
LINE
  5
7AA
100
AcDbEntity
  8
LY_1
  6
CONTINUOUS
 62
   220
100
AcDbLine
 10
29830.224772
 20
12367.056282
 30
0.0
 11
29812.650022
 21
12223.301727
 31
0.0
  0
LINE
  5
7AB
100
AcDbEntity
  8
LY_1
  6
CONTINUOUS
 62
   220
100
AcDbLine
 10
30125.370164
 20
11829.673011
 30
0.0
 11
39365.989691
 21
19057.071148
 31
0.0
  0
LINE
  5
7AC
100
AcDbEntity
  8
LY_1
  6
CONTINUOUS
 62
   220
100
AcDbLine
 10
29829.705031
 20
10759.962687
 30
0.0
 11
38244.99891
 21
18933.527516
 31
0.0
  0
LINE
  5
7AD
100
AcDbEntity
  8
LY_1
  6
CENTER
 62
   230
100
AcDbLine
 10
28511.989499
 20
11564.205706
 30
0.0
 11
39510.864851
 21
22247.138713
 31
0.0
  0
LINE
  5
7AE
100
AcDbEntity
  8
LY_1
  6
CONTINUOUS
 62
   220
100
AcDbLine
 10
28238.808288
 20
12539.409051
 30
0.0
 11
29478.819012
 21
11262.725637
 31
0.0
  0
LINE
  5
7AF
100
AcDbEntity
  8
LY_1
  6
CONTINUOUS
 62
   220
100
AcDbLine
 10
27483.793557
 20
11597.413322
 30
0.0
 11
34857.042019
 21
20722.079902
 31
0.0
  0
LINE
  5
7B0
100
AcDbEntity
  8
LY_1
  6
CONTINUOUS
 62
   220
100
AcDbLine
 10
29809.426209
 20
9718.170149
 30
0.0
 11
37182.674671
 21
18842.836729
 31
0.0
  0
LINE
  5
7B1
100
AcDbEntity
  8
LY_1
  6
CENTER
 62
   230
100
AcDbLine
 10
28404.694853
 20
10358.412974
 30
0.0
 11
38041.606165
 21
22284.445718
 31
0.0
  0
LINE
  5
7B2
100
AcDbEntity
  8
LY_1
  6
CENTER
 62
   140
100
AcDbLine
 10
32217.619933
 20
13669.107051
 30
0.0
 11
31636.459812
 21
12259.18043
 31
0.0
  0
LINE
  5
7B3
100
AcDbEntity
  8
LY_1
  6
CONTINUOUS
 62
   220
100
AcDbLine
 10
29175.850718
 20
4957.458893
 30
0.0
 11
29175.850718
 21
16688.798675
 31
0.0
  0
LINE
  5
7B4
100
AcDbEntity
  8
LY_1
  6
CONTINUOUS
 62
   220
100
AcDbLine
 10
32165.85442
 20
4957.458893
 30
0.0
 11
32165.85442
 21
16688.798675
 31
0.0
  0
LINE
  5
7B5
100
AcDbEntity
  8
LY_1
  6
CENTER
 62
   230
100
AcDbLine
 10
30670.852569
 20
4572.555626
 30
0.0
 11
30670.852569
 21
19905.536962
 31
0.0
  0
LINE
  5
7B6
100
AcDbEntity
  8
LY_1
  6
CONTINUOUS
 62
   254
100
AcDbLine
 10
27422.500019
 20
2563.086976
 30
0.0
 11
27422.500019
 21
22517.167436
 31
0.0
  0
ARC
  5
7B7
100
AcDbEntity
  8
LY_1
  6
CONTINUOUS
 62
    52
100
AcDbCircle
 10
37720.725789
 20
10670.516654
 30
0.0
 40
5554.87137
100
AcDbArc
 50
84.647389
 51
190.47734
  0
DIMENSION
  5
7B8
100
AcDbEntity
  8
LY_1
  6
CONTINUOUS
 62
     7
100
AcDbDimension
  2
*D8
 10
37720.725789
 20
10670.516654
 30
0.0
 11
35847.906914
 21
11365.719678
 31
0.0
 70
   164
  1
<>
  3
MXDIMSTYLE
100
AcDbRadialDimension
 15
32513.072052
 25
12603.632918
 35
0.0
 40
0.0
1001
ACAD
1000
DSTYLE
1002
{
1070
   287
1070
     2
1070
     6
1000

1070
    41
1040
415.5
1070
   140
1040
300.0
1070
   141
1040
0.0
1070
   271
1070
     0
1070
   284
1070
     8
1070
   289
1070
     2
1002
}
  0
DIMENSION
  5
7B9
100
AcDbEntity
  8
LY_1
  6
CONTINUOUS
 62
     7
100
AcDbDimension
  2
*D9
 10
37720.725789
 20
10670.516654
 30
0.0
 11
35875.896474
 21
13877.819114
 31
0.0
 70
   164
  1
R9800
  3
MXDIMSTYLE
100
AcDbRadialDimension
 15
32834.90501
 25
19164.692715
 35
0.0
 40
0.0
1001
ACAD
1000
DSTYLE
1002
{
1070
   287
1070
     2
1070
     6
1000

1070
    41
1040
415.5
1070
   140
1040
300.0
1070
   141
1040
0.0
1070
   271
1070
     0
1070
   289
1070
     2
1002
}
  0
DIMENSION
  5
7BA
100
AcDbEntity
  8
LY_1
  6
CONTINUOUS
 62
     7
100
AcDbDimension
  2
*D10
 10
37720.725789
 20
10670.516654
 30
0.0
 11
36955.640187
 21
13680.517849
 31
0.0
 70
   164
  1
R11850
  3
MXDIMSTYLE
100
AcDbRadialDimension
 15
34802.330794
 25
22152.071662
 35
0.0
 40
0.0
1001
ACAD
1000
DSTYLE
1002
{
1070
   287
1070
     2
1070
     6
1000

1070
    41
1040
415.5
1070
   140
1040
300.0
1070
   141
1040
0.0
1070
   271
1070
     0
1070
   289
1070
     2
1070
   340
1005
B2
1002
}
  0
LINE
  5
7BB
100
AcDbEntity
  8
LY_1
  6
CONTINUOUS
 62
   254
100
AcDbLine
 10
34644.10813
 20
2563.086976
 30
0.0
 11
34644.10813
 21
15295.559325
 31
0.0
  0
ARC
  5
7BC
100
AcDbEntity
  8
LY_1
  6
CONTINUOUS
 62
    52
100
AcDbCircle
 10
37720.725789
 20
10670.516654
 30
0.0
 40
10298.22577
100
AcDbArc
 50
172.551837
 51
219.358858
  0
DIMENSION
  5
7BD
100
AcDbEntity
  8
LY_1
  6
CONTINUOUS
 62
     7
100
AcDbDimension
  2
*D11
 10
27422.500019
 20
1161.332806
 30
0.0
 11
28299.175364
 21
1161.332806
 31
0.0
 70
   160
  1
<>
  3
MXDIMSTYLE
100
AcDbAlignedDimension
 13
29175.850718
 23
4957.458783
 33
0.0
 14
27422.500019
 24
2563.086957
 34
0.0
100
AcDbRotatedDimension
1001
ACAD
1000
DSTYLE
1002
{
1070
    41
1040
415.5
1070
   140
1040
300.0
1070
   271
1070
     0
1070
   284
1070
     8
1070
   340
1005
B2
1002
}
  0
DIMENSION
  5
7BE
100
AcDbEntity
  8
LY_1
  6
CONTINUOUS
 62
     7
100
AcDbDimension
  2
*D12
 10
27422.500019
 20
111.332806
 30
0.0
 11
31033.303931
 21
111.332806
 31
0.0
 70
   160
  1
7230
  3
MXDIMSTYLE
100
AcDbAlignedDimension
 13
34644.10813
 23
2563.086957
 33
0.0
 14
27422.500019
 24
2563.086957
 34
0.0
100
AcDbRotatedDimension
1001
ACAD
1000
DSTYLE
1002
{
1070
    41
1040
415.5
1070
   140
1040
300.0
1070
   271
1070
     0
1070
   340
1005
B5
1002
}
  0
LINE
  5
7BF
100
AcDbEntity
  8
LY_1
  6
CONTINUOUS
 62
   220
100
AcDbLine
 10
29780.972361
 20
5056.045807
 30
0.0
 11
31560.732777
 21
5056.045807
 31
0.0
  0
LINE
  5
7C0
100
AcDbEntity
  8
LY_1
  6
CENTER
 62
   230
100
AcDbLine
 10
30373.267175
 20
10670.516654
 30
0.0
 11
30968.437963
 21
10670.516654
 31
0.0
  0
LINE
  5
7C1
100
AcDbEntity
  8
LY_1
  6
CONTINUOUS
 62
   254
100
AcDbLine
 10
37874.867539
 20
10670.516654
 30
0.0
 11
30670.852569
 21
10670.516654
 31
0.0
  0
LINE
  5
7C2
100
AcDbEntity
  8
LY_1
  6
CONTINUOUS
 62
   220
100
AcDbLine
 10
28940.201051
 20
7274.172857
 30
0.0
 11
32401.504086
 21
7274.172857
 31
0.0
  0
LINE
  5
7C3
100
AcDbEntity
  8
LY_1
  6
CENTER
 62
   230
100
AcDbLine
 10
28940.201051
 20
11414.173436
 30
0.0
 11
32401.504086
 21
11414.173436
 31
0.0
  0
LINE
  5
7C4
100
AcDbEntity
  8
LY_1
  6
CENTER
 62
   230
100
AcDbLine
 10
32401.504086
 20
8974.17406
 30
0.0
 11
28940.201051
 21
8974.17406
 31
0.0
  0
DIMENSION
  5
7C5
100
AcDbEntity
  8
LY_1
  6
CONTINUOUS
 62
     7
100
AcDbDimension
  2
*D13
 10
37720.725789
 20
10670.516654
 30
0.0
 11
36009.442523
 21
9654.769531
 31
0.0
 70
   164
  1
R10300
  3
MXDIMSTYLE
100
AcDbRadialDimension
 15
28865.004024
 25
5414.125685
 35
0.0
 40
0.0
1001
ACAD
1000
DSTYLE
1002
{
1070
   287
1070
     2
1070
     6
1000

1070
    41
1040
554.0
1070
   140
1040
300.0
1070
   141
1040
0.0
1070
   271
1070
     0
1070
   289
1070
     2
1070
   340
1005
B2
1002
}
  0
LINE
  5
7C6
100
AcDbEntity
  8
LY_1
  6
CONTINUOUS
 62
   130
100
AcDbLine
 10
29472.150724
 20
9472.258756
 30
0.0
 11
29768.646737
 21
8454.550205
 31
0.0
  0
LINE
  5
7C7
100
AcDbEntity
  8
LY_1
  6
CENTER
 62
   140
100
AcDbLine
 10
29618.619479
 20
8168.69261
 30
0.0
 11
29192.063131
 21
9632.827113
 31
0.0
  0
LINE
  5
7C8
100
AcDbEntity
  8
LY_1
  6
CONTINUOUS
 62
   130
100
AcDbLine
 10
29042.040998
 20
9346.951939
 30
0.0
 11
29338.537011
 21
8329.243388
 31
0.0
  0
LINE
  5
7C9
100
AcDbEntity
  8
LY_1
  6
CONTINUOUS
 62
   130
100
AcDbLine
 10
29450.473815
 20
6525.243595
 30
0.0
 11
29419.955135
 21
6565.878321
 31
0.0
  0
ARC
  5
7CA
100
AcDbEntity
  8
LY_1
  6
CONTINUOUS
 62
   130
100
AcDbCircle
 10
29459.493969
 20
7060.26779
 30
0.0
 40
615.990906
100
AcDbArc
 50
291.501801
 51
308.687302
  0
LINE
  5
7CB
100
AcDbEntity
  8
LY_1
  6
CENTER
 62
   140
100
AcDbLine
 10
29692.562868
 20
6468.521994
 30
0.0
 11
29133.690629
 21
7887.430759
 31
0.0
  0
LINE
  5
7CC
100
AcDbEntity
  8
LY_1
  6
CONTINUOUS
 62
   220
100
AcDbLine
 10
29210.862137
 20
4874.176301
 30
0.0
 11
29671.563229
 21
4874.176301
 31
0.0
  0
LINE
  5
7CD
100
AcDbEntity
  8
LY_1
  6
CONTINUOUS
 62
   220
100
AcDbLine
 10
29203.859163
 20
4881.178446
 30
0.0
 11
29210.862137
 21
4874.176301
 31
0.0
  0
LINE
  5
7CE
100
AcDbEntity
  8
LY_1
  6
CONTINUOUS
 62
   220
100
AcDbLine
 10
29203.859163
 20
4881.178446
 30
0.0
 11
29203.859163
 21
4957.458893
 31
0.0
  0
LINE
  5
7CF
100
AcDbEntity
  8
LY_1
  6
CONTINUOUS
 62
   220
100
AcDbLine
 10
29175.850718
 20
4957.458893
 30
0.0
 11
29203.859163
 21
4957.458893
 31
0.0
  0
LINE
  5
7D0
100
AcDbEntity
  8
LY_1
  6
CONTINUOUS
 62
   220
100
AcDbLine
 10
29678.566203
 20
4881.178446
 30
0.0
 11
29671.563229
 21
4874.176301
 31
0.0
  0
LINE
  5
7D1
100
AcDbEntity
  8
LY_1
  6
CONTINUOUS
 62
   220
100
AcDbLine
 10
29678.566203
 20
4881.178446
 30
0.0
 11
29678.566203
 21
4953.638665
 31
0.0
  0
LINE
  5
7D2
100
AcDbEntity
  8
LY_1
  6
CONTINUOUS
 62
   220
100
AcDbLine
 10
29780.972361
 20
5056.045807
 30
0.0
 11
29678.566203
 21
4953.638665
 31
0.0
  0
ARC
  5
7D3
100
AcDbEntity
  8
LY_1
  6
CONTINUOUS
 62
   130
100
AcDbCircle
 10
29516.748068
 20
6470.675414
 30
0.0
 40
26.949528
100
AcDbArc
 50
215.327805
 51
246.157896
  0
ARC
  5
7D4
100
AcDbEntity
  8
LY_1
  6
CONTINUOUS
 62
   130
100
AcDbCircle
 10
29296.896803
 20
6380.918516
 30
0.0
 40
211.310028
100
AcDbArc
 50
20.549487
 51
33.37747
  0
ARC
  5
7D5
100
AcDbEntity
  8
LY_1
  6
CONTINUOUS
 62
   130
100
AcDbCircle
 10
29459.499279
 20
7060.269882
 30
0.0
 40
615.990906
100
AcDbArc
 50
274.315769
 51
291.501269
  0
LINE
  5
7D6
100
AcDbEntity
  8
LY_1
  6
CONTINUOUS
 62
   130
100
AcDbLine
 10
29473.354303
 20
6497.171229
 30
0.0
 11
29450.473795
 21
6525.243581
 31
0.0
  0
LINE
  5
7D7
100
AcDbEntity
  8
LY_1
  6
CONTINUOUS
 62
   130
100
AcDbLine
 10
29427.308244
 20
7753.192323
 30
0.0
 11
29815.776008
 21
6766.919832
 31
0.0
  0
LINE
  5
7D8
100
AcDbEntity
  8
LY_1
  6
CONTINUOUS
 62
   130
100
AcDbLine
 10
29010.484203
 20
7589.015886
 30
0.0
 11
29398.951967
 21
6602.743395
 31
0.0
  0
LINE
  5
7D9
100
AcDbEntity
  8
LY_1
  6
CONTINUOUS
 62
   130
100
AcDbLine
 10
29827.311894
 20
6732.266434
 30
0.0
 11
29815.796154
 21
6766.955538
 31
0.0
  0
LINE
  5
7DA
100
AcDbEntity
  8
LY_1
  6
CONTINUOUS
 62
   130
100
AcDbLine
 10
29419.955122
 20
6565.878325
 30
0.0
 11
29414.216921
 21
6569.531271
 31
0.0
  0
LINE
  5
7DB
100
AcDbEntity
  8
LY_1
  6
CONTINUOUS
 62
   130
100
AcDbLine
 10
29414.216955
 20
6569.531238
 30
0.0
 11
29398.979341
 21
6602.754142
 31
0.0
  0
LINE
  5
7DC
100
AcDbEntity
  8
LY_1
  6
CENTER
 62
   140
100
AcDbLine
 10
29186.109719
 20
7088.549654
 30
0.0
 11
29640.140293
 21
7267.395953
 31
0.0
  0
LINE
  5
7DD
100
AcDbEntity
  8
LY_1
  6
CENTER
 62
   140
100
AcDbLine
 10
29657.341674
 20
7408.12161
 30
0.0
 11
29657.341674
 21
7103.037697
 31
0.0
  0
LINE
  5
7DE
100
AcDbEntity
  8
LY_1
  6
CONTINUOUS
 62
   130
100
AcDbLine
 10
29833.415982
 20
6639.014461
 30
0.0
 11
29831.002494
 21
6675.149588
 31
0.0
  0
LINE
  5
7DF
100
AcDbEntity
  8
LY_1
  6
CONTINUOUS
 62
   130
100
AcDbLine
 10
29831.00248
 20
6675.14958
 30
0.0
 11
29825.606902
 21
6725.681368
 31
0.0
  0
LINE
  5
7E0
100
AcDbEntity
  8
LY_1
  6
CONTINUOUS
 62
   130
100
AcDbLine
 10
29825.606903
 20
6725.681352
 30
0.0
 11
29827.311902
 21
6732.266483
 31
0.0
  0
ARC
  5
7E1
100
AcDbEntity
  8
LY_1
  6
CONTINUOUS
 62
   130
100
AcDbCircle
 10
29819.752517
 20
6590.041399
 30
0.0
 40
26.949528
100
AcDbArc
 50
336.845172
 51
7.675263
  0
ARC
  5
7E2
100
AcDbEntity
  8
LY_1
  6
CONTINUOUS
 62
   130
100
AcDbCircle
 10
30041.751067
 20
6674.347477
 30
0.0
 40
211.310028
100
AcDbArc
 50
189.625598
 51
202.453581
  0
LINE
  5
7E3
100
AcDbEntity
  8
LY_1
  6
CONTINUOUS
 62
   130
100
AcDbLine
 10
29352.940503
 20
7858.780002
 30
0.0
 11
29375.819371
 21
7830.706352
 31
0.0
  0
ARC
  5
7E4
100
AcDbEntity
  8
LY_1
  6
CONTINUOUS
 62
   130
100
AcDbCircle
 10
29309.548259
 20
7885.278334
 30
0.0
 40
26.949528
100
AcDbArc
 50
35.324497
 51
66.154585
  0
ARC
  5
7E5
100
AcDbEntity
  8
LY_1
  6
CONTINUOUS
 62
   130
100
AcDbCircle
 10
29529.404692
 20
7975.022507
 30
0.0
 40
211.310028
100
AcDbArc
 50
200.546176
 51
213.374159
  0
ARC
  5
7E6
100
AcDbEntity
  8
LY_1
  6
CONTINUOUS
 62
   130
100
AcDbCircle
 10
28784.533516
 20
7681.636609
 30
0.0
 40
211.310028
100
AcDbArc
 50
9.62229
 51
22.450274
  0
ARC
  5
7E7
100
AcDbEntity
  8
LY_1
  6
CONTINUOUS
 62
   130
100
AcDbCircle
 10
29006.536914
 20
7765.929837
 30
0.0
 40
26.949528
100
AcDbArc
 50
156.841865
 51
187.671952
  0
ARC
  5
7E8
100
AcDbEntity
  8
LY_1
  6
CONTINUOUS
 62
   130
100
AcDbCircle
 10
29366.768311
 20
7295.682649
 30
0.0
 40
615.990906
100
AcDbArc
 50
111.498493
 51
128.683986
  0
LINE
  5
7E9
100
AcDbEntity
  8
LY_1
  6
CONTINUOUS
 62
   130
100
AcDbLine
 10
28998.969305
 20
7623.705226
 30
0.0
 11
29010.483041
 21
7589.015456
 31
0.0
  0
LINE
  5
7EA
100
AcDbEntity
  8
LY_1
  6
CONTINUOUS
 62
   130
100
AcDbLine
 10
29000.674711
 20
7630.290225
 30
0.0
 11
28998.969332
 21
7623.705193
 31
0.0
  0
LINE
  5
7EB
100
AcDbEntity
  8
LY_1
  6
CONTINUOUS
 62
   130
100
AcDbLine
 10
28995.282054
 20
7680.822298
 30
0.0
 11
29000.674709
 21
7630.290228
 31
0.0
  0
LINE
  5
7EC
100
AcDbEntity
  8
LY_1
  6
CONTINUOUS
 62
   130
100
AcDbLine
 10
28992.870601
 20
7716.957589
 30
0.0
 11
28995.282003
 21
7680.822292
 31
0.0
  0
ARC
  5
7ED
100
AcDbEntity
  8
LY_1
  6
CONTINUOUS
 62
   130
100
AcDbCircle
 10
29366.762973
 20
7295.680547
 30
0.0
 40
615.990906
100
AcDbArc
 50
94.312463
 51
111.497956
  0
LINE
  5
7EE
100
AcDbEntity
  8
LY_1
  6
CONTINUOUS
 62
   130
100
AcDbLine
 10
29412.073661
 20
7786.416584
 30
0.0
 11
29427.309356
 21
7753.192799
 31
0.0
  0
LINE
  5
7EF
100
AcDbEntity
  8
LY_1
  6
CONTINUOUS
 62
   130
100
AcDbLine
 10
29406.335704
 20
7790.069832
 30
0.0
 11
29412.073694
 21
7786.416555
 31
0.0
  0
LINE
  5
7F0
100
AcDbEntity
  8
LY_1
  6
CONTINUOUS
 62
   130
100
AcDbLine
 10
29375.819392
 20
7830.706313
 30
0.0
 11
29406.335705
 21
7790.069848
 31
0.0
  0
LINE
  5
7F1
100
AcDbEntity
  8
LY_1
  6
CONTINUOUS
 62
   130
100
AcDbLine
 10
29382.743593
 20
8247.35018
 30
0.0
 11
29356.075189
 21
8290.609479
 31
0.0
  0
LINE
  5
7F2
100
AcDbEntity
  8
LY_1
  6
CONTINUOUS
 62
   130
100
AcDbLine
 10
29350.695724
 20
8294.772634
 30
0.0
 11
29338.565254
 21
8329.251583
 31
0.0
  0
LINE
  5
7F3
100
AcDbEntity
  8
LY_1
  6
CONTINUOUS
 62
   130
100
AcDbLine
 10
29356.075177
 20
8290.609483
 30
0.0
 11
29350.695693
 21
8294.77267
 31
0.0
  0
ARC
  5
7F4
100
AcDbEntity
  8
LY_1
  6
CONTINUOUS
 62
   130
100
AcDbCircle
 10
29985.192578
 20
8341.668569
 30
0.0
 40
211.310023
100
AcDbArc
 50
184.370161
 51
197.198145
  0
ARC
  5
7F5
100
AcDbEntity
  8
LY_1
  6
CONTINUOUS
 62
   130
100
AcDbCircle
 10
29756.405154
 20
8278.051098
 30
0.0
 40
26.949527
100
AcDbArc
 50
331.589736
 51
2.419826
  0
LINE
  5
7F6
100
AcDbEntity
  8
LY_1
  6
CONTINUOUS
 62
   130
100
AcDbLine
 10
29774.496922
 20
8325.566767
 30
0.0
 11
29775.403417
 21
8361.771057
 31
0.0
  0
LINE
  5
7F7
100
AcDbEntity
  8
LY_1
  6
CONTINUOUS
 62
   130
100
AcDbLine
 10
29775.403403
 20
8361.77105
 30
0.0
 11
29774.659022
 21
8412.584627
 31
0.0
  0
LINE
  5
7F8
100
AcDbEntity
  8
LY_1
  6
CONTINUOUS
 62
   130
100
AcDbLine
 10
29774.659021
 20
8412.584611
 30
0.0
 11
29776.960024
 21
8418.985888
 31
0.0
  0
LINE
  5
7F9
100
AcDbEntity
  8
LY_1
  6
CONTINUOUS
 62
   130
100
AcDbLine
 10
29776.960012
 20
8418.98584
 30
0.0
 11
29768.670069
 21
8454.583916
 31
0.0
  0
ARC
  5
7FA
100
AcDbEntity
  8
LY_1
  6
CONTINUOUS
 62
   130
100
AcDbCircle
 10
29443.74101
 20
8186.940928
 30
0.0
 40
26.949527
100
AcDbArc
 50
210.072368
 51
240.902459
  0
ARC
  5
7FB
100
AcDbEntity
  8
LY_1
  6
CONTINUOUS
 62
   130
100
AcDbCircle
 10
29216.592569
 20
8117.698869
 30
0.0
 40
211.310023
100
AcDbArc
 50
15.29405
 51
28.122033
  0
ARC
  5
7FC
100
AcDbEntity
  8
LY_1
  6
CONTINUOUS
 62
   130
100
AcDbCircle
 10
29440.737439
 20
8779.300636
 30
0.0
 40
615.990892
100
AcDbArc
 50
269.060332
 51
286.245832
  0
LINE
  5
7FD
100
AcDbEntity
  8
LY_1
  6
CONTINUOUS
 62
   130
100
AcDbLine
 10
29402.956576
 20
8217.30006
 30
0.0
 11
29382.743571
 21
8247.350168
 31
0.0
  0
ARC
  5
7FE
100
AcDbEntity
  8
LY_1
  6
CONTINUOUS
 62
   130
100
AcDbCircle
 10
29440.73196
 20
8779.29904
 30
0.0
 40
615.990892
100
AcDbArc
 50
286.246364
 51
303.431866
  0
LINE
  5
7FF
100
AcDbEntity
  8
LY_1
  6
CONTINUOUS
 62
   220
100
AcDbLine
 10
28016.421472
 20
11293.770297
 30
0.0
 11
29400.72375
 21
10175.175491
 31
0.0
  0
LINE
  5
800
100
AcDbEntity
  8
LY_1
  6
CONTINUOUS
 62
   130
100
AcDbLine
 10
29036.220402
 20
9475.969141
 30
0.0
 11
29035.311815
 21
9439.764873
 31
0.0
  0
LINE
  5
801
100
AcDbEntity
  8
LY_1
  6
CENTER
 62
   140
100
AcDbLine
 10
29657.341674
 20
9108.123004
 30
0.0
 11
29657.341674
 21
8803.039091
 31
0.0
  0
LINE
  5
802
100
AcDbEntity
  8
LY_1
  6
CENTER
 62
   140
100
AcDbLine
 10
29171.087466
 20
8832.502945
 30
0.0
 11
29639.591019
 21
8969.009981
 31
0.0
  0
LINE
  5
803
100
AcDbEntity
  8
LY_1
  6
CONTINUOUS
 62
   130
100
AcDbLine
 10
29033.751915
 20
9382.550173
 30
0.0
 11
29042.039802
 21
9346.951618
 31
0.0
  0
LINE
  5
804
100
AcDbEntity
  8
LY_1
  6
CONTINUOUS
 62
   130
100
AcDbLine
 10
29036.053312
 20
9388.951281
 30
0.0
 11
29033.751939
 21
9382.550137
 31
0.0
  0
LINE
  5
805
100
AcDbEntity
  8
LY_1
  6
CONTINUOUS
 62
   130
100
AcDbLine
 10
29035.311865
 20
9439.764874
 30
0.0
 11
29036.053311
 21
9388.951284
 31
0.0
  0
LINE
  5
806
100
AcDbEntity
  8
LY_1
  6
CONTINUOUS
 62
   220
100
AcDbLine
 10
29729.850408
 20
9675.397712
 30
0.0
 11
29371.5159
 21
9964.952331
 31
0.0
  0
ARC
  5
807
100
AcDbEntity
  8
LY_1
  6
CONTINUOUS
 62
   130
100
AcDbCircle
 10
29369.953676
 20
9022.21597
 30
0.0
 40
615.990892
100
AcDbArc
 50
89.057026
 51
106.24252
  0
ARC
  5
808
100
AcDbEntity
  8
LY_1
  6
CONTINUOUS
 62
   130
100
AcDbCircle
 10
29054.314931
 20
9523.483739
 30
0.0
 40
26.949527
100
AcDbArc
 50
151.586428
 51
182.416516
  0
ARC
  5
809
100
AcDbEntity
  8
LY_1
  6
CONTINUOUS
 62
   130
100
AcDbCircle
 10
29369.959184
 20
9022.217575
 30
0.0
 40
615.990892
100
AcDbArc
 50
106.243056
 51
123.42855
  0
ARC
  5
80A
100
AcDbEntity
  8
LY_1
  6
CONTINUOUS
 62
   130
100
AcDbCircle
 10
28825.523856
 20
9459.879508
 30
0.0
 40
211.310023
100
AcDbArc
 50
4.366854
 51
17.194837
  0
LINE
  5
80B
100
AcDbEntity
  8
LY_1
  6
CONTINUOUS
 62
   220
100
AcDbLine
 10
29809.426209
 20
9718.170149
 30
0.0
 11
29787.641168
 21
9735.773699
 31
0.0
  0
LINE
  5
80C
100
AcDbEntity
  8
LY_1
  6
CONTINUOUS
 62
   220
100
AcDbLine
 10
29739.698248
 20
9676.442569
 30
0.0
 11
29729.850408
 21
9675.397712
 31
0.0
  0
ARC
  5
80D
100
AcDbEntity
  8
LY_1
  6
CONTINUOUS
 62
   130
100
AcDbCircle
 10
29366.98434
 20
9614.575862
 30
0.0
 40
26.949527
100
AcDbArc
 50
30.069061
 51
60.899148
  0
ARC
  5
80E
100
AcDbEntity
  8
LY_1
  6
CONTINUOUS
 62
   130
100
AcDbCircle
 10
29594.136762
 20
9683.804777
 30
0.0
 40
211.310023
100
AcDbArc
 50
195.290739
 51
208.118722
  0
LINE
  5
80F
100
AcDbEntity
  8
LY_1
  6
CONTINUOUS
 62
   130
100
AcDbLine
 10
29454.644185
 20
9510.902243
 30
0.0
 11
29460.023427
 21
9506.738746
 31
0.0
  0
LINE
  5
810
100
AcDbEntity
  8
LY_1
  6
CONTINUOUS
 62
   130
100
AcDbLine
 10
29427.9783
 20
9554.163073
 30
0.0
 11
29454.644187
 21
9510.902259
 31
0.0
  0
LINE
  5
811
100
AcDbEntity
  8
LY_1
  6
CONTINUOUS
 62
   130
100
AcDbLine
 10
29407.76703
 20
9584.214363
 30
0.0
 11
29427.978282
 21
9554.163114
 31
0.0
  0
LINE
  5
812
100
AcDbEntity
  8
LY_1
  6
CONTINUOUS
 62
   220
100
AcDbLine
 10
29739.698248
 20
9676.442569
 30
0.0
 11
29787.641168
 21
9735.773699
 31
0.0
  0
LINE
  5
813
100
AcDbEntity
  8
LY_1
  6
CONTINUOUS
 62
   130
100
AcDbLine
 10
29460.023398
 20
9506.738778
 30
0.0
 11
29472.151875
 21
9472.259129
 31
0.0
  0
LINE
  5
814
100
AcDbEntity
  8
LY_1
  6
CONTINUOUS
 62
   220
100
AcDbLine
 10
29370.469878
 20
9974.800047
 30
0.0
 11
29416.011752
 21
10031.159794
 31
0.0
  0
LINE
  5
815
100
AcDbEntity
  8
LY_1
  6
CONTINUOUS
 62
   220
100
AcDbLine
 10
29400.72375
 20
10175.175491
 30
0.0
 11
29416.011752
 21
10031.159794
 31
0.0
  0
LINE
  5
816
100
AcDbEntity
  8
LY_1
  6
CONTINUOUS
 62
   220
100
AcDbLine
 10
29370.469878
 20
9974.800047
 30
0.0
 11
29371.5159
 21
9964.952331
 31
0.0
  0
LINE
  5
817
100
AcDbEntity
  8
LY_1
  6
CONTINUOUS
 62
   220
100
AcDbLine
 10
27458.681701
 20
11510.630926
 30
0.0
 11
27817.016208
 21
11221.076307
 31
0.0
  0
LINE
  5
818
100
AcDbEntity
  8
LY_1
  6
CONTINUOUS
 62
   220
100
AcDbLine
 10
28016.421472
 20
11293.770297
 30
0.0
 11
27872.405922
 21
11278.480911
 31
0.0
  0
LINE
  5
819
100
AcDbEntity
  8
LY_1
  6
CONTINUOUS
 62
   220
100
AcDbLine
 10
27826.864048
 20
11222.121164
 30
0.0
 11
27817.016208
 21
11221.076307
 31
0.0
  0
LINE
  5
81A
100
AcDbEntity
  8
LY_1
  6
CONTINUOUS
 62
   220
100
AcDbLine
 10
27826.864048
 20
11222.121164
 30
0.0
 11
27872.405922
 21
11278.480911
 31
0.0
  0
LINE
  5
81B
100
AcDbEntity
  8
LY_1
  6
CONTINUOUS
 62
   220
100
AcDbLine
 10
27483.793557
 20
11597.413322
 30
0.0
 11
27505.578599
 21
11579.809772
 31
0.0
  0
LINE
  5
81C
100
AcDbEntity
  8
LY_1
  6
CONTINUOUS
 62
   220
100
AcDbLine
 10
27457.635678
 20
11520.478643
 30
0.0
 11
27458.681701
 21
11510.630926
 31
0.0
  0
LINE
  5
81D
100
AcDbEntity
  8
LY_1
  6
CONTINUOUS
 62
   220
100
AcDbLine
 10
27457.635678
 20
11520.478643
 30
0.0
 11
27505.578599
 21
11579.809772
 31
0.0
  0
LINE
  5
81E
100
AcDbEntity
  8
LY_1
  6
CONTINUOUS
 62
   130
100
AcDbLine
 10
29618.860966
 20
11944.176537
 30
0.0
 11
29618.860966
 21
10884.157395
 31
0.0
  0
LINE
  5
81F
100
AcDbEntity
  8
LY_1
  6
CENTER
 62
   140
100
AcDbLine
 10
29394.865331
 20
10651.673636
 30
0.0
 11
29394.865331
 21
12176.678607
 31
0.0
  0
LINE
  5
820
100
AcDbEntity
  8
LY_1
  6
CONTINUOUS
 62
   130
100
AcDbLine
 10
29170.8697
 20
11944.176537
 30
0.0
 11
29170.8697
 21
10884.157395
 31
0.0
  0
LINE
  5
821
100
AcDbEntity
  8
LY_1
  6
CONTINUOUS
 62
   220
100
AcDbLine
 10
29829.705031
 20
10759.962687
 30
0.0
 11
29810.190735
 21
10780.054109
 31
0.0
  0
LINE
  5
822
100
AcDbEntity
  8
LY_1
  6
CONTINUOUS
 62
   220
100
AcDbLine
 10
29745.57009
 20
10727.052185
 30
0.0
 11
29424.586271
 21
11057.528938
 31
0.0
  0
ARC
  5
823
100
AcDbEntity
  8
LY_1
  6
CONTINUOUS
 62
   130
100
AcDbCircle
 10
29394.875493
 20
11287.664344
 30
0.0
 40
615.990892
100
AcDbArc
 50
252.817544
 51
270.003044
  0
ARC
  5
824
100
AcDbEntity
  8
LY_1
  6
CONTINUOUS
 62
   130
100
AcDbCircle
 10
29232.071328
 20
10718.10851
 30
0.0
 40
26.949527
100
AcDbArc
 50
193.82958
 51
224.659671
  0
ARC
  5
825
100
AcDbEntity
  8
LY_1
  6
CONTINUOUS
 62
   130
100
AcDbCircle
 10
28994.621932
 20
10715.165517
 30
0.0
 40
211.310023
100
AcDbArc
 50
359.051262
 51
11.879245
  0
LINE
  5
826
100
AcDbEntity
  8
LY_1
  6
CONTINUOUS
 62
   130
100
AcDbLine
 10
29172.901347
 20
10847.661648
 30
0.0
 11
29170.899108
 21
10884.157363
 31
0.0
  0
LINE
  5
827
100
AcDbEntity
  8
LY_1
  6
CONTINUOUS
 62
   130
100
AcDbLine
 10
29176.901612
 20
10842.159992
 30
0.0
 11
29172.901328
 21
10847.661691
 31
0.0
  0
LINE
  5
828
100
AcDbEntity
  8
LY_1
  6
CONTINUOUS
 62
   130
100
AcDbLine
 10
29190.40558
 20
10793.168007
 30
0.0
 11
29176.901623
 21
10842.159984
 31
0.0
  0
LINE
  5
829
100
AcDbEntity
  8
LY_1
  6
CONTINUOUS
 62
   130
100
AcDbLine
 10
29201.406499
 20
10758.663599
 30
0.0
 11
29190.405555
 21
10793.168001
 31
0.0
  0
LINE
  5
82A
100
AcDbEntity
  8
LY_1
  6
CONTINUOUS
 62
   220
100
AcDbLine
 10
29755.472145
 20
10726.907309
 30
0.0
 11
29745.57009
 21
10727.052185
 31
0.0
  0
ARC
  5
82B
100
AcDbEntity
  8
LY_1
  6
CONTINUOUS
 62
   130
100
AcDbCircle
 10
29394.869787
 20
11287.664344
 30
0.0
 40
615.990892
100
AcDbArc
 50
270.003576
 51
287.189078
  0
ARC
  5
82C
100
AcDbEntity
  8
LY_1
  6
CONTINUOUS
 62
   130
100
AcDbCircle
 10
29795.18948
 20
10715.211782
 30
0.0
 40
211.310023
100
AcDbArc
 50
168.127373
 51
180.955357
  0
ARC
  5
82D
100
AcDbEntity
  8
LY_1
  6
CONTINUOUS
 62
   130
100
AcDbCircle
 10
29557.739763
 20
10718.127309
 30
0.0
 40
26.949527
100
AcDbArc
 50
315.346948
 51
346.177038
  0
LINE
  5
82E
100
AcDbEntity
  8
LY_1
  6
CONTINUOUS
 62
   130
100
AcDbLine
 10
29588.39992
 20
10758.685978
 30
0.0
 11
29599.396868
 21
10793.191622
 31
0.0
  0
LINE
  5
82F
100
AcDbEntity
  8
LY_1
  6
CONTINUOUS
 62
   130
100
AcDbLine
 10
29599.396852
 20
10793.191619
 30
0.0
 11
29612.895156
 21
10842.185186
 31
0.0
  0
LINE
  5
830
100
AcDbEntity
  8
LY_1
  6
CONTINUOUS
 62
   130
100
AcDbLine
 10
29612.895151
 20
10842.18517
 30
0.0
 11
29616.894799
 21
10847.687331
 31
0.0
  0
LINE
  5
831
100
AcDbEntity
  8
LY_1
  6
CONTINUOUS
 62
   130
100
AcDbLine
 10
29616.894774
 20
10847.687289
 30
0.0
 11
29618.892796
 21
10884.183235
 31
0.0
  0
LINE
  5
832
100
AcDbEntity
  8
LY_1
  6
CONTINUOUS
 62
   220
100
AcDbLine
 10
29755.472145
 20
10726.907309
 30
0.0
 11
29810.190735
 21
10780.054109
 31
0.0
  0
LINE
  5
833
100
AcDbEntity
  8
LY_1
  6
CONTINUOUS
 62
   220
100
AcDbLine
 10
29424.729976
 20
11067.43101
 30
0.0
 11
29424.586271
 21
11057.528938
 31
0.0
  0
LINE
  5
834
100
AcDbEntity
  8
LY_1
  6
CONTINUOUS
 62
   220
100
AcDbLine
 10
29424.729976
 20
11067.43101
 30
0.0
 11
29476.708185
 21
11117.916147
 31
0.0
  0
LINE
  5
835
100
AcDbEntity
  8
LY_1
  6
CONTINUOUS
 62
   220
100
AcDbLine
 10
29478.819012
 20
11262.725637
 30
0.0
 11
29476.708185
 21
11117.916147
 31
0.0
  0
LINE
  5
836
100
AcDbEntity
  8
LY_1
  6
CONTINUOUS
 62
   220
100
AcDbLine
 10
30038.199881
 20
11805.942622
 30
0.0
 11
29754.372945
 21
12168.830714
 31
0.0
  0
LINE
  5
837
100
AcDbEntity
  8
LY_1
  6
CENTER
 62
   140
100
AcDbLine
 10
29150.869701
 20
11414.166387
 30
0.0
 11
29638.8551
 21
11414.180484
 31
0.0
  0
ARC
  5
838
100
AcDbEntity
  8
LY_1
  6
CONTINUOUS
 62
   130
100
AcDbCircle
 10
29394.8682
 20
11540.682527
 30
0.0
 40
615.990892
100
AcDbArc
 50
90.000268
 51
107.185762
  0
ARC
  5
839
100
AcDbEntity
  8
LY_1
  6
CONTINUOUS
 62
   130
100
AcDbCircle
 10
28994.581588
 20
12113.158222
 30
0.0
 40
211.310023
100
AcDbArc
 50
348.124066
 51
0.952049
  0
ARC
  5
83A
100
AcDbEntity
  8
LY_1
  6
CONTINUOUS
 62
   130
100
AcDbCircle
 10
29232.031106
 20
12110.228962
 30
0.0
 40
26.949527
100
AcDbArc
 50
135.34364
 51
166.173728
  0
LINE
  5
83B
100
AcDbEntity
  8
LY_1
  6
CONTINUOUS
 62
   130
100
AcDbLine
 10
29172.868592
 20
11980.672393
 30
0.0
 11
29170.868461
 21
11944.176563
 31
0.0
  0
LINE
  5
83C
100
AcDbEntity
  8
LY_1
  6
CONTINUOUS
 62
   130
100
AcDbLine
 10
29176.868571
 20
11986.174283
 30
0.0
 11
29172.868605
 21
11980.672353
 31
0.0
  0
LINE
  5
83D
100
AcDbEntity
  8
LY_1
  6
CONTINUOUS
 62
   130
100
AcDbLine
 10
29190.369696
 20
12035.167044
 30
0.0
 11
29176.86857
 21
11986.174286
 31
0.0
  0
LINE
  5
83E
100
AcDbEntity
  8
LY_1
  6
CONTINUOUS
 62
   130
100
AcDbLine
 10
29201.368598
 20
12069.672094
 30
0.0
 11
29190.369647
 21
12035.167057
 31
0.0
  0
LINE
  5
83F
100
AcDbEntity
  8
LY_1
  6
CONTINUOUS
 62
   220
100
AcDbLine
 10
29755.574077
 20
12178.660718
 30
0.0
 11
29754.372945
 21
12168.830714
 31
0.0
  0
ARC
  5
840
100
AcDbEntity
  8
LY_1
  6
CONTINUOUS
 62
   130
100
AcDbCircle
 10
29557.699548
 20
12110.228962
 30
0.0
 40
26.949527
100
AcDbArc
 50
13.826272
 51
44.65636
  0
ARC
  5
841
100
AcDbEntity
  8
LY_1
  6
CONTINUOUS
 62
   130
100
AcDbCircle
 10
29795.14909
 20
12113.158222
 30
0.0
 40
211.310023
100
AcDbArc
 50
179.047951
 51
191.875934
  0
ARC
  5
842
100
AcDbEntity
  8
LY_1
  6
CONTINUOUS
 62
   130
100
AcDbCircle
 10
29394.862462
 20
11540.682527
 30
0.0
 40
615.990892
100
AcDbArc
 50
72.814238
 51
89.999732
  0
LINE
  5
843
100
AcDbEntity
  8
LY_1
  6
CONTINUOUS
 62
   130
100
AcDbLine
 10
29616.862045
 20
11980.672403
 30
0.0
 11
29618.862175
 21
11944.176573
 31
0.0
  0
LINE
  5
844
100
AcDbEntity
  8
LY_1
  6
CONTINUOUS
 62
   130
100
AcDbLine
 10
29612.862098
 20
11986.174294
 30
0.0
 11
29616.862064
 21
11980.672364
 31
0.0
  0
LINE
  5
845
100
AcDbEntity
  8
LY_1
  6
CONTINUOUS
 62
   130
100
AcDbLine
 10
29599.360987
 20
12035.167036
 30
0.0
 11
29612.862105
 21
11986.174308
 31
0.0
  0
LINE
  5
846
100
AcDbEntity
  8
LY_1
  6
CONTINUOUS
 62
   130
100
AcDbLine
 10
29588.36204
 20
12069.672089
 30
0.0
 11
29599.360982
 21
12035.167081
 31
0.0
  0
LINE
  5
847
100
AcDbEntity
  8
LY_1
  6
CONTINUOUS
 62
   220
100
AcDbLine
 10
29755.574077
 20
12178.660718
 30
0.0
 11
29812.650022
 21
12223.301727
 31
0.0
  0
LINE
  5
848
100
AcDbEntity
  8
LY_1
  6
CONTINUOUS
 62
   220
100
AcDbLine
 10
30048.029742
 20
11804.740328
 30
0.0
 11
30038.199881
 21
11805.942622
 31
0.0
  0
LINE
  5
849
100
AcDbEntity
  8
LY_1
  6
CONTINUOUS
 62
   220
100
AcDbLine
 10
30048.029742
 20
11804.740328
 30
0.0
 11
30108.11483
 21
11851.734888
 31
0.0
  0
LINE
  5
84A
100
AcDbEntity
  8
LY_1
  6
CONTINUOUS
 62
   220
100
AcDbLine
 10
30125.370164
 20
11829.673011
 30
0.0
 11
30108.11483
 21
11851.734888
 31
0.0
  0
LINE
  5
84B
100
AcDbEntity
  8
LY_1
  6
CONTINUOUS
 62
   130
100
AcDbLine
 10
32309.461889
 20
8477.342551
 30
0.0
 11
32310.08205
 21
8513.552908
 31
0.0
  0
LINE
  5
84C
100
AcDbEntity
  8
LY_1
  6
CONTINUOUS
 62
   130
100
AcDbLine
 10
31873.515842
 20
8477.580262
 30
0.0
 11
31568.92232
 21
9492.89468
 31
0.0
  0
LINE
  5
84D
100
AcDbEntity
  8
LY_1
  6
CENTER
 62
   140
100
AcDbLine
 10
31716.667719
 20
9779.9383
 30
0.0
 11
32154.873612
 21
8319.248136
 31
0.0
  0
LINE
  5
84E
100
AcDbEntity
  8
LY_1
  6
CONTINUOUS
 62
   220
100
AcDbLine
 10
31560.732777
 20
5056.045807
 30
0.0
 11
31663.138935
 21
4953.638665
 31
0.0
  0
LINE
  5
84F
100
AcDbEntity
  8
LY_1
  6
CONTINUOUS
 62
   220
100
AcDbLine
 10
32130.843001
 20
4874.176301
 30
0.0
 11
31670.141908
 21
4874.176301
 31
0.0
  0
LINE
  5
850
100
AcDbEntity
  8
LY_1
  6
CONTINUOUS
 62
   220
100
AcDbLine
 10
31663.138935
 20
4881.178446
 30
0.0
 11
31670.141908
 21
4874.176301
 31
0.0
  0
LINE
  5
851
100
AcDbEntity
  8
LY_1
  6
CONTINUOUS
 62
   220
100
AcDbLine
 10
31663.138935
 20
4881.178446
 30
0.0
 11
31663.138935
 21
4953.638665
 31
0.0
  0
LINE
  5
852
100
AcDbEntity
  8
LY_1
  6
CONTINUOUS
 62
   220
100
AcDbLine
 10
32137.845975
 20
4881.178446
 30
0.0
 11
32130.843001
 21
4874.176301
 31
0.0
  0
LINE
  5
853
100
AcDbEntity
  8
LY_1
  6
CONTINUOUS
 62
   220
100
AcDbLine
 10
32137.845975
 20
4881.178446
 30
0.0
 11
32137.845975
 21
4957.458893
 31
0.0
  0
LINE
  5
854
100
AcDbEntity
  8
LY_1
  6
CONTINUOUS
 62
   220
100
AcDbLine
 10
32165.85442
 20
4957.458893
 30
0.0
 11
32137.845975
 21
4957.458893
 31
0.0
  0
LINE
  5
855
100
AcDbEntity
  8
LY_1
  6
CONTINUOUS
 62
   130
100
AcDbLine
 10
31959.266136
 20
6819.404488
 30
0.0
 11
31478.038342
 21
7763.893974
 31
0.0
  0
LINE
  5
856
100
AcDbEntity
  8
LY_1
  6
CENTER
 62
   140
100
AcDbLine
 10
31572.078036
 20
8072.729333
 30
0.0
 11
32264.40023
 21
6713.932019
 31
0.0
  0
LINE
  5
857
100
AcDbEntity
  8
LY_1
  6
CONTINUOUS
 62
   130
100
AcDbLine
 10
32358.431608
 20
7022.783691
 30
0.0
 11
31877.203814
 21
7967.273178
 31
0.0
  0
ARC
  5
858
100
AcDbEntity
  8
LY_1
  6
CONTINUOUS
 62
   130
100
AcDbCircle
 10
31975.673104
 20
7280.613287
 30
0.0
 40
615.990892
100
AcDbArc
 50
279.813581
 51
296.999075
  0
ARC
  5
859
100
AcDbEntity
  8
LY_1
  6
CONTINUOUS
 62
   130
100
AcDbCircle
 10
32089.146204
 20
6699.215907
 30
0.0
 40
26.949527
100
AcDbArc
 50
220.825616
 51
251.655703
  0
LINE
  5
85A
100
AcDbEntity
  8
LY_1
  6
CONTINUOUS
 62
   130
100
AcDbLine
 10
31977.615602
 20
6787.793713
 30
0.0
 11
31959.265075
 21
6819.403907
 31
0.0
  0
LINE
  5
85B
100
AcDbEntity
  8
LY_1
  6
CONTINUOUS
 62
   130
100
AcDbLine
 10
31983.677352
 20
6784.707361
 30
0.0
 11
31977.615567
 21
6787.79374
 31
0.0
  0
LINE
  5
85C
100
AcDbEntity
  8
LY_1
  6
CONTINUOUS
 62
   130
100
AcDbLine
 10
32017.948739
 20
6747.183491
 30
0.0
 11
31983.677352
 21
6784.707345
 31
0.0
  0
LINE
  5
85D
100
AcDbEntity
  8
LY_1
  6
CONTINUOUS
 62
   130
100
AcDbLine
 10
32043.413543
 20
6721.43239
 30
0.0
 11
32017.948764
 21
6747.183454
 31
0.0
  0
ARC
  5
85E
100
AcDbEntity
  8
LY_1
  6
CONTINUOUS
 62
   130
100
AcDbCircle
 10
31878.905704
 20
6588.808491
 30
0.0
 40
211.310023
100
AcDbArc
 50
26.047294
 51
38.875278
  0
ARC
  5
85F
100
AcDbEntity
  8
LY_1
  6
CONTINUOUS
 62
   130
100
AcDbCircle
 10
32592.220738
 20
6952.250355
 30
0.0
 40
211.310023
100
AcDbArc
 50
195.123409
 51
207.951392
  0
ARC
  5
860
100
AcDbEntity
  8
LY_1
  6
CONTINUOUS
 62
   130
100
AcDbCircle
 10
32379.320606
 20
6847.06296
 30
0.0
 40
26.949527
100
AcDbArc
 50
342.342983
 51
13.173071
  0
ARC
  5
861
100
AcDbEntity
  8
LY_1
  6
CONTINUOUS
 62
   130
100
AcDbCircle
 10
31975.667991
 20
7280.610683
 30
0.0
 40
615.990892
100
AcDbArc
 50
296.999611
 51
314.185105
  0
LINE
  5
862
100
AcDbEntity
  8
LY_1
  6
CONTINUOUS
 62
   130
100
AcDbLine
 10
32373.218971
 20
6989.357998
 30
0.0
 11
32358.432723
 21
7022.78423
 31
0.0
  0
LINE
  5
863
100
AcDbEntity
  8
LY_1
  6
CONTINUOUS
 62
   130
100
AcDbLine
 10
32372.152692
 20
6982.639838
 30
0.0
 11
32373.218941
 21
6989.358028
 31
0.0
  0
LINE
  5
864
100
AcDbEntity
  8
LY_1
  6
CONTINUOUS
 62
   130
100
AcDbLine
 10
32382.364779
 20
6932.857469
 30
0.0
 11
32372.152694
 21
6982.639835
 31
0.0
  0
LINE
  5
865
100
AcDbEntity
  8
LY_1
  6
CONTINUOUS
 62
   130
100
AcDbLine
 10
32388.229241
 20
6897.119779
 30
0.0
 11
32382.364829
 21
6932.857479
 31
0.0
  0
LINE
  5
866
100
AcDbEntity
  8
LY_1
  6
CENTER
 62
   140
100
AcDbLine
 10
32135.637682
 20
7504.108556
 30
0.0
 11
31700.843368
 21
7282.560244
 31
0.0
  0
LINE
  5
867
100
AcDbEntity
  8
LY_1
  6
CENTER
 62
   140
100
AcDbLine
 10
31684.363464
 20
7408.12161
 30
0.0
 11
31684.363464
 21
7103.037697
 31
0.0
  0
ARC
  5
868
100
AcDbEntity
  8
LY_1
  6
CONTINUOUS
 62
   130
100
AcDbCircle
 10
31860.796225
 20
7506.04954
 30
0.0
 40
615.990892
100
AcDbArc
 50
99.816887
 51
117.002387
  0
ARC
  5
869
100
AcDbEntity
  8
LY_1
  6
CONTINUOUS
 62
   130
100
AcDbCircle
 10
31860.80131
 20
7506.05213
 30
0.0
 40
615.990892
100
AcDbArc
 50
117.00292
 51
134.188421
  0
ARC
  5
86A
100
AcDbEntity
  8
LY_1
  6
CONTINUOUS
 62
   130
100
AcDbCircle
 10
31244.22959
 20
7834.376828
 30
0.0
 40
211.310023
100
AcDbArc
 50
15.126717
 51
27.9547
  0
ARC
  5
86B
100
AcDbEntity
  8
LY_1
  6
CONTINUOUS
 62
   130
100
AcDbCircle
 10
31457.123665
 20
7939.57655
 30
0.0
 40
26.949527
100
AcDbArc
 50
162.346291
 51
193.176382
  0
LINE
  5
86C
100
AcDbEntity
  8
LY_1
  6
CONTINUOUS
 62
   130
100
AcDbLine
 10
31448.217941
 20
7889.519193
 30
0.0
 11
31454.084414
 21
7853.781862
 31
0.0
  0
LINE
  5
86D
100
AcDbEntity
  8
LY_1
  6
CONTINUOUS
 62
   130
100
AcDbLine
 10
31454.084426
 20
7853.781872
 30
0.0
 11
31464.299393
 21
7804.000066
 31
0.0
  0
LINE
  5
86E
100
AcDbEntity
  8
LY_1
  6
CONTINUOUS
 62
   130
100
AcDbLine
 10
31464.299391
 20
7804.000082
 30
0.0
 11
31463.233529
 21
7797.28183
 31
0.0
  0
LINE
  5
86F
100
AcDbEntity
  8
LY_1
  6
CONTINUOUS
 62
   130
100
AcDbLine
 10
31463.233533
 20
7797.28188
 30
0.0
 11
31478.021712
 21
7763.856501
 31
0.0
  0
LINE
  5
870
100
AcDbEntity
  8
LY_1
  6
CONTINUOUS
 62
   130
100
AcDbLine
 10
31818.489727
 20
8039.476886
 30
0.0
 11
31852.763303
 21
8001.95499
 31
0.0
  0
LINE
  5
871
100
AcDbEntity
  8
LY_1
  6
CONTINUOUS
 62
   130
100
AcDbLine
 10
31858.825243
 20
7998.868989
 30
0.0
 11
31877.177596
 21
7967.259856
 31
0.0
  0
LINE
  5
872
100
AcDbEntity
  8
LY_1
  6
CONTINUOUS
 62
   130
100
AcDbLine
 10
31852.763316
 20
8001.954988
 30
0.0
 11
31858.825279
 21
7998.86896
 31
0.0
  0
ARC
  5
873
100
AcDbEntity
  8
LY_1
  6
CONTINUOUS
 62
   130
100
AcDbCircle
 10
31972.124673
 20
8928.422855
 30
0.0
 40
615.990892
100
AcDbArc
 50
269.513441
 51
286.698934
  0
ARC
  5
874
100
AcDbEntity
  8
LY_1
  6
CONTINUOUS
 62
   130
100
AcDbCircle
 10
31979.812566
 20
8336.105411
 30
0.0
 40
26.949527
100
AcDbArc
 50
210.525475
 51
241.355562
  0
ARC
  5
875
100
AcDbEntity
  8
LY_1
  6
CONTINUOUS
 62
   130
100
AcDbCircle
 10
31753.218819
 20
8265.06923
 30
0.0
 40
211.310023
100
AcDbArc
 50
15.747154
 51
28.575137
  0
LINE
  5
876
100
AcDbEntity
  8
LY_1
  6
CONTINUOUS
 62
   130
100
AcDbLine
 10
31885.917446
 20
8443.197939
 30
0.0
 11
31873.514694
 21
8477.57988
 31
0.0
  0
LINE
  5
877
100
AcDbEntity
  8
LY_1
  6
CONTINUOUS
 62
   130
100
AcDbLine
 10
31891.329654
 20
8439.077455
 30
0.0
 11
31885.917416
 21
8443.197971
 31
0.0
  0
LINE
  5
878
100
AcDbEntity
  8
LY_1
  6
CONTINUOUS
 62
   130
100
AcDbLine
 10
31918.339302
 20
8396.030415
 30
0.0
 11
31891.329651
 21
8439.07744
 31
0.0
  0
LINE
  5
879
100
AcDbEntity
  8
LY_1
  6
CONTINUOUS
 62
   130
100
AcDbLine
 10
31938.789315
 20
8366.141078
 30
0.0
 11
31918.33932
 21
8396.030374
 31
0.0
  0
ARC
  5
87A
100
AcDbEntity
  8
LY_1
  6
CONTINUOUS
 62
   130
100
AcDbCircle
 10
31747.289525
 20
8087.440349
 30
0.0
 40
26.949527
100
AcDbArc
 50
40.828923
 51
71.659014
  0
ARC
  5
87B
100
AcDbEntity
  8
LY_1
  6
CONTINUOUS
 62
   130
100
AcDbCircle
 10
31957.523661
 20
8197.859936
 30
0.0
 40
211.310023
100
AcDbArc
 50
206.050605
 51
218.878588
  0
LINE
  5
87C
100
AcDbEntity
  8
LY_1
  6
CONTINUOUS
 62
   130
100
AcDbLine
 10
31793.023458
 20
8065.226517
 30
0.0
 11
31818.489746
 21
8039.476902
 31
0.0
  0
ARC
  5
87D
100
AcDbEntity
  8
LY_1
  6
CONTINUOUS
 62
   130
100
AcDbCircle
 10
32520.023583
 20
8495.110052
 30
0.0
 40
211.310023
100
AcDbArc
 50
184.823268
 51
197.651252
  0
ARC
  5
87E
100
AcDbEntity
  8
LY_1
  6
CONTINUOUS
 62
   130
100
AcDbCircle
 10
32291.746428
 20
8429.685323
 30
0.0
 40
26.949527
100
AcDbArc
 50
332.042843
 51
2.87293
  0
ARC
  5
87F
100
AcDbEntity
  8
LY_1
  6
CONTINUOUS
 62
   130
100
AcDbCircle
 10
31972.119178
 20
8928.421207
 30
0.0
 40
615.990892
100
AcDbArc
 50
286.699471
 51
303.884964
  0
LINE
  5
880
100
AcDbEntity
  8
LY_1
  6
CONTINUOUS
 62
   130
100
AcDbLine
 10
32302.613745
 20
8606.309294
 30
0.0
 11
31998.020224
 21
9621.623711
 31
0.0
  0
LINE
  5
881
100
AcDbEntity
  8
LY_1
  6
CENTER
 62
   140
100
AcDbLine
 10
31684.363464
 20
9108.123004
 30
0.0
 11
31684.363464
 21
8803.039091
 31
0.0
  0
LINE
  5
882
100
AcDbEntity
  8
LY_1
  6
CONTINUOUS
 62
   130
100
AcDbLine
 10
32311.186136
 20
8570.778219
 30
0.0
 11
32302.614939
 21
8606.309625
 31
0.0
  0
LINE
  5
883
100
AcDbEntity
  8
LY_1
  6
CONTINUOUS
 62
   130
100
AcDbLine
 10
32308.935802
 20
8564.358981
 30
0.0
 11
32311.186112
 21
8570.778254
 31
0.0
  0
LINE
  5
884
100
AcDbEntity
  8
LY_1
  6
CONTINUOUS
 62
   130
100
AcDbLine
 10
32310.081999
 20
8513.552906
 30
0.0
 11
32308.935804
 21
8564.358978
 31
0.0
  0
LINE
  5
885
100
AcDbEntity
  8
LY_1
  6
CENTER
 62
   140
100
AcDbLine
 10
32169.473348
 20
9119.714
 30
0.0
 11
31702.072054
 21
8979.479265
 31
0.0
  0
ARC
  5
886
100
AcDbEntity
  8
LY_1
  6
CONTINUOUS
 62
   130
100
AcDbCircle
 10
31899.413594
 20
9170.768269
 30
0.0
 40
615.990892
100
AcDbArc
 50
106.702779
 51
123.88828
  0
ARC
  5
887
100
AcDbEntity
  8
LY_1
  6
CONTINUOUS
 62
   130
100
AcDbCircle
 10
31351.48415
 20
9604.047762
 30
0.0
 40
211.310023
100
AcDbArc
 50
4.826576
 51
17.654559
  0
ARC
  5
888
100
AcDbEntity
  8
LY_1
  6
CONTINUOUS
 62
   130
100
AcDbCircle
 10
31579.757549
 20
9669.485701
 30
0.0
 40
26.949527
100
AcDbArc
 50
152.04615
 51
182.876241
  0
LINE
  5
889
100
AcDbEntity
  8
LY_1
  6
CONTINUOUS
 62
   130
100
AcDbLine
 10
31562.044857
 20
9621.827423
 30
0.0
 11
31561.426789
 21
9585.617061
 31
0.0
  0
LINE
  5
88A
100
AcDbEntity
  8
LY_1
  6
CONTINUOUS
 62
   130
100
AcDbLine
 10
31561.426803
 20
9585.617069
 30
0.0
 11
31562.575934
 21
9534.811033
 31
0.0
  0
LINE
  5
88B
100
AcDbEntity
  8
LY_1
  6
CONTINUOUS
 62
   130
100
AcDbLine
 10
31562.575935
 20
9534.811049
 30
0.0
 11
31560.325996
 21
9528.391646
 31
0.0
  0
LINE
  5
88C
100
AcDbEntity
  8
LY_1
  6
CONTINUOUS
 62
   130
100
AcDbLine
 10
31560.326008
 20
9528.391694
 30
0.0
 11
31568.899257
 21
9492.860784
 31
0.0
  0
ARC
  5
88D
100
AcDbEntity
  8
LY_1
  6
CONTINUOUS
 62
   130
100
AcDbCircle
 10
31891.686002
 20
9763.083617
 30
0.0
 40
26.949527
100
AcDbArc
 50
30.528783
 51
61.358874
  0
ARC
  5
88E
100
AcDbEntity
  8
LY_1
  6
CONTINUOUS
 62
   130
100
AcDbCircle
 10
32118.275664
 20
9834.132911
 30
0.0
 40
211.310023
100
AcDbArc
 50
195.750465
 51
208.578448
  0
ARC
  5
88F
100
AcDbEntity
  8
LY_1
  6
CONTINUOUS
 62
   130
100
AcDbCircle
 10
31899.408128
 20
9170.76663
 30
0.0
 40
615.990892
100
AcDbArc
 50
89.516747
 51
106.702247
  0
LINE
  5
890
100
AcDbEntity
  8
LY_1
  6
CONTINUOUS
 62
   130
100
AcDbLine
 10
31985.587308
 20
9655.996517
 30
0.0
 11
31997.992047
 21
9621.615292
 31
0.0
  0
LINE
  5
891
100
AcDbEntity
  8
LY_1
  6
CONTINUOUS
 62
   130
100
AcDbLine
 10
31980.174862
 20
9660.116684
 30
0.0
 11
31985.587338
 21
9655.996481
 31
0.0
  0
LINE
  5
892
100
AcDbEntity
  8
LY_1
  6
CONTINUOUS
 62
   130
100
AcDbLine
 10
31953.162695
 20
9703.162178
 30
0.0
 11
31980.17485
 21
9660.116688
 31
0.0
  0
LINE
  5
893
100
AcDbEntity
  8
LY_1
  6
CONTINUOUS
 62
   130
100
AcDbLine
 10
31932.710978
 20
9733.050331
 30
0.0
 11
31953.162717
 21
9703.162191
 31
0.0
  0
LINE
  5
894
100
AcDbEntity
  8
LY_1
  6
CONTINUOUS
 62
   130
100
AcDbLine
 10
31722.84379
 20
10884.170335
 30
0.0
 11
31722.84379
 21
11944.189476
 31
0.0
  0
LINE
  5
895
100
AcDbEntity
  8
LY_1
  6
CENTER
 62
   140
100
AcDbLine
 10
31946.839425
 20
12176.673236
 30
0.0
 11
31946.839425
 21
10651.668265
 31
0.0
  0
LINE
  5
896
100
AcDbEntity
  8
LY_1
  6
CONTINUOUS
 62
   130
100
AcDbLine
 10
32170.835056
 20
10884.170335
 30
0.0
 11
32170.835056
 21
11944.189476
 31
0.0
  0
ARC
  5
897
100
AcDbEntity
  8
LY_1
  6
CONTINUOUS
 62
   130
100
AcDbCircle
 10
31946.836557
 20
11287.664344
 30
0.0
 40
615.990892
100
AcDbArc
 50
270.000268
 51
287.185762
  0
ARC
  5
898
100
AcDbEntity
  8
LY_1
  6
CONTINUOUS
 62
   130
100
AcDbCircle
 10
31784.005208
 20
10718.117909
 30
0.0
 40
26.949527
100
AcDbArc
 50
193.826272
 51
224.65636
  0
ARC
  5
899
100
AcDbEntity
  8
LY_1
  6
CONTINUOUS
 62
   130
100
AcDbCircle
 10
31546.555666
 20
10715.188649
 30
0.0
 40
211.310023
100
AcDbArc
 50
359.047951
 51
11.875934
  0
ARC
  5
89A
100
AcDbEntity
  8
LY_1
  6
CONTINUOUS
 62
   130
100
AcDbCircle
 10
31946.842294
 20
11287.664344
 30
0.0
 40
615.990892
100
AcDbArc
 50
252.814238
 51
269.999732
  0
LINE
  5
89B
100
AcDbEntity
  8
LY_1
  6
CONTINUOUS
 62
   130
100
AcDbLine
 10
31724.842711
 20
10847.674468
 30
0.0
 11
31722.842581
 21
10884.170299
 31
0.0
  0
LINE
  5
89C
100
AcDbEntity
  8
LY_1
  6
CONTINUOUS
 62
   130
100
AcDbLine
 10
31728.842658
 20
10842.172578
 30
0.0
 11
31724.842692
 21
10847.674508
 31
0.0
  0
LINE
  5
89D
100
AcDbEntity
  8
LY_1
  6
CONTINUOUS
 62
   130
100
AcDbLine
 10
31742.343769
 20
10793.179835
 30
0.0
 11
31728.842651
 21
10842.172563
 31
0.0
  0
LINE
  5
89E
100
AcDbEntity
  8
LY_1
  6
CONTINUOUS
 62
   130
100
AcDbLine
 10
31753.342716
 20
10758.674783
 30
0.0
 11
31742.343774
 21
10793.179791
 31
0.0
  0
ARC
  5
89F
100
AcDbEntity
  8
LY_1
  6
CONTINUOUS
 62
   130
100
AcDbCircle
 10
32347.123169
 20
10715.188649
 30
0.0
 40
211.310023
100
AcDbArc
 50
168.124066
 51
180.952049
  0
ARC
  5
8A0
100
AcDbEntity
  8
LY_1
  6
CONTINUOUS
 62
   130
100
AcDbCircle
 10
32109.67365
 20
10718.117909
 30
0.0
 40
26.949527
100
AcDbArc
 50
315.34364
 51
346.173728
  0
LINE
  5
8A1
100
AcDbEntity
  8
LY_1
  6
CONTINUOUS
 62
   130
100
AcDbLine
 10
32168.836164
 20
10847.674478
 30
0.0
 11
32170.836295
 21
10884.170309
 31
0.0
  0
LINE
  5
8A2
100
AcDbEntity
  8
LY_1
  6
CONTINUOUS
 62
   130
100
AcDbLine
 10
32164.836185
 20
10842.172589
 30
0.0
 11
32168.836151
 21
10847.674519
 31
0.0
  0
LINE
  5
8A3
100
AcDbEntity
  8
LY_1
  6
CONTINUOUS
 62
   130
100
AcDbLine
 10
32151.33506
 20
10793.179828
 30
0.0
 11
32164.836186
 21
10842.172586
 31
0.0
  0
LINE
  5
8A4
100
AcDbEntity
  8
LY_1
  6
CONTINUOUS
 62
   130
100
AcDbLine
 10
32140.336158
 20
10758.674777
 30
0.0
 11
32151.335109
 21
10793.179815
 31
0.0
  0
ARC
  5
8A5
100
AcDbEntity
  8
LY_1
  6
CONTINUOUS
 62
   130
100
AcDbCircle
 10
31878.827228
 20
12847.184724
 30
0.0
 40
615.990892
100
AcDbArc
 50
247.599216
 51
264.784709
  0
LINE
  5
8A6
100
AcDbEntity
  8
LY_1
  6
CENTER
 62
   140
100
AcDbLine
 10
32190.835056
 20
11414.180484
 30
0.0
 11
31702.849656
 21
11414.166388
 31
0.0
  0
ARC
  5
8A7
100
AcDbEntity
  8
LY_1
  6
CONTINUOUS
 62
   130
100
AcDbCircle
 10
31946.829263
 20
11540.682527
 30
0.0
 40
615.990892
100
AcDbArc
 50
72.817544
 51
90.003044
  0
ARC
  5
8A8
100
AcDbEntity
  8
LY_1
  6
CONTINUOUS
 62
   130
100
AcDbCircle
 10
32030.744572
 20
12165.364429
 30
0.0
 40
211.310023
100
AcDbArc
 50
145.723013
 51
158.550996
  0
ARC
  5
8A9
100
AcDbEntity
  8
LY_1
  6
CONTINUOUS
 62
   130
100
AcDbCircle
 10
31812.329528
 20
12258.561655
 30
0.0
 40
26.949527
100
AcDbArc
 50
292.942587
 51
323.772675
  0
LINE
  5
8AA
100
AcDbEntity
  8
LY_1
  6
CONTINUOUS
 62
   130
100
AcDbLine
 10
31856.133924
 20
12284.372968
 30
0.0
 11
31879.452317
 21
12312.082661
 31
0.0
  0
ARC
  5
8AB
100
AcDbEntity
  8
LY_1
  6
CONTINUOUS
 62
   130
100
AcDbCircle
 10
31946.83497
 20
11540.682527
 30
0.0
 40
615.990892
100
AcDbArc
 50
90.003576
 51
107.189078
  0
ARC
  5
8AC
100
AcDbEntity
  8
LY_1
  6
CONTINUOUS
 62
   130
100
AcDbCircle
 10
31546.515276
 20
12113.13509
 30
0.0
 40
211.310023
100
AcDbArc
 50
348.127373
 51
0.955357
  0
ARC
  5
8AD
100
AcDbEntity
  8
LY_1
  6
CONTINUOUS
 62
   130
100
AcDbCircle
 10
31783.964993
 20
12110.219563
 30
0.0
 40
26.949527
100
AcDbArc
 50
135.346948
 51
166.177038
  0
LINE
  5
8AE
100
AcDbEntity
  8
LY_1
  6
CONTINUOUS
 62
   130
100
AcDbLine
 10
31753.304836
 20
12069.660894
 30
0.0
 11
31742.307888
 21
12035.15525
 31
0.0
  0
LINE
  5
8AF
100
AcDbEntity
  8
LY_1
  6
CONTINUOUS
 62
   130
100
AcDbLine
 10
31742.307904
 20
12035.155253
 30
0.0
 11
31728.8096
 21
11986.161686
 31
0.0
  0
LINE
  5
8B0
100
AcDbEntity
  8
LY_1
  6
CONTINUOUS
 62
   130
100
AcDbLine
 10
31728.809605
 20
11986.161701
 30
0.0
 11
31724.809957
 21
11980.65954
 31
0.0
  0
LINE
  5
8B1
100
AcDbEntity
  8
LY_1
  6
CONTINUOUS
 62
   130
100
AcDbLine
 10
31724.809982
 20
11980.659583
 30
0.0
 11
31722.81196
 21
11944.163637
 31
0.0
  0
ARC
  5
8B2
100
AcDbEntity
  8
LY_1
  6
CONTINUOUS
 62
   130
100
AcDbCircle
 10
32109.633428
 20
12110.238362
 30
0.0
 40
26.949527
100
AcDbArc
 50
13.82958
 51
44.659671
  0
ARC
  5
8B3
100
AcDbEntity
  8
LY_1
  6
CONTINUOUS
 62
   130
100
AcDbCircle
 10
32347.082824
 20
12113.181355
 30
0.0
 40
211.310023
100
AcDbArc
 50
179.051262
 51
191.879245
  0
LINE
  5
8B4
100
AcDbEntity
  8
LY_1
  6
CONTINUOUS
 62
   130
100
AcDbLine
 10
32168.803409
 20
11980.685224
 30
0.0
 11
32170.805648
 21
11944.189509
 31
0.0
  0
LINE
  5
8B5
100
AcDbEntity
  8
LY_1
  6
CONTINUOUS
 62
   130
100
AcDbLine
 10
32164.803144
 20
11986.18688
 30
0.0
 11
32168.803428
 21
11980.685181
 31
0.0
  0
LINE
  5
8B6
100
AcDbEntity
  8
LY_1
  6
CONTINUOUS
 62
   130
100
AcDbLine
 10
32151.299177
 20
12035.178865
 30
0.0
 11
32164.803133
 21
11986.186888
 31
0.0
  0
LINE
  5
8B7
100
AcDbEntity
  8
LY_1
  6
CONTINUOUS
 62
   130
100
AcDbLine
 10
32140.298257
 20
12069.683273
 30
0.0
 11
32151.299201
 21
12035.178871
 31
0.0
  0
LINE
  5
8B8
100
AcDbEntity
  8
LY_1
  6
CONTINUOUS
 62
   254
100
AcDbLine
 10
37720.725789
 20
10521.386881
 30
0.0
 11
37720.725789
 21
10848.108968
 31
0.0
  0
LINE
  5
8B9
100
AcDbEntity
  8
LY_1
  6
CONTINUOUS
 62
   220
100
AcDbLine
 10
29059.373111
 20
15392.347762
 30
0.0
 11
38940.061494
 21
21716.612949
 31
0.0
  0
LINE
  5
8BA
100
AcDbEntity
  8
LY_1
  6
CONTINUOUS
 62
   220
100
AcDbLine
 10
30671.258596
 20
12874.02544
 30
0.0
 11
40551.946979
 21
19198.290627
 31
0.0
  0
LINE
  5
8BB
100
AcDbEntity
  8
LY_1
  6
CENTER
 62
   230
100
AcDbLine
 10
29541.132144
 20
13925.688534
 30
0.0
 11
42455.293134
 21
22191.567953
 31
0.0
  0
LINE
  5
8BC
100
AcDbEntity
  8
LY_1
  6
CONTINUOUS
 62
   220
100
AcDbLine
 10
37866.402107
 20
21489.691176
 30
0.0
 11
38816.38927
 21
22232.707965
 31
0.0
  0
LINE
  5
8BD
100
AcDbEntity
  8
LY_1
  6
CENTER
 62
   230
100
AcDbLine
 10
28901.152086
 20
12770.136278
 30
0.0
 11
40978.73652
 21
22216.41972
 31
0.0
  0
LINE
  5
8BE
100
AcDbEntity
  8
LY_1
  6
CONTINUOUS
 62
   220
100
AcDbLine
 10
38551.048236
 20
22284.873211
 30
0.0
 11
37928.401826
 21
21680.112299
 31
0.0
  0
LINE
  5
8BF
100
AcDbEntity
  8
LY_1
  6
CONTINUOUS
 62
   220
100
AcDbLine
 10
38538.003668
 20
21643.395934
 30
0.0
 11
37648.826975
 21
20543.007022
 31
0.0
  0
LINE
  5
8C0
100
AcDbEntity
  8
LY_1
  6
CONTINUOUS
 62
   220
100
AcDbLine
 10
37859.624739
 20
22412.44678
 30
0.0
 11
38228.302409
 21
22114.534299
 31
0.0
  0
LINE
  5
8C1
100
AcDbEntity
  8
LY_1
  6
CONTINUOUS
 62
   254
100
AcDbLine
 10
45220.725789
 20
22517.167436
 30
0.0
 11
27422.500019
 21
22517.167436
 31
0.0
  0
LINE
  5
8C2
100
AcDbEntity
  8
LY_1
  6
CONTINUOUS
 62
   254
100
AcDbLine
 10
45220.725789
 20
15295.559325
 30
0.0
 11
34644.10813
 21
15295.559325
 31
0.0
  0
LINE
  5
8C3
100
AcDbEntity
  8
LY_1
  6
CONTINUOUS
 62
   220
100
AcDbLine
 10
28283.300325
 20
14184.858957
 30
0.0
 11
37523.919852
 21
21412.257094
 31
0.0
  0
LINE
  5
8C4
100
AcDbEntity
  8
LY_1
  6
CONTINUOUS
 62
   220
100
AcDbLine
 10
27746.482693
 20
12904.795274
 30
0.0
 11
36161.776572
 21
21078.360103
 31
0.0
  0
ARC
  5
8C5
100
AcDbEntity
  8
LY_1
  6
CONTINUOUS
 62
    52
100
AcDbCircle
 10
37720.725789
 20
10670.516654
 30
0.0
 40
11846.650782
100
AcDbArc
 50
90.0
 51
137.915173
  0
LINE
  5
8C6
100
AcDbEntity
  8
LY_1
  6
CONTINUOUS
 62
   220
100
AcDbLine
 10
37265.538379
 20
19184.045959
 30
0.0
 11
38023.549393
 21
20122.112512
 31
0.0
  0
LINE
  5
8C7
100
AcDbEntity
  8
LY_1
  6
CONTINUOUS
 62
   220
100
AcDbLine
 10
30448.857168
 20
19890.719622
 30
0.0
 11
30922.856188
 21
19890.719622
 31
0.0
  0
LINE
  5
8C8
100
AcDbEntity
  8
LY_1
  6
CENTER
 62
   230
100
AcDbLine
 10
28940.201051
 20
13064.173419
 30
0.0
 11
32401.504086
 21
13064.173419
 31
0.0
  0
LINE
  5
8C9
100
AcDbEntity
  8
LY_1
  6
CENTER
 62
   230
100
AcDbLine
 10
28940.201051
 20
15764.173692
 30
0.0
 11
32401.504086
 21
15764.173692
 31
0.0
  0
ARC
  5
8CA
100
AcDbEntity
  8
LY_1
  6
CONTINUOUS
 62
    52
100
AcDbCircle
 10
37720.725789
 20
10670.516654
 30
0.0
 40
9799.095451
100
AcDbArc
 50
116.291591
 51
154.952288
  0
LINE
  5
8CB
100
AcDbEntity
  8
LY_1
  6
CONTINUOUS
 62
   130
100
AcDbLine
 10
29962.307912
 20
16415.856744
 30
0.0
 11
29215.122621
 21
15196.599253
 31
0.0
  0
LINE
  5
8CC
100
AcDbEntity
  8
LY_1
  6
CONTINUOUS
 62
   130
100
AcDbLine
 10
29901.443744
 20
16236.19071
 30
0.0
 11
29347.572675
 21
15332.383502
 31
0.0
  0
LINE
  5
8CD
100
AcDbEntity
  8
LY_1
  6
CONTINUOUS
 62
   130
100
AcDbLine
 10
29651.927272
 20
16606.064186
 30
0.0
 11
28904.744341
 21
15386.810546
 31
0.0
  0
LINE
  5
8CE
100
AcDbEntity
  8
LY_1
  6
CENTER
 62
   140
100
AcDbLine
 10
29035.111432
 20
15251.200255
 30
0.0
 11
29831.942453
 21
16551.469685
 31
0.0
  0
LINE
  5
8CF
100
AcDbEntity
  8
LY_1
  6
CONTINUOUS
 62
   130
100
AcDbLine
 10
29519.471647
 20
16470.270824
 30
0.0
 11
28965.600577
 21
15566.463616
 31
0.0
  0
LINE
  5
8D0
100
AcDbEntity
  8
LY_1
  6
CONTINUOUS
 62
   220
100
AcDbLine
 10
29468.62358
 20
14935.833101
 30
0.0
 11
30428.077236
 21
13436.834829
 31
0.0
  0
LINE
  5
8D1
100
AcDbEntity
  8
LY_1
  6
CONTINUOUS
 62
   220
100
AcDbLine
 10
28733.756905
 20
13768.94977
 30
0.0
 11
29830.224772
 21
12367.056282
 31
0.0
  0
LINE
  5
8D2
100
AcDbEntity
  8
LY_1
  6
CONTINUOUS
 62
   220
100
AcDbLine
 10
27711.134694
 20
12821.65498
 30
0.0
 11
28032.118513
 21
12491.178226
 31
0.0
  0
LINE
  5
8D3
100
AcDbEntity
  8
LY_1
  6
CONTINUOUS
 62
   220
100
AcDbLine
 10
27711.278399
 20
12831.557051
 30
0.0
 11
27711.134694
 21
12821.65498
 31
0.0
  0
LINE
  5
8D4
100
AcDbEntity
  8
LY_1
  6
CONTINUOUS
 62
   220
100
AcDbLine
 10
27746.482693
 20
12904.795274
 30
0.0
 11
27765.996989
 21
12884.703852
 31
0.0
  0
LINE
  5
8D5
100
AcDbEntity
  8
LY_1
  6
CONTINUOUS
 62
   220
100
AcDbLine
 10
27711.278399
 20
12831.557051
 30
0.0
 11
27765.996989
 21
12884.703852
 31
0.0
  0
LINE
  5
8D6
100
AcDbEntity
  8
LY_1
  6
CONTINUOUS
 62
   220
100
AcDbLine
 10
28042.020568
 20
12491.03335
 30
0.0
 11
28032.118513
 21
12491.178226
 31
0.0
  0
LINE
  5
8D7
100
AcDbEntity
  8
LY_1
  6
CONTINUOUS
 62
   220
100
AcDbLine
 10
28042.020568
 20
12491.03335
 30
0.0
 11
28093.998777
 21
12541.518486
 31
0.0
  0
LINE
  5
8D8
100
AcDbEntity
  8
LY_1
  6
CONTINUOUS
 62
   220
100
AcDbLine
 10
28238.808288
 20
12539.409051
 30
0.0
 11
28093.998777
 21
12541.518486
 31
0.0
  0
LINE
  5
8D9
100
AcDbEntity
  8
LY_1
  6
CONTINUOUS
 62
   220
100
AcDbLine
 10
28239.269439
 20
14105.972516
 30
0.0
 11
28523.096374
 21
13743.084424
 31
0.0
  0
LINE
  5
8DA
100
AcDbEntity
  8
LY_1
  6
CONTINUOUS
 62
   220
100
AcDbLine
 10
28532.926235
 20
13741.882129
 30
0.0
 11
28523.096374
 21
13743.084424
 31
0.0
  0
LINE
  5
8DB
100
AcDbEntity
  8
LY_1
  6
CONTINUOUS
 62
   220
100
AcDbLine
 10
28532.926235
 20
13741.882129
 30
0.0
 11
28590.002181
 21
13786.523138
 31
0.0
  0
LINE
  5
8DC
100
AcDbEntity
  8
LY_1
  6
CONTINUOUS
 62
   220
100
AcDbLine
 10
28733.756905
 20
13768.94977
 30
0.0
 11
28590.002181
 21
13786.523138
 31
0.0
  0
LINE
  5
8DD
100
AcDbEntity
  8
LY_1
  6
CONTINUOUS
 62
   220
100
AcDbLine
 10
28240.47057
 20
14115.802519
 30
0.0
 11
28239.269439
 21
14105.972516
 31
0.0
  0
LINE
  5
8DE
100
AcDbEntity
  8
LY_1
  6
CONTINUOUS
 62
   220
100
AcDbLine
 10
28240.47057
 20
14115.802519
 30
0.0
 11
28300.555658
 21
14162.79708
 31
0.0
  0
LINE
  5
8DF
100
AcDbEntity
  8
LY_1
  6
CONTINUOUS
 62
   220
100
AcDbLine
 10
28283.300325
 20
14184.858957
 30
0.0
 11
28300.555658
 21
14162.79708
 31
0.0
  0
LINE
  5
8E0
100
AcDbEntity
  8
LY_1
  6
CONTINUOUS
 62
   220
100
AcDbLine
 10
30428.077236
 20
13436.834829
 30
0.0
 11
30397.03139
 21
13295.37671
 31
0.0
  0
LINE
  5
8E1
100
AcDbEntity
  8
LY_1
  6
CONTINUOUS
 62
   130
100
AcDbLine
 10
29722.042064
 20
13591.618119
 30
0.0
 11
29517.129044
 21
12551.593488
 31
0.0
  0
LINE
  5
8E2
100
AcDbEntity
  8
LY_1
  6
CONTINUOUS
 62
   130
100
AcDbLine
 10
29282.500991
 20
13678.219615
 30
0.0
 11
29077.58797
 21
12638.194984
 31
0.0
  0
LINE
  5
8E3
100
AcDbEntity
  8
LY_1
  6
CENTER
 62
   140
100
AcDbLine
 10
29252.416912
 20
12366.795679
 30
0.0
 11
29547.216659
 21
13863.035389
 31
0.0
  0
ARC
  5
8E4
100
AcDbEntity
  8
LY_1
  6
CONTINUOUS
 62
   130
100
AcDbCircle
 10
29375.365079
 20
12990.789212
 30
0.0
 40
615.990892
100
AcDbArc
 50
258.857521
 51
276.043023
  0
ARC
  5
8E5
100
AcDbEntity
  8
LY_1
  6
CONTINUOUS
 62
   130
100
AcDbCircle
 10
29105.536166
 20
12463.447251
 30
0.0
 40
26.949527
100
AcDbArc
 50
182.683525
 51
213.513616
  0
ARC
  5
8E6
100
AcDbEntity
  8
LY_1
  6
CONTINUOUS
 62
   130
100
AcDbCircle
 10
28871.996724
 20
12506.461274
 30
0.0
 40
211.310023
100
AcDbArc
 50
347.905207
 51
0.73319
  0
ARC
  5
8E7
100
AcDbEntity
  8
LY_1
  6
CONTINUOUS
 62
   130
100
AcDbCircle
 10
29375.370678
 20
12990.788109
 30
0.0
 40
615.990892
100
AcDbArc
 50
241.671489
 51
258.856989
  0
LINE
  5
8E8
100
AcDbEntity
  8
LY_1
  6
CONTINUOUS
 62
   130
100
AcDbLine
 10
29072.526278
 20
12601.994894
 30
0.0
 11
29077.616817
 21
12638.189267
 31
0.0
  0
LINE
  5
8E9
100
AcDbEntity
  8
LY_1
  6
CONTINUOUS
 62
   130
100
AcDbLine
 10
29075.38756
 20
12595.823719
 30
0.0
 11
29072.526267
 21
12601.99494
 31
0.0
  0
LINE
  5
8EA
100
AcDbEntity
  8
LY_1
  6
CONTINUOUS
 62
   130
100
AcDbLine
 10
29079.166136
 20
12545.14538
 30
0.0
 11
29075.387569
 21
12595.823709
 31
0.0
  0
LINE
  5
8EB
100
AcDbEntity
  8
LY_1
  6
CONTINUOUS
 62
   130
100
AcDbLine
 10
29083.289481
 20
12509.165212
 30
0.0
 11
29079.166111
 21
12545.145378
 31
0.0
  0
ARC
  5
8EC
100
AcDbEntity
  8
LY_1
  6
CONTINUOUS
 62
   130
100
AcDbCircle
 10
29657.472587
 20
12351.74841
 30
0.0
 40
211.310023
100
AcDbArc
 50
156.981318
 51
169.809301
  0
ARC
  5
8ED
100
AcDbEntity
  8
LY_1
  6
CONTINUOUS
 62
   130
100
AcDbCircle
 10
29425.065345
 20
12400.510509
 30
0.0
 40
26.949527
100
AcDbArc
 50
304.200892
 51
335.030983
  0
LINE
  5
8EE
100
AcDbEntity
  8
LY_1
  6
CONTINUOUS
 62
   130
100
AcDbLine
 10
29462.987602
 20
12434.377208
 30
0.0
 11
29480.44743
 21
12466.106165
 31
0.0
  0
LINE
  5
8EF
100
AcDbEntity
  8
LY_1
  6
CONTINUOUS
 62
   130
100
AcDbLine
 10
29480.447414
 20
12466.106166
 30
0.0
 11
29503.162087
 21
12511.56623
 31
0.0
  0
LINE
  5
8F0
100
AcDbEntity
  8
LY_1
  6
CONTINUOUS
 62
   130
100
AcDbLine
 10
29503.162079
 20
12511.566215
 30
0.0
 11
29508.149911
 21
12516.191418
 31
0.0
  0
LINE
  5
8F1
100
AcDbEntity
  8
LY_1
  6
CONTINUOUS
 62
   130
100
AcDbLine
 10
29508.149878
 20
12516.191381
 30
0.0
 11
29517.165268
 21
12551.612686
 31
0.0
  0
LINE
  5
8F2
100
AcDbEntity
  8
LY_1
  6
CENTER
 62
   140
100
AcDbLine
 10
29160.421617
 20
13162.072945
 30
0.0
 11
29639.205164
 21
13067.753987
 31
0.0
  0
LINE
  5
8F3
100
AcDbEntity
  8
LY_1
  6
CENTER
 62
   140
100
AcDbLine
 10
29657.341674
 20
13198.104205
 30
0.0
 11
29657.341674
 21
12893.020292
 31
0.0
  0
LINE
  5
8F4
100
AcDbEntity
  8
LY_1
  6
CONTINUOUS
 62
   220
100
AcDbLine
 10
30582.239707
 20
12858.616776
 30
0.0
 11
30333.879678
 21
13246.640993
 31
0.0
  0
LINE
  5
8F5
100
AcDbEntity
  8
LY_1
  6
CONTINUOUS
 62
   220
100
AcDbLine
 10
30591.912488
 20
12856.493337
 30
0.0
 11
30582.239707
 21
12858.616776
 31
0.0
  0
LINE
  5
8F6
100
AcDbEntity
  8
LY_1
  6
CONTINUOUS
 62
   220
100
AcDbLine
 10
30336.001972
 20
13256.314025
 30
0.0
 11
30333.879678
 21
13246.640993
 31
0.0
  0
LINE
  5
8F7
100
AcDbEntity
  8
LY_1
  6
CONTINUOUS
 62
   220
100
AcDbLine
 10
30336.001972
 20
13256.314025
 30
0.0
 11
30397.03139
 21
13295.37671
 31
0.0
  0
LINE
  5
8F8
100
AcDbEntity
  8
LY_1
  6
CONTINUOUS
 62
   220
100
AcDbLine
 10
30591.912488
 20
12856.493337
 30
0.0
 11
30656.159482
 21
12897.615475
 31
0.0
  0
LINE
  5
8F9
100
AcDbEntity
  8
LY_1
  6
CONTINUOUS
 62
   220
100
AcDbLine
 10
30671.258596
 20
12874.02544
 30
0.0
 11
30656.159482
 21
12897.615475
 31
0.0
  0
ARC
  5
8FA
100
AcDbEntity
  8
LY_1
  6
CONTINUOUS
 62
   130
100
AcDbCircle
 10
29424.26901
 20
13239.03628
 30
0.0
 40
615.990892
100
AcDbArc
 50
61.668183
 51
78.853677
  0
ARC
  5
8FB
100
AcDbEntity
  8
LY_1
  6
CONTINUOUS
 62
   130
100
AcDbCircle
 10
29142.20406
 20
13878.092275
 30
0.0
 40
211.310023
100
AcDbArc
 50
336.978011
 51
349.805994
  0
LINE
  5
8FC
100
AcDbEntity
  8
LY_1
  6
CONTINUOUS
 62
   130
100
AcDbLine
 10
29336.684237
 20
13795.452262
 30
0.0
 11
29319.222561
 21
13763.724287
 31
0.0
  0
LINE
  5
8FD
100
AcDbEntity
  8
LY_1
  6
CONTINUOUS
 62
   130
100
AcDbLine
 10
29291.517217
 20
13713.640665
 30
0.0
 11
29282.49978
 21
13678.21988
 31
0.0
  0
LINE
  5
8FE
100
AcDbEntity
  8
LY_1
  6
CONTINUOUS
 62
   130
100
AcDbLine
 10
29296.505321
 20
13718.265537
 30
0.0
 11
29291.517222
 21
13713.640623
 31
0.0
  0
LINE
  5
8FF
100
AcDbEntity
  8
LY_1
  6
CONTINUOUS
 62
   130
100
AcDbLine
 10
29319.222606
 20
13763.724265
 30
0.0
 11
29296.505321
 21
13718.26554
 31
0.0
  0
ARC
  5
900
100
AcDbEntity
  8
LY_1
  6
CONTINUOUS
 62
   130
100
AcDbCircle
 10
29694.134005
 20
13766.361552
 30
0.0
 40
26.949527
100
AcDbArc
 50
2.680217
 51
33.510305
  0
ARC
  5
901
100
AcDbEntity
  8
LY_1
  6
CONTINUOUS
 62
   130
100
AcDbCircle
 10
29927.670934
 20
13723.334027
 30
0.0
 40
211.310023
100
AcDbArc
 50
167.901896
 51
180.729879
  0
LINE
  5
902
100
AcDbEntity
  8
LY_1
  6
CONTINUOUS
 62
   130
100
AcDbLine
 10
29727.135888
 20
13627.811999
 30
0.0
 11
29722.043258
 21
13591.617921
 31
0.0
  0
LINE
  5
903
100
AcDbEntity
  8
LY_1
  6
CONTINUOUS
 62
   130
100
AcDbLine
 10
29724.274964
 20
13633.983343
 30
0.0
 11
29727.1359
 21
13627.811957
 31
0.0
  0
LINE
  5
904
100
AcDbEntity
  8
LY_1
  6
CONTINUOUS
 62
   130
100
AcDbLine
 10
29720.499337
 20
13684.661873
 30
0.0
 11
29724.274974
 21
13633.983356
 31
0.0
  0
LINE
  5
905
100
AcDbEntity
  8
LY_1
  6
CONTINUOUS
 62
   130
100
AcDbLine
 10
29716.378052
 20
13720.642292
 30
0.0
 11
29720.49934
 21
13684.661918
 31
0.0
  0
ARC
  5
906
100
AcDbEntity
  8
LY_1
  6
CONTINUOUS
 62
   130
100
AcDbCircle
 10
29424.274639
 20
13239.035171
 30
0.0
 40
615.990892
100
AcDbArc
 50
78.854213
 51
96.039707
  0
ARC
  5
907
100
AcDbEntity
  8
LY_1
  6
CONTINUOUS
 62
   130
100
AcDbCircle
 10
29374.608453
 20
13829.31674
 30
0.0
 40
26.949527
100
AcDbArc
 50
124.197585
 51
155.027672
  0
ARC
  5
908
100
AcDbEntity
  8
LY_1
  6
CONTINUOUS
 62
   130
100
AcDbCircle
 10
28931.020823
 20
15392.906382
 30
0.0
 40
26.949528
100
AcDbArc
 50
162.328783
 51
193.158874
  0
ARC
  5
909
100
AcDbEntity
  8
LY_1
  6
CONTINUOUS
 62
   130
100
AcDbCircle
 10
29367.431883
 20
15793.461555
 30
0.0
 40
615.990906
100
AcDbArc
 50
221.316747
 51
238.502247
  0
LINE
  5
90A
100
AcDbEntity
  8
LY_1
  6
CONTINUOUS
 62
   220
100
AcDbLine
 10
29008.102936
 20
15317.962557
 30
0.0
 11
29256.462964
 21
14929.93834
 31
0.0
  0
ARC
  5
90B
100
AcDbEntity
  8
LY_1
  6
CONTINUOUS
 62
   130
100
AcDbCircle
 10
29367.427017
 20
15793.464537
 30
0.0
 40
615.990906
100
AcDbArc
 50
238.502779
 51
255.68828
  0
LINE
  5
90C
100
AcDbEntity
  8
LY_1
  6
CONTINUOUS
 62
   130
100
AcDbLine
 10
29256.040459
 20
15241.318656
 30
0.0
 11
29283.446378
 21
15264.993284
 31
0.0
  0
LINE
  5
90D
100
AcDbEntity
  8
LY_1
  6
CONTINUOUS
 62
   220
100
AcDbLine
 10
29468.62358
 20
14935.833101
 30
0.0
 11
29327.165163
 21
14966.877587
 31
0.0
  0
LINE
  5
90E
100
AcDbEntity
  8
LY_1
  6
CONTINUOUS
 62
   220
100
AcDbLine
 10
29266.135745
 20
14927.814902
 30
0.0
 11
29256.462964
 21
14929.93834
 31
0.0
  0
ARC
  5
90F
100
AcDbEntity
  8
LY_1
  6
CONTINUOUS
 62
   130
100
AcDbCircle
 10
29409.640322
 20
15096.201422
 30
0.0
 40
211.310028
100
AcDbArc
 50
136.626576
 51
149.454559
  0
ARC
  5
910
100
AcDbEntity
  8
LY_1
  6
CONTINUOUS
 62
   130
100
AcDbCircle
 10
29208.706271
 20
15222.757253
 30
0.0
 40
26.949528
100
AcDbArc
 50
283.84615
 51
314.676241
  0
LINE
  5
911
100
AcDbEntity
  8
LY_1
  6
CONTINUOUS
 62
   220
100
AcDbLine
 10
29266.135745
 20
14927.814902
 30
0.0
 11
29327.165163
 21
14966.877587
 31
0.0
  0
LINE
  5
912
100
AcDbEntity
  8
LY_1
  6
CENTER
 62
   140
100
AcDbLine
 10
29657.341674
 20
15898.104478
 30
0.0
 11
29657.341674
 21
15593.020565
 31
0.0
  0
LINE
  5
913
100
AcDbEntity
  8
LY_1
  6
CONTINUOUS
 62
   130
100
AcDbLine
 10
29320.555098
 20
15299.713802
 30
0.0
 11
29326.840267
 21
15302.315268
 31
0.0
  0
LINE
  5
914
100
AcDbEntity
  8
LY_1
  6
CONTINUOUS
 62
   130
100
AcDbLine
 10
29326.840223
 20
15302.315245
 30
0.0
 11
29347.613315
 21
15332.388902
 31
0.0
  0
LINE
  5
915
100
AcDbEntity
  8
LY_1
  6
CONTINUOUS
 62
   220
100
AcDbLine
 10
29010.22523
 20
15327.635589
 30
0.0
 11
29008.102936
 21
15317.962557
 31
0.0
  0
LINE
  5
916
100
AcDbEntity
  8
LY_1
  6
CONTINUOUS
 62
   220
100
AcDbLine
 10
29010.22523
 20
15327.635589
 30
0.0
 11
29074.472224
 21
15368.757727
 31
0.0
  0
LINE
  5
917
100
AcDbEntity
  8
LY_1
  6
CONTINUOUS
 62
   220
100
AcDbLine
 10
29059.373111
 20
15392.347762
 30
0.0
 11
29074.472224
 21
15368.757727
 31
0.0
  0
ARC
  5
918
100
AcDbEntity
  8
LY_1
  6
CONTINUOUS
 62
   130
100
AcDbCircle
 10
28727.025908
 20
15514.466878
 30
0.0
 40
211.310028
100
AcDbArc
 50
327.550465
 51
340.378448
  0
LINE
  5
919
100
AcDbEntity
  8
LY_1
  6
CONTINUOUS
 62
   130
100
AcDbLine
 10
28948.263417
 20
15534.284584
 30
0.0
 11
28965.625634
 21
15566.448223
 31
0.0
  0
LINE
  5
91A
100
AcDbEntity
  8
LY_1
  6
CONTINUOUS
 62
   130
100
AcDbLine
 10
28948.799502
 20
15527.503511
 30
0.0
 11
28948.263423
 21
15534.284631
 31
0.0
  0
LINE
  5
91B
100
AcDbEntity
  8
LY_1
  6
CONTINUOUS
 62
   130
100
AcDbLine
 10
28934.714605
 20
15478.675368
 30
0.0
 11
28948.799507
 21
15527.503498
 31
0.0
  0
LINE
  5
91C
100
AcDbEntity
  8
LY_1
  6
CONTINUOUS
 62
   130
100
AcDbLine
 10
28926.065438
 20
15443.507678
 30
0.0
 11
28934.714582
 21
15478.675375
 31
0.0
  0
LINE
  5
91D
100
AcDbEntity
  8
LY_1
  6
CONTINUOUS
 62
   130
100
AcDbLine
 10
29283.446363
 20
15264.99329
 30
0.0
 11
29320.555111
 21
15299.713813
 31
0.0
  0
LINE
  5
91E
100
AcDbEntity
  8
LY_1
  6
CENTER
 62
   140
100
AcDbLine
 10
29225.483152
 20
16028.816935
 30
0.0
 11
29641.56293
 21
15773.851488
 31
0.0
  0
LINE
  5
91F
100
AcDbEntity
  8
LY_1
  6
CONTINUOUS
 62
   220
100
AcDbLine
 10
29325.852061
 20
17006.272657
 30
0.0
 11
29325.852061
 21
18212.319736
 31
0.0
  0
ARC
  5
920
100
AcDbEntity
  8
LY_1
  6
CONTINUOUS
 62
   130
100
AcDbCircle
 10
29499.630307
 20
16009.196996
 30
0.0
 40
615.990906
100
AcDbArc
 50
58.499471
 51
75.684964
  0
LINE
  5
921
100
AcDbEntity
  8
LY_1
  6
CONTINUOUS
 62
   220
100
AcDbLine
 10
29205.851638
 20
16688.798675
 30
0.0
 11
29205.851638
 21
16878.570806
 31
0.0
  0
LINE
  5
922
100
AcDbEntity
  8
LY_1
  6
CONTINUOUS
 62
   220
100
AcDbLine
 10
29175.850718
 20
16688.798675
 30
0.0
 11
29205.851638
 21
16688.798675
 31
0.0
  0
ARC
  5
923
100
AcDbEntity
  8
LY_1
  6
CONTINUOUS
 62
   130
100
AcDbCircle
 10
29457.457295
 20
16706.46255
 30
0.0
 40
211.310028
100
AcDbArc
 50
316.623268
 51
329.451252
  0
ARC
  5
924
100
AcDbEntity
  8
LY_1
  6
CONTINUOUS
 62
   130
100
AcDbCircle
 10
29658.384001
 20
16579.895114
 30
0.0
 40
26.949528
100
AcDbArc
 50
103.842843
 51
134.67293
  0
LINE
  5
925
100
AcDbEntity
  8
LY_1
  6
CONTINUOUS
 62
   130
100
AcDbLine
 10
29540.245434
 20
16500.34395
 30
0.0
 11
29519.470604
 21
16470.271493
 31
0.0
  0
LINE
  5
926
100
AcDbEntity
  8
LY_1
  6
CONTINUOUS
 62
   130
100
AcDbLine
 10
29546.530743
 20
16502.945011
 30
0.0
 11
29540.245424
 21
16500.343909
 31
0.0
  0
LINE
  5
927
100
AcDbEntity
  8
LY_1
  6
CONTINUOUS
 62
   130
100
AcDbLine
 10
29583.641475
 20
16537.663373
 30
0.0
 11
29546.530744
 21
16502.945015
 31
0.0
  0
LINE
  5
928
100
AcDbEntity
  8
LY_1
  6
CONTINUOUS
 62
   130
100
AcDbLine
 10
29611.04875
 20
16561.336474
 30
0.0
 11
29583.64144
 21
16537.66341
 31
0.0
  0
LINE
  5
929
100
AcDbEntity
  8
LY_1
  6
CONTINUOUS
 62
   220
100
AcDbLine
 10
29208.063242
 20
16880.924347
 30
0.0
 11
29324.371592
 21
17004.697174
 31
0.0
  0
ARC
  5
92A
100
AcDbEntity
  8
LY_1
  6
CONTINUOUS
 62
   130
100
AcDbCircle
 10
29936.059633
 20
16409.729952
 30
0.0
 40
26.949528
100
AcDbArc
 50
342.325475
 51
13.155563
  0
ARC
  5
92B
100
AcDbEntity
  8
LY_1
  6
CONTINUOUS
 62
   130
100
AcDbCircle
 10
30140.047496
 20
16288.157671
 30
0.0
 40
211.310028
100
AcDbArc
 50
147.547154
 51
160.375137
  0
ARC
  5
92C
100
AcDbEntity
  8
LY_1
  6
CONTINUOUS
 62
   130
100
AcDbCircle
 10
29499.625415
 20
16009.199994
 30
0.0
 40
615.990906
100
AcDbArc
 50
41.313441
 51
58.498934
  0
LINE
  5
92D
100
AcDbEntity
  8
LY_1
  6
CONTINUOUS
 62
   130
100
AcDbLine
 10
29918.80887
 20
16268.352744
 30
0.0
 11
29901.444794
 21
16236.190108
 31
0.0
  0
LINE
  5
92E
100
AcDbEntity
  8
LY_1
  6
CONTINUOUS
 62
   130
100
AcDbLine
 10
29918.273179
 20
16275.133851
 30
0.0
 11
29918.808866
 21
16268.3527
 31
0.0
  0
LINE
  5
92F
100
AcDbEntity
  8
LY_1
  6
CONTINUOUS
 62
   130
100
AcDbLine
 10
29932.360907
 20
16323.961146
 30
0.0
 11
29918.273192
 21
16275.133859
 31
0.0
  0
LINE
  5
930
100
AcDbEntity
  8
LY_1
  6
CONTINUOUS
 62
   130
100
AcDbLine
 10
29941.012093
 20
16359.128355
 30
0.0
 11
29932.360926
 21
16323.961187
 31
0.0
  0
LINE
  5
931
100
AcDbEntity
  8
LY_1
  6
CONTINUOUS
 62
   220
100
AcDbLine
 10
29975.052228
 20
19243.318182
 30
0.0
 11
29975.052228
 21
18375.318002
 31
0.0
  0
LINE
  5
932
100
AcDbEntity
  8
LY_1
  6
CONTINUOUS
 62
   220
100
AcDbLine
 10
29417.708626
 20
18304.176301
 30
0.0
 11
30031.839855
 21
18304.176301
 31
0.0
  0
ARC
  5
933
100
AcDbEntity
  8
LY_1
  6
CONTINUOUS
 62
   220
100
AcDbCircle
 10
29417.708626
 20
18212.319736
 30
0.0
 40
91.856565
100
AcDbArc
 50
90.0
 51
180.0
  0
LINE
  5
934
100
AcDbEntity
  8
LY_1
  6
CONTINUOUS
 62
   220
100
AcDbLine
 10
29975.052228
 20
18375.318002
 30
0.0
 11
30031.839855
 21
18375.318002
 31
0.0
  0
LINE
  5
935
100
AcDbEntity
  8
LY_1
  6
CONTINUOUS
 62
   220
100
AcDbLine
 10
30031.839855
 20
18375.318002
 30
0.0
 11
30031.839855
 21
18304.176301
 31
0.0
  0
LINE
  5
936
100
AcDbEntity
  8
LY_1
  6
CONTINUOUS
 62
   220
100
AcDbLine
 10
30301.357168
 20
19675.53121
 30
0.0
 11
30301.357168
 21
19519.314282
 31
0.0
  0
LINE
  5
937
100
AcDbEntity
  8
LY_1
  6
CONTINUOUS
 62
   220
100
AcDbLine
 10
30058.857168
 20
19384.814302
 30
0.0
 11
30291.856428
 21
19384.814302
 31
0.0
  0
LINE
  5
938
100
AcDbEntity
  8
LY_1
  6
CONTINUOUS
 62
   220
100
AcDbLine
 10
30271.856428
 20
19322.318122
 30
0.0
 11
30271.856428
 21
19243.318182
 31
0.0
  0
LINE
  5
939
100
AcDbEntity
  8
LY_1
  6
CONTINUOUS
 62
   220
100
AcDbLine
 10
30012.856188
 20
19372.318122
 30
0.0
 11
30012.856188
 21
19322.318122
 31
0.0
  0
LINE
  5
93A
100
AcDbEntity
  8
LY_1
  6
CONTINUOUS
 62
   220
100
AcDbLine
 10
30058.857168
 20
19384.814302
 30
0.0
 11
30058.857168
 21
19372.318122
 31
0.0
  0
LINE
  5
93B
100
AcDbEntity
  8
LY_1
  6
CONTINUOUS
 62
   220
100
AcDbLine
 10
30012.856188
 20
19372.318122
 30
0.0
 11
30058.857168
 21
19372.318122
 31
0.0
  0
LINE
  5
93C
100
AcDbEntity
  8
LY_1
  6
CONTINUOUS
 62
   220
100
AcDbLine
 10
29975.052228
 20
19243.318182
 30
0.0
 11
30271.856428
 21
19243.318182
 31
0.0
  0
LINE
  5
93D
100
AcDbEntity
  8
LY_1
  6
CONTINUOUS
 62
   220
100
AcDbLine
 10
30012.856188
 20
19322.318122
 30
0.0
 11
30271.856428
 21
19322.318122
 31
0.0
  0
LINE
  5
93E
100
AcDbEntity
  8
LY_1
  6
CONTINUOUS
 62
   220
100
AcDbLine
 10
30291.856428
 20
19519.314282
 30
0.0
 11
30291.856428
 21
19384.814302
 31
0.0
  0
LINE
  5
93F
100
AcDbEntity
  8
LY_1
  6
CONTINUOUS
 62
   220
100
AcDbLine
 10
30301.357168
 20
19519.314282
 30
0.0
 11
30291.856428
 21
19519.314282
 31
0.0
  0
LINE
  5
940
100
AcDbEntity
  8
LY_1
  6
CONTINUOUS
 62
   220
100
AcDbLine
 10
30265.856688
 20
19769.315342
 30
0.0
 11
30340.28632
 21
19678.345403
 31
0.0
  0
ARC
  5
941
100
AcDbEntity
  8
LY_1
  6
CONTINUOUS
 62
   220
100
AcDbCircle
 10
30315.856185
 20
19834.315562
 30
0.0
 40
64.999612
100
AcDbArc
 50
50.290241
 51
219.715419
  0
LINE
  5
942
100
AcDbEntity
  8
LY_1
  6
CONTINUOUS
 62
   220
100
AcDbLine
 10
30265.856688
 20
19792.782444
 30
0.0
 11
30265.856688
 21
19769.315342
 31
0.0
  0
LINE
  5
943
100
AcDbEntity
  8
LY_1
  6
CONTINUOUS
 62
   220
100
AcDbLine
 10
30385.856688
 20
19884.319162
 30
0.0
 11
30440.856688
 21
19830.969306
 31
0.0
  0
LINE
  5
944
100
AcDbEntity
  8
LY_1
  6
CONTINUOUS
 62
   220
100
AcDbLine
 10
30385.856688
 20
19884.319162
 30
0.0
 11
30357.389826
 21
19884.319162
 31
0.0
  0
LINE
  5
945
100
AcDbEntity
  8
LY_1
  6
CONTINUOUS
 62
   220
100
AcDbLine
 10
30448.857188
 20
19905.536962
 30
0.0
 11
30448.857188
 21
19890.719622
 31
0.0
  0
LINE
  5
946
100
AcDbEntity
  8
LY_1
  6
CONTINUOUS
 62
   220
100
AcDbLine
 10
30448.857188
 20
19905.536962
 30
0.0
 11
30440.856688
 21
19905.536962
 31
0.0
  0
LINE
  5
947
100
AcDbEntity
  8
LY_1
  6
CONTINUOUS
 62
   220
100
AcDbLine
 10
30440.856688
 20
19905.536962
 30
0.0
 11
30440.856688
 21
19830.969306
 31
0.0
  0
LINE
  5
948
100
AcDbEntity
  8
LY_1
  6
CONTINUOUS
 62
   220
100
AcDbLine
 10
30301.357168
 20
19675.53121
 30
0.0
 11
30339.856928
 21
19678.314362
 31
0.0
  0
LINE
  5
949
100
AcDbEntity
  8
LY_1
  6
CONTINUOUS
 62
   130
100
AcDbLine
 10
32112.363837
 20
16217.819227
 30
0.0
 11
32071.563163
 21
16187.522712
 31
0.0
  0
ARC
  5
94A
100
AcDbEntity
  8
LY_1
  6
CONTINUOUS
 62
   130
100
AcDbCircle
 10
31969.098507
 20
15702.251925
 30
0.0
 40
615.990892
100
AcDbArc
 50
52.002793
 51
69.188294
  0
LINE
  5
94B
100
AcDbEntity
  8
LY_1
  6
CONTINUOUS
 62
   130
100
AcDbLine
 10
31307.584942
 20
15151.202827
 30
0.0
 11
32187.990793
 21
16278.039166
 31
0.0
  0
LINE
  5
94C
100
AcDbEntity
  8
LY_1
  6
CONTINUOUS
 62
   255
100
AcDbLine
 10
32165.85442
 20
12634.336863
 30
0.0
 11
34149.851012
 21
15089.605731
 31
0.0
  0
LINE
  5
94D
100
AcDbEntity
  8
LY_1
  6
CONTINUOUS
 62
   130
100
AcDbLine
 10
31517.970705
 20
12559.499575
 30
0.0
 11
31921.930603
 21
13539.528646
 31
0.0
  0
LINE
  5
94E
100
AcDbEntity
  8
LY_1
  6
CONTINUOUS
 62
   130
100
AcDbLine
 10
31932.156116
 20
12388.775765
 30
0.0
 11
32336.116014
 21
13368.804836
 31
0.0
  0
ARC
  5
94F
100
AcDbEntity
  8
LY_1
  6
CONTINUOUS
 62
   130
100
AcDbCircle
 10
31290.588668
 20
12470.450587
 30
0.0
 40
211.310023
100
AcDbArc
 50
336.646898
 51
349.474882
  0
LINE
  5
950
100
AcDbEntity
  8
LY_1
  6
CONTINUOUS
 62
   130
100
AcDbLine
 10
31505.910672
 20
12524.995958
 30
0.0
 11
31517.969573
 21
12559.500002
 31
0.0
  0
LINE
  5
951
100
AcDbEntity
  8
LY_1
  6
CONTINUOUS
 62
   130
100
AcDbLine
 10
31507.512078
 20
12518.384916
 30
0.0
 11
31505.910669
 21
12524.996002
 31
0.0
  0
LINE
  5
952
100
AcDbEntity
  8
LY_1
  6
CONTINUOUS
 62
   130
100
AcDbLine
 10
31501.323866
 20
12467.944111
 30
0.0
 11
31507.512066
 21
12518.384906
 31
0.0
  0
LINE
  5
953
100
AcDbEntity
  8
LY_1
  6
CONTINUOUS
 62
   130
100
AcDbLine
 10
31498.343383
 20
12431.851283
 30
0.0
 11
31501.323855
 21
12467.944068
 31
0.0
  0
ARC
  5
954
100
AcDbEntity
  8
LY_1
  6
CONTINUOUS
 62
   130
100
AcDbCircle
 10
31511.236342
 20
12382.669783
 30
0.0
 40
26.949527
100
AcDbArc
 50
171.42522
 51
202.255307
  0
LINE
  5
955
100
AcDbEntity
  8
LY_1
  6
CONTINUOUS
 62
   130
100
AcDbLine
 10
31910.605115
 20
12352.233304
 30
0.0
 11
31916.399956
 21
12355.795716
 31
0.0
  0
LINE
  5
956
100
AcDbEntity
  8
LY_1
  6
CONTINUOUS
 62
   130
100
AcDbLine
 10
31916.399953
 20
12355.795674
 30
0.0
 11
31932.157251
 21
12388.775269
 31
0.0
  0
LINE
  5
957
100
AcDbEntity
  8
LY_1
  6
CENTER
 62
   140
100
AcDbLine
 10
32152.627066
 20
12871.169089
 30
0.0
 11
31701.460145
 21
13057.121124
 31
0.0
  0
LINE
  5
958
100
AcDbEntity
  8
LY_1
  6
CENTER
 62
   140
100
AcDbLine
 10
31684.363464
 20
13198.104205
 30
0.0
 11
31684.363464
 21
12893.020292
 31
0.0
  0
ARC
  5
959
100
AcDbEntity
  8
LY_1
  6
CONTINUOUS
 62
   130
100
AcDbCircle
 10
31975.247792
 20
13081.110514
 30
0.0
 40
615.990892
100
AcDbArc
 50
67.602524
 51
84.788025
  0
ARC
  5
95A
100
AcDbEntity
  8
LY_1
  6
CONTINUOUS
 62
   130
100
AcDbCircle
 10
31823.291048
 20
13762.922029
 30
0.0
 40
211.310023
100
AcDbArc
 50
325.726321
 51
338.554304
  0
ARC
  5
95B
100
AcDbEntity
  8
LY_1
  6
CONTINUOUS
 62
   130
100
AcDbCircle
 10
32041.711509
 20
13669.737424
 30
0.0
 40
26.949527
100
AcDbArc
 50
112.945895
 51
143.775986
  0
LINE
  5
95C
100
AcDbEntity
  8
LY_1
  6
CONTINUOUS
 62
   130
100
AcDbLine
 10
31997.9086
 20
13643.923549
 30
0.0
 11
31974.591828
 21
13616.212533
 31
0.0
  0
LINE
  5
95D
100
AcDbEntity
  8
LY_1
  6
CONTINUOUS
 62
   130
100
AcDbLine
 10
31974.591843
 20
13616.212529
 30
0.0
 11
31943.441306
 21
13576.060098
 31
0.0
  0
LINE
  5
95E
100
AcDbEntity
  8
LY_1
  6
CONTINUOUS
 62
   130
100
AcDbLine
 10
31943.441316
 20
13576.06011
 30
0.0
 11
31937.646681
 21
13572.497363
 31
0.0
  0
LINE
  5
95F
100
AcDbEntity
  8
LY_1
  6
CONTINUOUS
 62
   130
100
AcDbLine
 10
31937.646721
 20
13572.497392
 30
0.0
 11
31921.891328
 21
13539.516887
 31
0.0
  0
ARC
  5
960
100
AcDbEntity
  8
LY_1
  6
CONTINUOUS
 62
   130
100
AcDbCircle
 10
32342.811852
 20
13545.646679
 30
0.0
 40
26.949527
100
AcDbArc
 50
351.428527
 51
22.258618
  0
ARC
  5
961
100
AcDbEntity
  8
LY_1
  6
CONTINUOUS
 62
   130
100
AcDbCircle
 10
32563.464625
 20
13457.878627
 30
0.0
 40
211.310023
100
AcDbArc
 50
156.650209
 51
169.478192
  0
ARC
  5
962
100
AcDbEntity
  8
LY_1
  6
CONTINUOUS
 62
   130
100
AcDbCircle
 10
31975.242516
 20
13081.112689
 30
0.0
 40
615.990892
100
AcDbArc
 50
50.416491
 51
67.601992
  0
LINE
  5
963
100
AcDbEntity
  8
LY_1
  6
CONTINUOUS
 62
   130
100
AcDbLine
 10
32348.145746
 20
13403.320815
 30
0.0
 11
32336.088838
 21
13368.816074
 31
0.0
  0
LINE
  5
964
100
AcDbEntity
  8
LY_1
  6
CONTINUOUS
 62
   130
100
AcDbLine
 10
32346.543956
 20
13409.931761
 30
0.0
 11
32348.145747
 21
13403.320767
 31
0.0
  0
LINE
  5
965
100
AcDbEntity
  8
LY_1
  6
CONTINUOUS
 62
   130
100
AcDbLine
 10
32352.729237
 20
13460.372954
 30
0.0
 11
32346.543949
 21
13409.931772
 31
0.0
  0
LINE
  5
966
100
AcDbEntity
  8
LY_1
  6
CONTINUOUS
 62
   130
100
AcDbLine
 10
32355.707651
 20
13496.465938
 30
0.0
 11
32352.729262
 21
13460.372951
 31
0.0
  0
LINE
  5
967
100
AcDbEntity
  8
LY_1
  6
CENTER
 62
   230
100
AcDbLine
 10
32005.853378
 20
15288.457907
 30
0.0
 11
32468.778764
 21
14914.387921
 31
0.0
  0
LINE
  5
968
100
AcDbEntity
  8
LY_1
  6
CONTINUOUS
 62
   130
100
AcDbLine
 10
31347.742298
 20
15239.117617
 30
0.0
 11
31367.266849
 21
15286.036265
 31
0.0
  0
LINE
  5
969
100
AcDbEntity
  8
LY_1
  6
CONTINUOUS
 62
   130
100
AcDbLine
 10
31594.438365
 20
14927.082054
 30
0.0
 11
32474.841435
 21
16053.914834
 31
0.0
  0
LINE
  5
96A
100
AcDbEntity
  8
LY_1
  6
CENTER
 62
   140
100
AcDbLine
 10
32360.663849
 20
16203.411345
 30
0.0
 11
31421.760606
 21
15001.703868
 31
0.0
  0
LINE
  5
96B
100
AcDbEntity
  8
LY_1
  6
CONTINUOUS
 62
   130
100
AcDbLine
 10
31741.414759
 20
15047.008148
 30
0.0
 11
32394.03913
 21
15882.305706
 31
0.0
  0
LINE
  5
96C
100
AcDbEntity
  8
LY_1
  6
CONTINUOUS
 62
   130
100
AcDbLine
 10
31640.117424
 20
14966.894681
 30
0.0
 11
31670.028417
 21
14987.312982
 31
0.0
  0
ARC
  5
96D
100
AcDbEntity
  8
LY_1
  6
CONTINUOUS
 62
   130
100
AcDbCircle
 10
31776.292868
 20
14805.314486
 30
0.0
 40
211.310023
100
AcDbArc
 50
130.123282
 51
142.951265
  0
ARC
  5
96E
100
AcDbEntity
  8
LY_1
  6
CONTINUOUS
 62
   130
100
AcDbCircle
 10
31334.358064
 20
15154.318852
 30
0.0
 40
26.949527
100
AcDbArc
 50
155.825489
 51
186.655576
  0
ARC
  5
96F
100
AcDbEntity
  8
LY_1
  6
CONTINUOUS
 62
   130
100
AcDbCircle
 10
31145.443807
 20
15298.201682
 30
0.0
 40
211.310023
100
AcDbArc
 50
321.047168
 51
333.875151
  0
ARC
  5
970
100
AcDbEntity
  8
LY_1
  6
CONTINUOUS
 62
   130
100
AcDbCircle
 10
31813.328004
 20
15502.868497
 30
0.0
 40
615.990892
100
AcDbArc
 50
214.813455
 51
231.998948
  0
ARC
  5
971
100
AcDbEntity
  8
LY_1
  6
CONTINUOUS
 62
   130
100
AcDbCircle
 10
31813.323483
 20
15502.87203
 30
0.0
 40
615.990892
100
AcDbArc
 50
231.999485
 51
249.184978
  0
LINE
  5
972
100
AcDbEntity
  8
LY_1
  6
CONTINUOUS
 62
   130
100
AcDbLine
 10
31335.165691
 20
15205.155809
 30
0.0
 11
31347.742275
 21
15239.117579
 31
0.0
  0
ARC
  5
973
100
AcDbEntity
  8
LY_1
  6
CONTINUOUS
 62
   130
100
AcDbCircle
 10
31590.985557
 20
14953.813829
 30
0.0
 40
26.949527
100
AcDbArc
 50
277.342857
 51
308.172944
  0
LINE
  5
974
100
AcDbEntity
  8
LY_1
  6
CONTINUOUS
 62
   130
100
AcDbLine
 10
31717.370141
 20
15019.47999
 30
0.0
 11
31741.415719
 21
15047.007365
 31
0.0
  0
LINE
  5
975
100
AcDbEntity
  8
LY_1
  6
CONTINUOUS
 62
   130
100
AcDbLine
 10
31710.830787
 20
15017.607164
 30
0.0
 11
31717.370156
 21
15019.48003
 31
0.0
  0
LINE
  5
976
100
AcDbEntity
  8
LY_1
  6
CONTINUOUS
 62
   130
100
AcDbLine
 10
31670.028386
 20
14987.313022
 30
0.0
 11
31710.830786
 21
15017.607161
 31
0.0
  0
LINE
  5
977
100
AcDbEntity
  8
LY_1
  6
CONTINUOUS
 62
   130
100
AcDbLine
 10
31388.396595
 20
15322.823939
 30
0.0
 11
32041.020966
 21
16158.121497
 31
0.0
  0
LINE
  5
978
100
AcDbEntity
  8
LY_1
  6
CONTINUOUS
 62
   130
100
AcDbLine
 10
31367.502257
 20
15292.834431
 30
0.0
 11
31388.39562
 21
15322.824655
 31
0.0
  0
LINE
  5
979
100
AcDbEntity
  8
LY_1
  6
CONTINUOUS
 62
   130
100
AcDbLine
 10
31367.266863
 20
15286.036271
 30
0.0
 11
31367.502266
 21
15292.834473
 31
0.0
  0
LINE
  5
97A
100
AcDbEntity
  8
LY_1
  6
CENTER
 62
   140
100
AcDbLine
 10
32083.487347
 20
15452.343938
 30
0.0
 11
31698.945034
 21
15752.771899
 31
0.0
  0
LINE
  5
97B
100
AcDbEntity
  8
LY_1
  6
CENTER
 62
   140
100
AcDbLine
 10
31684.363464
 20
15898.104478
 30
0.0
 11
31684.363464
 21
15593.020565
 31
0.0
  0
LINE
  5
97C
100
AcDbEntity
  8
LY_1
  6
CONTINUOUS
 62
   130
100
AcDbLine
 10
32071.563177
 20
16187.522721
 30
0.0
 11
32065.023917
 21
16185.649478
 31
0.0
  0
LINE
  5
97D
100
AcDbEntity
  8
LY_1
  6
CONTINUOUS
 62
   130
100
AcDbLine
 10
32065.023963
 20
16185.649496
 30
0.0
 11
32040.979976
 21
16158.120732
 31
0.0
  0
ARC
  5
97E
100
AcDbEntity
  8
LY_1
  6
CONTINUOUS
 62
   130
100
AcDbCircle
 10
32448.043795
 20
16050.832759
 30
0.0
 40
26.949527
100
AcDbArc
 50
335.828797
 51
6.658887
  0
ARC
  5
97F
100
AcDbEntity
  8
LY_1
  6
CONTINUOUS
 62
   130
100
AcDbCircle
 10
32636.966393
 20
15906.96084
 30
0.0
 40
211.310023
100
AcDbArc
 50
141.050478
 51
153.878462
  0
ARC
  5
980
100
AcDbEntity
  8
LY_1
  6
CONTINUOUS
 62
   130
100
AcDbCircle
 10
31969.09401
 20
15702.255439
 30
0.0
 40
615.990892
100
AcDbArc
 50
34.816761
 51
52.002261
  0
LINE
  5
981
100
AcDbEntity
  8
LY_1
  6
CONTINUOUS
 62
   130
100
AcDbLine
 10
32414.907606
 20
15912.315269
 30
0.0
 11
32394.015976
 21
15882.323837
 31
0.0
  0
LINE
  5
982
100
AcDbEntity
  8
LY_1
  6
CONTINUOUS
 62
   130
100
AcDbLine
 10
32415.142605
 20
15919.113439
 30
0.0
 11
32414.907595
 21
15912.315223
 31
0.0
  0
LINE
  5
983
100
AcDbEntity
  8
LY_1
  6
CONTINUOUS
 62
   130
100
AcDbLine
 10
32434.664452
 20
15966.033255
 30
0.0
 11
32415.142601
 21
15919.113451
 31
0.0
  0
LINE
  5
984
100
AcDbEntity
  8
LY_1
  6
CONTINUOUS
 62
   130
100
AcDbLine
 10
32447.239109
 20
15999.99577
 30
0.0
 11
32434.664475
 21
15966.033245
 31
0.0
  0
LINE
  5
985
100
AcDbEntity
  8
LY_1
  6
CENTER
 62
   230
100
AcDbLine
 10
32678.930488
 20
16026.300343
 30
0.0
 11
33093.603246
 21
15599.363848
 31
0.0
  0
LINE
  5
986
100
AcDbEntity
  8
LY_1
  6
CONTINUOUS
 62
   220
100
AcDbLine
 10
32015.853077
 20
17006.272657
 30
0.0
 11
32015.853077
 21
18212.319736
 31
0.0
  0
LINE
  5
987
100
AcDbEntity
  8
LY_1
  6
CONTINUOUS
 62
   220
100
AcDbLine
 10
32135.853499
 20
16688.798675
 30
0.0
 11
32135.853499
 21
16878.570806
 31
0.0
  0
ARC
  5
988
100
AcDbEntity
  8
LY_1
  6
CONTINUOUS
 62
   130
100
AcDbCircle
 10
32006.088812
 20
16399.811608
 30
0.0
 40
211.310023
100
AcDbArc
 50
310.12659
 51
322.954573
  0
ARC
  5
989
100
AcDbEntity
  8
LY_1
  6
CONTINUOUS
 62
   130
100
AcDbCircle
 10
32191.404734
 20
16251.322964
 30
0.0
 40
26.949527
100
AcDbArc
 50
97.346164
 51
128.176255
  0
LINE
  5
98A
100
AcDbEntity
  8
LY_1
  6
CONTINUOUS
 62
   220
100
AcDbLine
 10
32165.85442
 20
16688.798675
 30
0.0
 11
32135.853499
 21
16688.798675
 31
0.0
  0
LINE
  5
98B
100
AcDbEntity
  8
LY_1
  6
CONTINUOUS
 62
   130
100
AcDbLine
 10
32142.273611
 20
16238.239246
 30
0.0
 11
32112.363823
 21
16217.819234
 31
0.0
  0
LINE
  5
98C
100
AcDbEntity
  8
LY_1
  6
CONTINUOUS
 62
   220
100
AcDbLine
 10
32133.641896
 20
16880.924347
 30
0.0
 11
32017.333546
 21
17004.697174
 31
0.0
  0
LINE
  5
98D
100
AcDbEntity
  8
LY_1
  6
CONTINUOUS
 62
   220
100
AcDbLine
 10
33521.099222
 20
16761.348402
 30
0.0
 11
33887.769724
 21
16292.540328
 31
0.0
  0
LINE
  5
98E
100
AcDbEntity
  8
LY_1
  6
CONTINUOUS
 62
   220
100
AcDbLine
 10
31459.857168
 20
19718.916895
 30
0.0
 11
31459.857168
 21
18304.176301
 31
0.0
  0
LINE
  5
98F
100
AcDbEntity
  8
LY_1
  6
CONTINUOUS
 62
   220
100
AcDbLine
 10
31459.857168
 20
18304.176301
 30
0.0
 11
31923.996511
 21
18304.176301
 31
0.0
  0
ARC
  5
990
100
AcDbEntity
  8
LY_1
  6
CONTINUOUS
 62
   220
100
AcDbCircle
 10
31923.996511
 20
18212.319736
 30
0.0
 40
91.856565
100
AcDbArc
 50
0.0
 51
90.0
  0
LINE
  5
991
100
AcDbEntity
  8
LY_1
  6
CONTINUOUS
 62
   220
100
AcDbLine
 10
31064.61969
 20
19718.916895
 30
0.0
 11
31459.857168
 21
19718.916895
 31
0.0
  0
LINE
  5
992
100
AcDbEntity
  8
LY_1
  6
CONTINUOUS
 62
   220
100
AcDbLine
 10
31105.856688
 20
19792.622179
 30
0.0
 11
31105.856688
 21
19769.318242
 31
0.0
  0
LINE
  5
993
100
AcDbEntity
  8
LY_1
  6
CONTINUOUS
 62
   220
100
AcDbLine
 10
30922.856188
 20
19905.536962
 30
0.0
 11
30922.856188
 21
19890.719622
 31
0.0
  0
LINE
  5
994
100
AcDbEntity
  8
LY_1
  6
CONTINUOUS
 62
   220
100
AcDbLine
 10
30930.856688
 20
19905.536962
 30
0.0
 11
30930.856688
 21
19830.969306
 31
0.0
  0
LINE
  5
995
100
AcDbEntity
  8
LY_1
  6
CONTINUOUS
 62
   220
100
AcDbLine
 10
30985.856688
 20
19884.319162
 30
0.0
 11
30930.856688
 21
19830.969306
 31
0.0
  0
LINE
  5
996
100
AcDbEntity
  8
LY_1
  6
CONTINUOUS
 62
   220
100
AcDbLine
 10
30922.856188
 20
19905.536962
 30
0.0
 11
30930.856688
 21
19905.536962
 31
0.0
  0
LINE
  5
997
100
AcDbEntity
  8
LY_1
  6
CONTINUOUS
 62
   220
100
AcDbLine
 10
30985.856688
 20
19884.319162
 30
0.0
 11
31014.32355
 21
19884.319162
 31
0.0
  0
LINE
  5
998
100
AcDbEntity
  8
LY_1
  6
CONTINUOUS
 62
   220
100
AcDbLine
 10
31064.61969
 20
19718.916895
 30
0.0
 11
31105.856688
 21
19769.318242
 31
0.0
  0
ARC
  5
999
100
AcDbEntity
  8
LY_1
  6
CONTINUOUS
 62
   220
100
AcDbCircle
 10
31055.855588
 20
19834.316932
 30
0.0
 40
65.001025
100
AcDbArc
 50
320.285292
 51
129.713148
  0
LINE
  5
99A
100
AcDbEntity
  8
LY_1
  6
CONTINUOUS
 62
   220
100
AcDbLine
 10
31450.429107
 20
19724.958573
 30
0.0
 11
31450.429107
 21
19718.916895
 31
0.0
  0
LINE
  5
99B
100
AcDbEntity
  8
LY_1
  6
CONTINUOUS
 62
   220
100
AcDbLine
 10
31423.429107
 20
19724.958573
 30
0.0
 11
31423.429107
 21
19718.916895
 31
0.0
  0
LINE
  5
99C
100
AcDbEntity
  8
LY_1
  6
CONTINUOUS
 62
   220
100
AcDbLine
 10
31358.429107
 20
19724.958573
 30
0.0
 11
31358.429107
 21
19718.916895
 31
0.0
  0
LINE
  5
99D
100
AcDbEntity
  8
LY_1
  6
CONTINUOUS
 62
   220
100
AcDbLine
 10
31385.429107
 20
19724.958573
 30
0.0
 11
31385.429107
 21
19718.916895
 31
0.0
  0
CIRCLE
  5
99E
100
AcDbEntity
  8
LY_1
  6
CONTINUOUS
 62
   220
100
AcDbCircle
 10
31371.929107
 20
19748.91687
 30
0.0
 40
27.5
  0
CIRCLE
  5
99F
100
AcDbEntity
  8
LY_1
  6
CONTINUOUS
 62
   220
100
AcDbCircle
 10
31436.929107
 20
19748.91687
 30
0.0
 40
27.5
  0
LINE
  5
9A0
100
AcDbEntity
  8
LY_1
  6
CENTER
 62
   230
100
AcDbLine
 10
34516.697154
 20
17463.68777
 30
0.0
 11
34837.548649
 21
16962.406824
 31
0.0
  0
LINE
  5
9A1
100
AcDbEntity
  8
LY_1
  6
CONTINUOUS
 62
   220
100
AcDbLine
 10
37278.372332
 20
19012.518426
 30
0.0
 11
37265.699687
 21
19181.890056
 31
0.0
  0
LINE
  5
9A2
100
AcDbEntity
  8
LY_1
  6
CONTINUOUS
 62
   220
100
AcDbLine
 10
37159.339878
 20
18861.692567
 30
0.0
 11
37278.613302
 21
19009.297824
 31
0.0
  0
LINE
  5
9A3
100
AcDbEntity
  8
LY_1
  6
CONTINUOUS
 62
   220
100
AcDbLine
 10
37182.674671
 20
18842.836729
 30
0.0
 11
37159.339878
 21
18861.692567
 31
0.0
  0
MTEXT
  5
9A4
100
AcDbEntity
  8
LY_1
  6
CONTINUOUS
 62
     7
100
AcDbMText
 10
29183.975167
 20
23471.630971
 30
0.0
 40
350.0
 41
0.0
 71
     1
 72
     1
  1
構内移動姿勢
  7
MX_NOTE_STANDARD
1001
ACAD
1000
MTEXTBEGIN
1070
    73
1070
     1
1070
    44
1040
0.794286
1070
    74
1070
     0
1000
MTEXTEND
  0
LINE
  5
9A5
100
AcDbEntity
  8
LY_1
  6
CONTINUOUS
 62
   220
100
AcDbLine
 10
37489.051975
 20
22030.347564
 30
0.0
 11
37916.935022
 21
21589.810092
 31
0.0
  0
LINE
  5
9A6
100
AcDbEntity
  8
LY_1
  6
CONTINUOUS
 62
   220
100
AcDbLine
 10
36494.021876
 20
21191.952311
 30
0.0
 11
37359.160964
 21
22032.240306
 31
0.0
  0
LINE
  5
9A7
100
AcDbEntity
  8
LY_1
  6
CONTINUOUS
 62
   220
100
AcDbLine
 10
37084.200623
 20
22206.686758
 30
0.0
 11
36538.655007
 21
21531.553961
 31
0.0
  0
LINE
  5
9A8
100
AcDbEntity
  8
LY_1
  6
CONTINUOUS
 62
   220
100
AcDbLine
 10
36182.679083
 20
21056.83941
 30
0.0
 11
36318.809166
 21
21189.05916
 31
0.0
  0
LINE
  5
9A9
100
AcDbEntity
  8
LY_1
  6
CONTINUOUS
 62
   220
100
AcDbLine
 10
36060.438531
 20
21826.515033
 30
0.0
 11
36538.111397
 21
21440.528247
 31
0.0
  0
LINE
  5
9AA
100
AcDbEntity
  8
LY_1
  6
CONTINUOUS
 62
   220
100
AcDbLine
 10
35173.248596
 20
20874.73485
 30
0.0
 11
35931.25961
 21
21812.801403
 31
0.0
  0
LINE
  5
9AB
100
AcDbEntity
  8
LY_1
  6
CONTINUOUS
 62
   220
100
AcDbLine
 10
35002.84965
 20
20851.269899
 30
0.0
 11
35171.106879
 21
20874.439923
 31
0.0
  0
LINE
  5
9AC
100
AcDbEntity
  8
LY_1
  6
CONTINUOUS
 62
   220
100
AcDbLine
 10
34857.042019
 20
20722.079902
 30
0.0
 11
34880.376813
 21
20703.224064
 31
0.0
  0
LINE
  5
9AD
100
AcDbEntity
  8
LY_1
  6
CONTINUOUS
 62
   220
100
AcDbLine
 10
34880.376813
 20
20703.224064
 30
0.0
 11
34999.650238
 21
20850.829321
 31
0.0
  0
LINE
  5
9AE
100
AcDbEntity
  8
LY_1
  6
CONTINUOUS
 62
   220
100
AcDbLine
 10
36161.776572
 20
21078.360103
 30
0.0
 11
36182.679083
 21
21056.83941
 31
0.0
  0
ARC
  5
9AF
100
AcDbEntity
  8
LY_1
  6
CONTINUOUS
 62
   220
100
AcDbCircle
 10
36002.705886
 20
21755.068758
 30
0.0
 40
91.856565
100
AcDbArc
 50
51.059821
 51
141.059821
  0
ARC
  5
9B0
100
AcDbEntity
  8
LY_1
  6
CONTINUOUS
 62
   220
100
AcDbCircle
 10
37952.103118
 20
20179.845157
 30
0.0
 40
91.856565
100
AcDbArc
 50
321.059821
 51
51.059821
  0
LINE
  5
9B1
100
AcDbEntity
  8
LY_1
  6
CONTINUOUS
 62
   220
100
AcDbLine
 10
37648.826975
 20
20543.007022
 30
0.0
 11
38009.835763
 21
20251.291433
 31
0.0
  0
LINE
  5
9B2
100
AcDbEntity
  8
LY_1
  6
CONTINUOUS
 62
   220
100
AcDbLine
 10
36538.655007
 20
21531.553961
 30
0.0
 11
36582.824571
 21
21495.862447
 31
0.0
  0
LINE
  5
9B3
100
AcDbEntity
  8
LY_1
  6
CONTINUOUS
 62
   220
100
AcDbLine
 10
36322.038331
 20
21189.112481
 30
0.0
 11
36491.860243
 21
21191.916617
 31
0.0
  0
LINE
  5
9B4
100
AcDbEntity
  8
LY_1
  6
CONTINUOUS
 62
   220
100
AcDbLine
 10
36582.824571
 20
21495.862447
 30
0.0
 11
36538.111397
 21
21440.528247
 31
0.0
  0
LINE
  5
9B5
100
AcDbEntity
  8
LY_1
  6
CONTINUOUS
 62
   220
100
AcDbLine
 10
37542.402702
 20
21388.62577
 30
0.0
 11
37691.883673
 21
21505.539846
 31
0.0
  0
LINE
  5
9B6
100
AcDbEntity
  8
LY_1
  6
CONTINUOUS
 62
   220
100
AcDbLine
 10
37523.919852
 20
21412.257094
 30
0.0
 11
37542.402702
 21
21388.62577
 31
0.0
  0
LINE
  5
9B7
100
AcDbEntity
  8
LY_1
  6
CONTINUOUS
 62
   220
100
AcDbLine
 10
37695.100042
 20
21505.247756
 30
0.0
 11
37864.249039
 21
21489.886704
 31
0.0
  0
LINE
  5
9B8
100
AcDbEntity
  8
LY_1
  6
CONTINUOUS
 62
   220
100
AcDbLine
 10
37928.401826
 20
21680.112299
 30
0.0
 11
37967.967413
 21
21639.376579
 31
0.0
  0
LINE
  5
9B9
100
AcDbEntity
  8
LY_1
  6
CONTINUOUS
 62
   220
100
AcDbLine
 10
37967.967413
 20
21639.376579
 30
0.0
 11
37916.935022
 21
21589.810092
 31
0.0
  0
LINE
  5
9BA
100
AcDbEntity
  8
LY_1
  6
CONTINUOUS
 62
   220
100
AcDbLine
 10
37084.200623
 20
22206.686758
 30
0.0
 11
37315.055702
 21
22020.142753
 31
0.0
  0
ARC
  5
9BB
100
AcDbEntity
  8
LY_1
  6
CONTINUOUS
 62
   220
100
AcDbCircle
 10
37720.725789
 20
22452.167823
 30
0.0
 40
64.999612
100
AcDbArc
 50
11.350062
 51
180.775241
  0
LINE
  5
9BC
100
AcDbEntity
  8
LY_1
  6
CONTINUOUS
 62
   220
100
AcDbLine
 10
37609.651079
 20
22337.7777
 30
0.0
 11
37511.467389
 21
22216.271767
 31
0.0
  0
ARC
  5
9BD
100
AcDbEntity
  8
LY_1
  6
CONTINUOUS
 62
   220
100
AcDbCircle
 10
37423.160099
 20
21966.34843
 30
0.0
 40
91.856565
100
AcDbArc
 50
44.165158
 51
134.165158
  0
LINE
  5
9BE
100
AcDbEntity
  8
LY_1
  6
CONTINUOUS
 62
   220
100
AcDbLine
 10
37364.707847
 20
22081.589111
 30
0.0
 11
37315.055702
 21
22020.142753
 31
0.0
  0
LINE
  5
9BF
100
AcDbEntity
  8
LY_1
  6
CONTINUOUS
 62
   220
100
AcDbLine
 10
37194.682219
 20
22283.263131
 30
0.0
 11
37163.256787
 21
22244.373001
 31
0.0
  0
LINE
  5
9C0
100
AcDbEntity
  8
LY_1
  6
CONTINUOUS
 62
   220
100
AcDbLine
 10
37238.315858
 20
22264.070679
 30
0.0
 11
37230.461901
 21
22254.351117
 31
0.0
  0
LINE
  5
9C1
100
AcDbEntity
  8
LY_1
  6
CONTINUOUS
 62
   220
100
AcDbLine
 10
37194.682219
 20
22283.263131
 30
0.0
 11
37230.461901
 21
22254.351117
 31
0.0
  0
LINE
  5
9C2
100
AcDbEntity
  8
LY_1
  6
CONTINUOUS
 62
   220
100
AcDbLine
 10
37163.256787
 20
22244.373001
 30
0.0
 11
37364.707847
 21
22081.589111
 31
0.0
  0
LINE
  5
9C3
100
AcDbEntity
  8
LY_1
  6
CONTINUOUS
 62
   220
100
AcDbLine
 10
37238.315858
 20
22264.070679
 30
0.0
 11
37419.543288
 21
22117.62863
 31
0.0
  0
LINE
  5
9C4
100
AcDbEntity
  8
LY_1
  6
CONTINUOUS
 62
   220
100
AcDbLine
 10
37504.077688
 20
22222.243064
 30
0.0
 11
37419.543288
 21
22117.62863
 31
0.0
  0
LINE
  5
9C5
100
AcDbEntity
  8
LY_1
  6
CONTINUOUS
 62
   220
100
AcDbLine
 10
37511.467389
 20
22216.271767
 30
0.0
 11
37504.077688
 21
22222.243064
 31
0.0
  0
LINE
  5
9C6
100
AcDbEntity
  8
LY_1
  6
CONTINUOUS
 62
   220
100
AcDbLine
 10
37655.732127
 20
22451.288373
 30
0.0
 11
37640.98285
 21
22433.035599
 31
0.0
  0
LINE
  5
9C7
100
AcDbEntity
  8
LY_1
  6
CONTINUOUS
 62
   220
100
AcDbLine
 10
37806.600057
 20
22447.064832
 30
0.0
 11
37815.848355
 21
22371.001201
 31
0.0
  0
LINE
  5
9C8
100
AcDbEntity
  8
LY_1
  6
CONTINUOUS
 62
   220
100
AcDbLine
 10
37806.600057
 20
22447.064832
 30
0.0
 11
37784.458458
 21
22464.956501
 31
0.0
  0
LINE
  5
9C9
100
AcDbEntity
  8
LY_1
  6
CONTINUOUS
 62
   220
100
AcDbLine
 10
37868.937581
 20
22423.971733
 30
0.0
 11
37859.624754
 21
22412.446768
 31
0.0
  0
LINE
  5
9CA
100
AcDbEntity
  8
LY_1
  6
CONTINUOUS
 62
   220
100
AcDbLine
 10
37868.937581
 20
22423.971733
 30
0.0
 11
37862.714771
 21
22429.000117
 31
0.0
  0
LINE
  5
9CB
100
AcDbEntity
  8
LY_1
  6
CONTINUOUS
 62
   220
100
AcDbLine
 10
37862.714771
 20
22429.000117
 30
0.0
 11
37815.848355
 21
22371.001201
 31
0.0
  0
LINE
  5
9CC
100
AcDbEntity
  8
LY_1
  6
CONTINUOUS
 62
   220
100
AcDbLine
 10
37609.651079
 20
22337.7777
 30
0.0
 11
37641.345527
 21
22315.74501
 31
0.0
  0
LINE
  5
9CD
100
AcDbEntity
  8
LY_1
  6
CONTINUOUS
 62
   220
100
AcDbLine
 10
37640.98285
 20
22433.035599
 30
0.0
 11
37641.699018
 21
22315.499277
 31
0.0
  0
LINE
  5
9CE
100
AcDbEntity
  8
LY_1
  6
CONTINUOUS
 62
   220
100
AcDbLine
 10
40738.474116
 20
19495.776357
 30
0.0
 11
41754.263922
 21
20145.946047
 31
0.0
  0
LINE
  5
9CF
100
AcDbEntity
  8
LY_1
  6
CONTINUOUS
 62
   220
100
AcDbLine
 10
39523.647459
 20
19370.813335
 30
0.0
 11
40473.634622
 21
20113.830124
 31
0.0
  0
LINE
  5
9D0
100
AcDbEntity
  8
LY_1
  6
CONTINUOUS
 62
   220
100
AcDbLine
 10
38368.223638
 20
19262.321979
 30
0.0
 11
39233.362726
 21
20102.609974
 31
0.0
  0
DIMENSION
  5
9D1
100
AcDbEntity
  8
LY_1
  6
CONTINUOUS
 62
     7
100
AcDbDimension
  2
*D14
 10
46720.725789
 20
15295.559325
 30
0.0
 11
46720.725789
 21
18906.363236
 31
0.0
 70
   160
  1
7230
  3
MXDIMSTYLE
100
AcDbAlignedDimension
 13
45220.725789
 23
22517.167436
 33
0.0
 14
45220.725789
 24
15295.559325
 34
0.0
 50
90.0
100
AcDbRotatedDimension
1001
ACAD
1000
DSTYLE
1002
{
1070
    41
1040
415.5
1070
   140
1040
300.0
1070
   271
1070
     0
1070
   340
1005
B5
1002
}
  0
LINE
  5
9D2
100
AcDbEntity
  8
LY_1
  6
CONTINUOUS
 62
   220
100
AcDbLine
 10
39347.506841
 20
19080.702471
 30
0.0
 11
39496.987812
 21
19197.616547
 31
0.0
  0
LINE
  5
9D3
100
AcDbEntity
  8
LY_1
  6
CONTINUOUS
 62
   220
100
AcDbLine
 10
38360.373868
 20
19090.494199
 30
0.0
 11
38368.124976
 21
19260.162303
 31
0.0
  0
LINE
  5
9D4
100
AcDbEntity
  8
LY_1
  6
CONTINUOUS
 62
   220
100
AcDbLine
 10
38224.096399
 20
18955.048209
 30
0.0
 11
38360.226481
 21
19087.26796
 31
0.0
  0
LINE
  5
9D5
100
AcDbEntity
  8
LY_1
  6
CONTINUOUS
 62
   220
100
AcDbLine
 10
38244.99891
 20
18933.527516
 30
0.0
 11
38224.096399
 21
18955.048209
 31
0.0
  0
LINE
  5
9D6
100
AcDbEntity
  8
LY_1
  6
CONTINUOUS
 62
   220
100
AcDbLine
 10
39365.989691
 20
19057.071148
 30
0.0
 11
39347.506841
 21
19080.702471
 31
0.0
  0
LINE
  5
9D7
100
AcDbEntity
  8
LY_1
  6
CONTINUOUS
 62
   220
100
AcDbLine
 10
39497.479148
 20
19200.808558
 30
0.0
 11
39523.318554
 21
19368.676572
 31
0.0
  0
LINE
  5
9D8
100
AcDbEntity
  8
LY_1
  6
CONTINUOUS
 62
   220
100
AcDbLine
 10
40696.398797
 20
19328.994846
 30
0.0
 11
40737.945278
 21
19493.680106
 31
0.0
  0
LINE
  5
9D9
100
AcDbEntity
  8
LY_1
  6
CONTINUOUS
 62
   220
100
AcDbLine
 10
40535.773739
 20
19223.558819
 30
0.0
 11
40695.60879
 21
19325.863355
 31
0.0
  0
LINE
  5
9DA
100
AcDbEntity
  8
LY_1
  6
CONTINUOUS
 62
   220
100
AcDbLine
 10
40551.946979
 20
19198.290627
 30
0.0
 11
40535.773739
 21
19223.558819
 31
0.0
  0
LINE
  5
9DB
100
AcDbEntity
  8
LY_1
  6
CONTINUOUS
 62
   220
100
AcDbLine
 10
41748.983269
 20
22213.213045
 30
0.0
 11
41682.445788
 21
22170.624852
 31
0.0
  0
LINE
  5
9DC
100
AcDbEntity
  8
LY_1
  6
CONTINUOUS
 62
   220
100
AcDbLine
 10
41686.794419
 20
22426.302238
 30
0.0
 11
41812.402332
 21
22230.059258
 31
0.0
  0
LINE
  5
9DD
100
AcDbEntity
  8
LY_1
  6
CONTINUOUS
 62
   220
100
AcDbLine
 10
41531.897208
 20
20663.751149
 30
0.0
 11
41782.110768
 21
20272.831075
 31
0.0
  0
LINE
  5
9DE
100
AcDbEntity
  8
LY_1
  6
CONTINUOUS
 62
   220
100
AcDbLine
 10
41609.358449
 20
22431.355279
 30
0.0
 11
41748.983269
 21
22213.213045
 31
0.0
  0
LINE
  5
9DF
100
AcDbEntity
  8
LY_1
  6
CONTINUOUS
 62
   220
100
AcDbLine
 10
42723.458548
 20
21426.425733
 30
0.0
 11
41531.897208
 21
20663.751149
 31
0.0
  0
LINE
  5
9E0
100
AcDbEntity
  8
LY_1
  6
CONTINUOUS
 62
   220
100
AcDbLine
 10
40430.992353
 20
22383.745092
 30
0.0
 11
40762.065258
 21
21866.494769
 31
0.0
  0
LINE
  5
9E1
100
AcDbEntity
  8
LY_1
  6
CONTINUOUS
 62
   220
100
AcDbLine
 10
39288.317519
 20
21761.422249
 30
0.0
 11
40304.107325
 21
22411.591939
 31
0.0
  0
LINE
  5
9E2
100
AcDbEntity
  8
LY_1
  6
CONTINUOUS
 62
   220
100
AcDbLine
 10
41522.441176
 20
22420.607366
 30
0.0
 11
40791.370433
 21
21952.675874
 31
0.0
  0
LINE
  5
9E3
100
AcDbEntity
  8
LY_1
  6
CONTINUOUS
 62
   220
100
AcDbLine
 10
38945.334093
 20
22216.944411
 30
0.0
 11
39323.685669
 21
21733.201452
 31
0.0
  0
LINE
  5
9E4
100
AcDbEntity
  8
LY_1
  6
CONTINUOUS
 62
   220
100
AcDbLine
 10
40028.449675
 20
22356.51518
 30
0.0
 11
39344.737536
 21
21821.761009
 31
0.0
  0
LINE
  5
9E5
100
AcDbEntity
  8
LY_1
  6
CONTINUOUS
 62
   220
100
AcDbLine
 10
41138.918846
 20
22011.617951
 30
0.0
 11
41080.1829
 21
21965.6786
 31
0.0
  0
LINE
  5
9E6
100
AcDbEntity
  8
LY_1
  6
CONTINUOUS
 62
   220
100
AcDbLine
 10
39715.117103
 20
22006.392357
 30
0.0
 11
39734.950791
 21
21985.972097
 31
0.0
  0
ARC
  5
9E7
100
AcDbEntity
  8
LY_1
  6
CONTINUOUS
 62
   220
100
AcDbCircle
 10
38296.30011
 20
21987.072867
 30
0.0
 40
65.001025
100
AcDbArc
 50
281.345113
 51
90.77297
  0
CIRCLE
  5
9E8
100
AcDbEntity
  8
LY_1
  6
CONTINUOUS
 62
   220
100
AcDbCircle
 10
39886.976234
 20
21635.110614
 30
0.0
 40
27.5
  0
LINE
  5
9E9
100
AcDbEntity
  8
LY_1
  6
CONTINUOUS
 62
   220
100
AcDbLine
 10
39926.718251
 20
21551.134936
 30
0.0
 11
38911.87612
 21
20565.444114
 31
0.0
  0
LINE
  5
9EA
100
AcDbEntity
  8
LY_1
  6
CONTINUOUS
 62
   220
100
AcDbLine
 10
39651.344832
 20
21834.652386
 30
0.0
 11
39926.718251
 21
21551.134936
 31
0.0
  0
LINE
  5
9EB
100
AcDbEntity
  8
LY_1
  6
CONTINUOUS
 62
   220
100
AcDbLine
 10
38911.87612
 20
20565.444114
 30
0.0
 11
39235.255468
 21
20232.500985
 31
0.0
  0
ARC
  5
9EC
100
AcDbEntity
  8
LY_1
  6
CONTINUOUS
 62
   220
100
AcDbCircle
 10
39169.363592
 20
20168.501851
 30
0.0
 40
91.856565
100
AcDbArc
 50
314.165158
 51
44.165158
  0
LINE
  5
9ED
100
AcDbEntity
  8
LY_1
  6
CONTINUOUS
 62
   220
100
AcDbLine
 10
38956.234734
 20
21691.344757
 30
0.0
 11
39116.069785
 21
21793.649294
 31
0.0
  0
CIRCLE
  5
9EE
100
AcDbEntity
  8
LY_1
  6
CONTINUOUS
 62
   220
100
AcDbCircle
 10
38488.468237
 20
21721.993538
 30
0.0
 40
27.5
  0
LINE
  5
9EF
100
AcDbEntity
  8
LY_1
  6
CONTINUOUS
 62
   220
100
AcDbLine
 10
38230.58693
 20
21891.806105
 30
0.0
 11
38538.003668
 21
21643.395934
 31
0.0
  0
LINE
  5
9F0
100
AcDbEntity
  8
LY_1
  6
CONTINUOUS
 62
   220
100
AcDbLine
 10
38462.909905
 20
21711.843579
 30
0.0
 11
38459.112659
 21
21707.144347
 31
0.0
  0
LINE
  5
9F1
100
AcDbEntity
  8
LY_1
  6
CONTINUOUS
 62
   220
100
AcDbLine
 10
38483.910575
 20
21694.873846
 30
0.0
 11
38480.113329
 21
21690.174613
 31
0.0
  0
LINE
  5
9F2
100
AcDbEntity
  8
LY_1
  6
CONTINUOUS
 62
   220
100
AcDbLine
 10
38308.985583
 20
21923.216457
 30
0.0
 11
38294.338857
 21
21905.090594
 31
0.0
  0
LINE
  5
9F3
100
AcDbEntity
  8
LY_1
  6
CONTINUOUS
 62
   220
100
AcDbLine
 10
38230.58693
 20
21891.806105
 30
0.0
 11
38294.338857
 21
21905.090594
 31
0.0
  0
LINE
  5
9F4
100
AcDbEntity
  8
LY_1
  6
CONTINUOUS
 62
   220
100
AcDbLine
 10
38940.061494
 20
21716.612949
 30
0.0
 11
38956.234734
 21
21691.344757
 31
0.0
  0
LINE
  5
9F5
100
AcDbEntity
  8
LY_1
  6
CONTINUOUS
 62
   220
100
AcDbLine
 10
38534.467744
 20
21654.020784
 30
0.0
 11
38530.670498
 21
21649.321551
 31
0.0
  0
LINE
  5
9F6
100
AcDbEntity
  8
LY_1
  6
CONTINUOUS
 62
   220
100
AcDbLine
 10
38513.467074
 20
21670.990517
 30
0.0
 11
38509.669828
 21
21666.291285
 31
0.0
  0
CIRCLE
  5
9F7
100
AcDbEntity
  8
LY_1
  6
CONTINUOUS
 62
   220
100
AcDbCircle
 10
38539.025406
 20
21681.140477
 30
0.0
 40
27.5
  0
LINE
  5
9F8
100
AcDbEntity
  8
LY_1
  6
CONTINUOUS
 62
   220
100
AcDbLine
 10
39119.244305
 20
21793.05535
 30
0.0
 11
39286.192464
 21
21761.81984
 31
0.0
  0
LINE
  5
9F9
100
AcDbEntity
  8
LY_1
  6
CONTINUOUS
 62
   220
100
AcDbLine
 10
39344.737536
 20
21821.761009
 30
0.0
 11
39379.723036
 21
21777.030154
 31
0.0
  0
LINE
  5
9FA
100
AcDbEntity
  8
LY_1
  6
CONTINUOUS
 62
   220
100
AcDbLine
 10
39379.723036
 20
21777.030154
 30
0.0
 11
39323.685669
 21
21733.201452
 31
0.0
  0
LINE
  5
9FB
100
AcDbEntity
  8
LY_1
  6
CONTINUOUS
 62
   220
100
AcDbLine
 10
39860.384281
 20
21628.102188
 30
0.0
 11
39856.050378
 21
21623.892776
 31
0.0
  0
LINE
  5
9FC
100
AcDbEntity
  8
LY_1
  6
CONTINUOUS
 62
   220
100
AcDbLine
 10
39879.195965
 20
21608.734159
 30
0.0
 11
39874.862061
 21
21604.524747
 31
0.0
  0
LINE
  5
9FD
100
AcDbEntity
  8
LY_1
  6
CONTINUOUS
 62
   220
100
AcDbLine
 10
39732.947182
 20
21856.424277
 30
0.0
 11
39716.230466
 21
21840.187748
 31
0.0
  0
ARC
  5
9FE
100
AcDbEntity
  8
LY_1
  6
CONTINUOUS
 62
   220
100
AcDbCircle
 10
39728.019047
 20
21921.341731
 30
0.0
 40
65.001025
100
AcDbArc
 50
274.45045
 51
83.878307
  0
LINE
  5
9FF
100
AcDbEntity
  8
LY_1
  6
CONTINUOUS
 62
   220
100
AcDbLine
 10
39651.344832
 20
21834.652386
 30
0.0
 11
39716.230466
 21
21840.187748
 31
0.0
  0
LINE
  5
A00
100
AcDbEntity
  8
LY_1
  6
CONTINUOUS
 62
   220
100
AcDbLine
 10
41317.82527
 20
21479.95918
 30
0.0
 11
40203.453016
 21
20608.371304
 31
0.0
  0
LINE
  5
A01
100
AcDbEntity
  8
LY_1
  6
CONTINUOUS
 62
   220
100
AcDbLine
 10
40203.453016
 20
20608.371304
 30
0.0
 11
40489.398175
 21
20242.774947
 31
0.0
  0
ARC
  5
A02
100
AcDbEntity
  8
LY_1
  6
CONTINUOUS
 62
   220
100
AcDbCircle
 10
40417.043987
 20
20186.184312
 30
0.0
 40
91.856565
100
AcDbArc
 50
308.030154
 51
38.030154
  0
LINE
  5
A03
100
AcDbEntity
  8
LY_1
  6
CONTINUOUS
 62
   220
100
AcDbLine
 10
40791.370433
 20
21952.675874
 30
0.0
 11
40821.984158
 21
21904.846653
 31
0.0
  0
LINE
  5
A04
100
AcDbEntity
  8
LY_1
  6
CONTINUOUS
 62
   220
100
AcDbLine
 10
40821.984158
 20
21904.846653
 30
0.0
 11
40762.065258
 21
21866.494769
 31
0.0
  0
LINE
  5
A05
100
AcDbEntity
  8
LY_1
  6
CONTINUOUS
 62
   220
100
AcDbLine
 10
39924.483351
 20
21562.107421
 30
0.0
 11
39920.149447
 21
21557.898009
 31
0.0
  0
LINE
  5
A06
100
AcDbEntity
  8
LY_1
  6
CONTINUOUS
 62
   220
100
AcDbLine
 10
39905.671667
 20
21581.475451
 30
0.0
 11
39901.337764
 21
21577.266039
 31
0.0
  0
CIRCLE
  5
A07
100
AcDbEntity
  8
LY_1
  6
CONTINUOUS
 62
   220
100
AcDbCircle
 10
39932.26362
 20
21588.483877
 30
0.0
 40
27.5
  0
CIRCLE
  5
A08
100
AcDbEntity
  8
LY_1
  6
CONTINUOUS
 62
   220
100
AcDbCircle
 10
41327.330418
 20
21516.501575
 30
0.0
 40
27.5
  0
LINE
  5
A09
100
AcDbEntity
  8
LY_1
  6
CONTINUOUS
 62
   220
100
AcDbLine
 10
41074.328903
 20
21791.282459
 30
0.0
 11
41317.82527
 21
21479.95918
 31
0.0
  0
LINE
  5
A0A
100
AcDbEntity
  8
LY_1
  6
CONTINUOUS
 62
   220
100
AcDbLine
 10
41316.775816
 20
21491.107671
 30
0.0
 11
41312.016867
 21
21487.385538
 31
0.0
  0
LINE
  5
A0B
100
AcDbEntity
  8
LY_1
  6
CONTINUOUS
 62
   220
100
AcDbLine
 10
41300.141761
 20
21512.37521
 30
0.0
 11
41295.382812
 21
21508.653077
 31
0.0
  0
LINE
  5
A0C
100
AcDbEntity
  8
LY_1
  6
CONTINUOUS
 62
   220
100
AcDbLine
 10
41157.790699
 20
21804.208691
 30
0.0
 11
41139.4345
 21
21789.851692
 31
0.0
  0
LINE
  5
A0D
100
AcDbEntity
  8
LY_1
  6
CONTINUOUS
 62
   220
100
AcDbLine
 10
41156.090054
 20
21955.223407
 30
0.0
 11
41080.1829
 21
21965.6786
 31
0.0
  0
LINE
  5
A0E
100
AcDbEntity
  8
LY_1
  6
CONTINUOUS
 62
   220
100
AcDbLine
 10
41156.090054
 20
21955.223407
 30
0.0
 11
41173.627807
 21
21932.80044
 31
0.0
  0
LINE
  5
A0F
100
AcDbEntity
  8
LY_1
  6
CONTINUOUS
 62
   220
100
AcDbLine
 10
41074.328903
 20
21791.282459
 30
0.0
 11
41139.4345
 21
21789.851692
 31
0.0
  0
ARC
  5
A10
100
AcDbEntity
  8
LY_1
  6
CONTINUOUS
 62
   220
100
AcDbCircle
 10
41159.828616
 20
21869.281029
 30
0.0
 40
65.001025
100
AcDbArc
 50
268.315446
 51
77.743302
  0
LINE
  5
A11
100
AcDbEntity
  8
LY_1
  6
CONTINUOUS
 62
   220
100
AcDbLine
 10
41260.096814
 20
21563.574841
 30
0.0
 11
41255.337865
 21
21559.852708
 31
0.0
  0
LINE
  5
A12
100
AcDbEntity
  8
LY_1
  6
CONTINUOUS
 62
   220
100
AcDbLine
 10
41276.730869
 20
21542.307302
 30
0.0
 11
41271.97192
 21
21538.585169
 31
0.0
  0
CIRCLE
  5
A13
100
AcDbEntity
  8
LY_1
  6
CONTINUOUS
 62
   220
100
AcDbCircle
 10
41287.285472
 20
21567.701206
 30
0.0
 40
27.5
  0
LINE
  5
A14
100
AcDbEntity
  8
LY_1
  6
CONTINUOUS
 62
   220
100
AcDbLine
 10
38969.756418
 20
22249.913143
 30
0.0
 11
38873.274952
 21
22156.203105
 31
0.0
  0
LINE
  5
A15
100
AcDbEntity
  8
LY_1
  6
CONTINUOUS
 62
   220
100
AcDbLine
 10
38237.615235
 20
22126.059265
 30
0.0
 11
38228.302409
 21
22114.534299
 31
0.0
  0
LINE
  5
A16
100
AcDbEntity
  8
LY_1
  6
CONTINUOUS
 62
   220
100
AcDbLine
 10
38243.838045
 20
22121.030881
 30
0.0
 11
38196.971629
 21
22063.031965
 31
0.0
  0
LINE
  5
A17
100
AcDbEntity
  8
LY_1
  6
CONTINUOUS
 62
   220
100
AcDbLine
 10
38273.281617
 20
22069.959646
 30
0.0
 11
38196.971629
 21
22063.031965
 31
0.0
  0
LINE
  5
A18
100
AcDbEntity
  8
LY_1
  6
CONTINUOUS
 62
   220
100
AcDbLine
 10
38237.615235
 20
22126.059265
 30
0.0
 11
38243.838045
 21
22121.030881
 31
0.0
  0
LINE
  5
A19
100
AcDbEntity
  8
LY_1
  6
CONTINUOUS
 62
   220
100
AcDbLine
 10
38273.281617
 20
22069.959646
 30
0.0
 11
38295.423216
 21
22052.067977
 31
0.0
  0
LINE
  5
A1A
100
AcDbEntity
  8
LY_1
  6
CONTINUOUS
 62
   220
100
AcDbLine
 10
38551.048236
 20
22284.873211
 30
0.0
 11
38757.840334
 21
22071.965341
 31
0.0
  0
LINE
  5
A1B
100
AcDbEntity
  8
LY_1
  6
CONTINUOUS
 62
   220
100
AcDbLine
 10
38814.509711
 20
22127.006891
 30
0.0
 11
38757.840334
 21
22071.965341
 31
0.0
  0
LINE
  5
A1C
100
AcDbEntity
  8
LY_1
  6
CONTINUOUS
 62
   220
100
AcDbLine
 10
38669.923449
 20
22347.63313
 30
0.0
 11
38634.056728
 21
22312.796679
 31
0.0
  0
LINE
  5
A1D
100
AcDbEntity
  8
LY_1
  6
CONTINUOUS
 62
   220
100
AcDbLine
 10
38710.937607
 20
22323.341495
 30
0.0
 11
38701.973667
 21
22314.635044
 31
0.0
  0
LINE
  5
A1E
100
AcDbEntity
  8
LY_1
  6
CONTINUOUS
 62
   220
100
AcDbLine
 10
38669.923449
 20
22347.63313
 30
0.0
 11
38701.973667
 21
22314.635044
 31
0.0
  0
LINE
  5
A1F
100
AcDbEntity
  8
LY_1
  6
CONTINUOUS
 62
   220
100
AcDbLine
 10
38634.056728
 20
22312.796679
 30
0.0
 11
38814.509711
 21
22127.006891
 31
0.0
  0
LINE
  5
A20
100
AcDbEntity
  8
LY_1
  6
CONTINUOUS
 62
   220
100
AcDbLine
 10
38710.937607
 20
22323.341495
 30
0.0
 11
38873.274952
 21
22156.203105
 31
0.0
  0
ARC
  5
A21
100
AcDbEntity
  8
LY_1
  6
CONTINUOUS
 62
   220
100
AcDbCircle
 10
38872.979905
 20
22160.353776
 30
0.0
 40
91.856565
100
AcDbArc
 50
38.030154
 51
128.030154
  0
ARC
  5
A22
100
AcDbEntity
  8
LY_1
  6
CONTINUOUS
 62
   220
100
AcDbCircle
 10
39212.439008
 20
22452.167823
 30
0.0
 40
64.999612
100
AcDbArc
 50
4.455399
 51
173.880577
  0
LINE
  5
A23
100
AcDbEntity
  8
LY_1
  6
CONTINUOUS
 62
   220
100
AcDbLine
 10
39345.565225
 20
22396.059985
 30
0.0
 11
39675.814096
 21
22056.044171
 31
0.0
  0
LINE
  5
A24
100
AcDbEntity
  8
LY_1
  6
CONTINUOUS
 62
   220
100
AcDbLine
 10
39088.43564
 20
22351.938803
 30
0.0
 11
38976.375859
 21
22243.097936
 31
0.0
  0
LINE
  5
A25
100
AcDbEntity
  8
LY_1
  6
CONTINUOUS
 62
   220
100
AcDbLine
 10
39147.809772
 20
22459.096856
 30
0.0
 11
39130.976011
 21
22442.746645
 31
0.0
  0
LINE
  5
A26
100
AcDbEntity
  8
LY_1
  6
CONTINUOUS
 62
   220
100
AcDbLine
 10
39297.079693
 20
22436.793012
 30
0.0
 11
39297.130101
 21
22360.169226
 31
0.0
  0
LINE
  5
A27
100
AcDbEntity
  8
LY_1
  6
CONTINUOUS
 62
   220
100
AcDbLine
 10
39297.079693
 20
22436.793012
 30
0.0
 11
39277.246004
 21
22457.213272
 31
0.0
  0
LINE
  5
A28
100
AcDbEntity
  8
LY_1
  6
CONTINUOUS
 62
   220
100
AcDbLine
 10
39356.194227
 20
22406.383641
 30
0.0
 11
39345.565239
 21
22396.059971
 31
0.0
  0
LINE
  5
A29
100
AcDbEntity
  8
LY_1
  6
CONTINUOUS
 62
   220
100
AcDbLine
 10
39356.194227
 20
22406.383641
 30
0.0
 11
39350.620047
 21
22412.122676
 31
0.0
  0
LINE
  5
A2A
100
AcDbEntity
  8
LY_1
  6
CONTINUOUS
 62
   220
100
AcDbLine
 10
39350.620047
 20
22412.122676
 30
0.0
 11
39297.130101
 21
22360.169226
 31
0.0
  0
LINE
  5
A2B
100
AcDbEntity
  8
LY_1
  6
CONTINUOUS
 62
   220
100
AcDbLine
 10
38976.375859
 20
22243.097936
 30
0.0
 11
38969.756418
 21
22249.913143
 31
0.0
  0
LINE
  5
A2C
100
AcDbEntity
  8
LY_1
  6
CONTINUOUS
 62
   220
100
AcDbLine
 10
39088.43564
 20
22351.938803
 30
0.0
 11
39117.25599
 21
22326.260702
 31
0.0
  0
LINE
  5
A2D
100
AcDbEntity
  8
LY_1
  6
CONTINUOUS
 62
   220
100
AcDbLine
 10
39130.976011
 20
22442.746645
 30
0.0
 11
39117.577427
 21
22325.974311
 31
0.0
  0
LINE
  5
A2E
100
AcDbEntity
  8
LY_1
  6
CONTINUOUS
 62
   220
100
AcDbLine
 10
39686.443084
 20
22066.367841
 30
0.0
 11
39675.814096
 21
22056.044171
 31
0.0
  0
LINE
  5
A2F
100
AcDbEntity
  8
LY_1
  6
CONTINUOUS
 62
   220
100
AcDbLine
 10
39692.017265
 20
22060.628807
 30
0.0
 11
39638.527319
 21
22008.675358
 31
0.0
  0
LINE
  5
A30
100
AcDbEntity
  8
LY_1
  6
CONTINUOUS
 62
   220
100
AcDbLine
 10
39715.117103
 20
22006.392357
 30
0.0
 11
39638.527319
 21
22008.675358
 31
0.0
  0
LINE
  5
A31
100
AcDbEntity
  8
LY_1
  6
CONTINUOUS
 62
   220
100
AcDbLine
 10
39686.443084
 20
22066.367841
 30
0.0
 11
39692.017265
 21
22060.628807
 31
0.0
  0
LINE
  5
A32
100
AcDbEntity
  8
LY_1
  6
CONTINUOUS
 62
   255
100
AcDbLine
 10
39705.128837
 20
22517.952886
 30
0.0
 11
39768.848198
 21
22517.952886
 31
0.0
  0
LINE
  5
A33
100
AcDbEntity
  8
LY_1
  6
CONTINUOUS
 62
   220
100
AcDbLine
 10
40837.041554
 20
22397.584401
 30
0.0
 11
40778.305608
 21
22351.64505
 31
0.0
  0
ARC
  5
A34
100
AcDbEntity
  8
LY_1
  6
CONTINUOUS
 62
   220
100
AcDbCircle
 10
40703.931586
 20
22452.167823
 30
0.0
 40
64.999612
100
AcDbArc
 50
358.320394
 51
167.745573
  0
ARC
  5
A35
100
AcDbEntity
  8
LY_1
  6
CONTINUOUS
 62
   220
100
AcDbCircle
 10
40353.626416
 20
22334.226002
 30
0.0
 40
91.856565
100
AcDbArc
 50
32.621813
 51
122.621813
  0
LINE
  5
A36
100
AcDbEntity
  8
LY_1
  6
CONTINUOUS
 62
   220
100
AcDbLine
 10
40441.023611
 20
22277.007349
 30
0.0
 11
40335.079775
 21
22194.145125
 31
0.0
  0
LINE
  5
A37
100
AcDbEntity
  8
LY_1
  6
CONTINUOUS
 62
   220
100
AcDbLine
 10
40028.449675
 20
22356.51518
 30
0.0
 11
40211.303651
 21
22122.726479
 31
0.0
  0
LINE
  5
A38
100
AcDbEntity
  8
LY_1
  6
CONTINUOUS
 62
   220
100
AcDbLine
 10
40273.530847
 20
22171.396455
 30
0.0
 11
40211.303651
 21
22122.726479
 31
0.0
  0
LINE
  5
A39
100
AcDbEntity
  8
LY_1
  6
CONTINUOUS
 62
   220
100
AcDbLine
 10
40153.351319
 20
22406.211287
 30
0.0
 11
40113.966988
 21
22375.407481
 31
0.0
  0
LINE
  5
A3A
100
AcDbEntity
  8
LY_1
  6
CONTINUOUS
 62
   220
100
AcDbLine
 10
40191.534498
 20
22377.675528
 30
0.0
 11
40181.691424
 21
22369.97693
 31
0.0
  0
LINE
  5
A3B
100
AcDbEntity
  8
LY_1
  6
CONTINUOUS
 62
   220
100
AcDbLine
 10
40153.351319
 20
22406.211287
 30
0.0
 11
40181.691424
 21
22369.97693
 31
0.0
  0
LINE
  5
A3C
100
AcDbEntity
  8
LY_1
  6
CONTINUOUS
 62
   220
100
AcDbLine
 10
40113.966988
 20
22375.407481
 30
0.0
 11
40273.530847
 21
22171.396455
 31
0.0
  0
LINE
  5
A3D
100
AcDbEntity
  8
LY_1
  6
CONTINUOUS
 62
   220
100
AcDbLine
 10
40191.534498
 20
22377.675528
 30
0.0
 11
40335.079775
 21
22194.145125
 31
0.0
  0
LINE
  5
A3E
100
AcDbEntity
  8
LY_1
  6
CONTINUOUS
 62
   220
100
AcDbLine
 10
40786.44439
 20
22427.835386
 30
0.0
 11
40778.305608
 21
22351.64505
 31
0.0
  0
LINE
  5
A3F
100
AcDbEntity
  8
LY_1
  6
CONTINUOUS
 62
   220
100
AcDbLine
 10
40786.44439
 20
22427.835386
 30
0.0
 11
40768.906637
 21
22450.258353
 31
0.0
  0
LINE
  5
A40
100
AcDbEntity
  8
LY_1
  6
CONTINUOUS
 62
   220
100
AcDbLine
 10
40569.926777
 20
22365.76526
 30
0.0
 11
40446.87679
 21
22269.523743
 31
0.0
  0
LINE
  5
A41
100
AcDbEntity
  8
LY_1
  6
CONTINUOUS
 62
   220
100
AcDbLine
 10
40640.413009
 20
22465.964198
 30
0.0
 11
40621.928286
 21
22451.506677
 31
0.0
  0
LINE
  5
A42
100
AcDbEntity
  8
LY_1
  6
CONTINUOUS
 62
   220
100
AcDbLine
 10
40446.87679
 20
22269.523743
 30
0.0
 11
40441.023611
 21
22277.007349
 31
0.0
  0
LINE
  5
A43
100
AcDbEntity
  8
LY_1
  6
CONTINUOUS
 62
   220
100
AcDbLine
 10
40569.926777
 20
22365.76526
 30
0.0
 11
40595.83781
 21
22337.154147
 31
0.0
  0
LINE
  5
A44
100
AcDbEntity
  8
LY_1
  6
CONTINUOUS
 62
   220
100
AcDbLine
 10
40621.928286
 20
22451.506677
 30
0.0
 11
40596.126798
 21
22336.835044
 31
0.0
  0
LINE
  5
A45
100
AcDbEntity
  8
LY_1
  6
CONTINUOUS
 62
   220
100
AcDbLine
 10
40841.97047
 20
22391.282514
 30
0.0
 11
40830.29905
 21
22382.153905
 31
0.0
  0
LINE
  5
A46
100
AcDbEntity
  8
LY_1
  6
CONTINUOUS
 62
   220
100
AcDbLine
 10
40841.97047
 20
22391.282514
 30
0.0
 11
40837.041554
 21
22397.584401
 31
0.0
  0
LINE
  5
A47
100
AcDbEntity
  8
LY_1
  6
CONTINUOUS
 62
   220
100
AcDbLine
 10
40830.299037
 20
22382.153921
 30
0.0
 11
41122.318508
 21
22008.791229
 31
0.0
  0
LINE
  5
A48
100
AcDbEntity
  8
LY_1
  6
CONTINUOUS
 62
   220
100
AcDbLine
 10
41133.989929
 20
22017.919838
 30
0.0
 11
41122.318508
 21
22008.791229
 31
0.0
  0
LINE
  5
A49
100
AcDbEntity
  8
LY_1
  6
CONTINUOUS
 62
   220
100
AcDbLine
 10
41133.989929
 20
22017.919838
 30
0.0
 11
41138.918846
 21
22011.617951
 31
0.0
  0
LINE
  5
A4A
100
AcDbEntity
  8
LY_1
  6
CONTINUOUS
 62
   220
100
AcDbLine
 10
41686.794419
 20
22426.302238
 30
0.0
 11
41676.269546
 21
22419.565654
 31
0.0
  0
LINE
  5
A4B
100
AcDbEntity
  8
LY_1
  6
CONTINUOUS
 62
   220
100
AcDbLine
 10
41651.47081
 20
22458.309852
 30
0.0
 11
41609.358449
 21
22431.355279
 31
0.0
  0
LINE
  5
A4C
100
AcDbEntity
  8
LY_1
  6
CONTINUOUS
 62
   220
100
AcDbLine
 10
41522.441176
 20
22420.607366
 30
0.0
 11
41682.445788
 21
22170.624852
 31
0.0
  0
LINE
  5
A4D
100
AcDbEntity
  8
LY_1
  6
CONTINUOUS
 62
   220
100
AcDbLine
 10
41651.47081
 20
22458.309852
 30
0.0
 11
41676.269546
 21
22419.565654
 31
0.0
  0
LINE
  5
A4E
100
AcDbEntity
  8
LY_1
  6
CONTINUOUS
 62
   220
100
AcDbLine
 10
42323.137444
 20
22370.555062
 30
0.0
 11
42578.666271
 21
21971.330703
 31
0.0
  0
ARC
  5
A4F
100
AcDbEntity
  8
LY_1
  6
CONTINUOUS
 62
   220
100
AcDbCircle
 10
41704.744831
 20
20223.311984
 30
0.0
 40
91.856565
100
AcDbArc
 50
302.621813
 51
32.621813
  0
ARC
  5
A50
100
AcDbEntity
  8
LY_1
  6
CONTINUOUS
 62
   220
100
AcDbCircle
 10
42602.860104
 20
21828.906118
 30
0.0
 40
65.001025
100
AcDbArc
 50
262.907105
 51
72.334961
  0
LINE
  5
A51
100
AcDbEntity
  8
LY_1
  6
CONTINUOUS
 62
   220
100
AcDbLine
 10
42510.389396
 20
21759.313402
 30
0.0
 11
42723.458548
 21
21426.425733
 31
0.0
  0
LINE
  5
A52
100
AcDbEntity
  8
LY_1
  6
CONTINUOUS
 62
   220
100
AcDbLine
 10
42594.697981
 20
21764.315545
 30
0.0
 11
42575.070304
 21
21751.752591
 31
0.0
  0
LINE
  5
A53
100
AcDbEntity
  8
LY_1
  6
CONTINUOUS
 62
   220
100
AcDbLine
 10
42591.146135
 20
21979.318604
 30
0.0
 11
42578.666271
 21
21971.330703
 31
0.0
  0
LINE
  5
A54
100
AcDbEntity
  8
LY_1
  6
CONTINUOUS
 62
   220
100
AcDbLine
 10
42591.146135
 20
21979.318604
 30
0.0
 11
42595.459136
 21
21972.580205
 31
0.0
  0
LINE
  5
A55
100
AcDbEntity
  8
LY_1
  6
CONTINUOUS
 62
   220
100
AcDbLine
 10
42607.238534
 20
21914.818273
 30
0.0
 11
42622.584776
 21
21890.842138
 31
0.0
  0
LINE
  5
A56
100
AcDbEntity
  8
LY_1
  6
CONTINUOUS
 62
   220
100
AcDbLine
 10
42595.459136
 20
21972.580205
 30
0.0
 11
42532.654735
 21
21932.381419
 31
0.0
  0
LINE
  5
A57
100
AcDbEntity
  8
LY_1
  6
CONTINUOUS
 62
   220
100
AcDbLine
 10
42607.238534
 20
21914.818273
 30
0.0
 11
42532.654735
 21
21932.381419
 31
0.0
  0
LINE
  5
A58
100
AcDbEntity
  8
LY_1
  6
CONTINUOUS
 62
   220
100
AcDbLine
 10
42510.389396
 20
21759.313402
 30
0.0
 11
42575.070304
 21
21751.752591
 31
0.0
  0
LINE
  5
A59
100
AcDbEntity
  8
LY_1
  6
CONTINUOUS
 62
   220
100
AcDbLine
 10
42673.868132
 20
21515.110253
 30
0.0
 11
42668.779546
 21
21511.853236
 31
0.0
  0
CIRCLE
  5
A5A
100
AcDbEntity
  8
LY_1
  6
CONTINUOUS
 62
   220
100
AcDbCircle
 10
42701.324676
 20
21516.655629
 30
0.0
 40
27.5
  0
LINE
  5
A5B
100
AcDbEntity
  8
LY_1
  6
CONTINUOUS
 62
   220
100
AcDbLine
 10
42723.464547
 20
21437.623508
 30
0.0
 11
42718.375961
 21
21434.366491
 31
0.0
  0
LINE
  5
A5C
100
AcDbEntity
  8
LY_1
  6
CONTINUOUS
 62
   220
100
AcDbLine
 10
42708.909078
 20
21460.364183
 30
0.0
 11
42703.820491
 21
21457.107166
 31
0.0
  0
LINE
  5
A5D
100
AcDbEntity
  8
LY_1
  6
CONTINUOUS
 62
   220
100
AcDbLine
 10
42688.423602
 20
21492.369578
 30
0.0
 11
42683.335016
 21
21489.112561
 31
0.0
  0
CIRCLE
  5
A5E
100
AcDbEntity
  8
LY_1
  6
CONTINUOUS
 62
   220
100
AcDbCircle
 10
42736.365622
 20
21461.909559
 30
0.0
 40
27.5
  0
ARC
  5
A5F
100
AcDbEntity
  8
LY_1
  6
CONTINUOUS
 62
   220
100
AcDbCircle
 10
42203.931586
 20
22452.167823
 30
0.0
 40
64.999612
100
AcDbArc
 50
352.912053
 51
162.337232
  0
LINE
  5
A60
100
AcDbEntity
  8
LY_1
  6
CONTINUOUS
 62
   220
100
AcDbLine
 10
42141.99613
 20
22471.889612
 30
0.0
 11
42122.231028
 21
22459.238697
 31
0.0
  0
LINE
  5
A61
100
AcDbEntity
  8
LY_1
  6
CONTINUOUS
 62
   220
100
AcDbLine
 10
41925.684567
 20
22302.56705
 30
0.0
 11
41812.402332
 21
22230.059258
 31
0.0
  0
LINE
  5
A62
100
AcDbEntity
  8
LY_1
  6
CONTINUOUS
 62
   220
100
AcDbLine
 10
42062.37961
 20
22378.780291
 30
0.0
 11
41930.806335
 21
22294.565078
 31
0.0
  0
LINE
  5
A63
100
AcDbEntity
  8
LY_1
  6
CONTINUOUS
 62
   220
100
AcDbLine
 10
41930.806335
 20
22294.565078
 30
0.0
 11
41925.684567
 21
22302.56705
 31
0.0
  0
LINE
  5
A64
100
AcDbEntity
  8
LY_1
  6
CONTINUOUS
 62
   220
100
AcDbLine
 10
42062.37961
 20
22378.780291
 30
0.0
 11
42085.478604
 21
22347.854348
 31
0.0
  0
LINE
  5
A65
100
AcDbEntity
  8
LY_1
  6
CONTINUOUS
 62
   220
100
AcDbLine
 10
42122.231028
 20
22459.238697
 30
0.0
 11
42085.736229
 21
22347.509428
 31
0.0
  0
LINE
  5
A66
100
AcDbEntity
  8
LY_1
  6
CONTINUOUS
 62
   220
100
AcDbLine
 10
42283.783653
 20
22420.166608
 30
0.0
 11
42268.499916
 21
22345.082559
 31
0.0
  0
LINE
  5
A67
100
AcDbEntity
  8
LY_1
  6
CONTINUOUS
 62
   220
100
AcDbLine
 10
42283.783653
 20
22420.166608
 30
0.0
 11
42268.437411
 21
22444.142744
 31
0.0
  0
LINE
  5
A68
100
AcDbEntity
  8
LY_1
  6
CONTINUOUS
 62
   220
100
AcDbLine
 10
42335.617318
 20
22378.542947
 30
0.0
 11
42323.137455
 21
22370.555045
 31
0.0
  0
LINE
  5
A69
100
AcDbEntity
  8
LY_1
  6
CONTINUOUS
 62
   220
100
AcDbLine
 10
42335.617318
 20
22378.542947
 30
0.0
 11
42331.304317
 21
22385.281346
 31
0.0
  0
LINE
  5
A6A
100
AcDbEntity
  8
LY_1
  6
CONTINUOUS
 62
   220
100
AcDbLine
 10
42331.304317
 20
22385.281346
 30
0.0
 11
42268.499916
 21
22345.082559
 31
0.0
  0
LINE
  5
BDC
100
AcDbEntity
  8
LY_1
  6
CONTINUOUS
100
AcDbLine
 10
45233.218199
 20
3138.490265
 30
0.0
 11
60233.218199
 21
3138.490265
 31
0.0
  0
LINE
  5
BDD
100
AcDbEntity
  8
LY_1
  6
CONTINUOUS
100
AcDbLine
 10
45233.218199
 20
2138.490265
 30
0.0
 11
60233.218199
 21
2138.490265
 31
0.0
  0
LINE
  5
BDE
100
AcDbEntity
  8
LY_1
  6
CONTINUOUS
100
AcDbLine
 10
45233.218199
 20
1138.490265
 30
0.0
 11
60233.218199
 21
1138.490265
 31
0.0
  0
LINE
  5
BDF
100
AcDbEntity
  8
LY_1
  6
CONTINUOUS
100
AcDbLine
 10
45233.218199
 20
138.490265
 30
0.0
 11
60233.218199
 21
138.490265
 31
0.0
  0
MTEXT
  5
BE0
100
AcDbEntity
  8
LY_1
  6
CONTINUOUS
100
AcDbMText
 10
51219.897518
 20
2246.021027
 30
0.0
 40
700.0
 41
0.0
 71
     7
 72
     1
  1
ATF220G500P4
  7
MX_NOTE_STANDARD
1001
ACAD
1000
MTEXTBEGIN
1070
    73
1070
     1
1070
    44
1040
0.66
1070
    74
1070
     0
1000
MTEXTEND
  0
MTEXT
  5
BE1
100
AcDbEntity
  8
LY_1
  6
CONTINUOUS
100
AcDbMText
 10
51305.729549
 20
1281.105012
 30
0.0
 40
700.0
 41
0.0
 71
     7
 72
     1
  1
ATF220G-5
  7
MX_NOTE_STANDARD
1001
ACAD
1000
MTEXTBEGIN
1070
    73
1070
     1
1070
    44
1040
0.66
1070
    74
1070
     0
1000
MTEXTEND
  0
MTEXT
  5
BE2
100
AcDbEntity
  8
LY_1
  6
CONTINUOUS
100
AcDbMText
 10
51260.995543
 20
273.303742
 30
0.0
 40
700.0
 41
0.0
 71
     7
 72
     1
  1
7BOOM
  7
MX_NOTE_STANDARD
1001
ACAD
1000
MTEXTBEGIN
1070
    73
1070
     1
1070
    44
1040
0.66
1070
    74
1070
     0
1000
MTEXTEND
  0
MTEXT
  5
BE3
100
AcDbEntity
  8
LY_1
  6
CONTINUOUS
100
AcDbMText
 10
45632.391231
 20
227.118439
 30
0.0
 40
800.0
 41
0.0
 71
     7
 72
     1
  1
スペック
  7
MX_NOTE_STANDARD
1001
ACAD
1000
MTEXTBEGIN
1070
    73
1070
     1
1070
    44
1040
0.66
1070
    74
1070
     0
1000
MTEXTEND
  0
MTEXT
  5
BE4
100
AcDbEntity
  8
LY_1
  6
CONTINUOUS
100
AcDbMText
 10
45589.652485
 20
1314.160187
 30
0.0
 40
800.0
 41
0.0
 71
     7
 72
     1
  1
機　   種
  7
MX_NOTE_STANDARD
1001
ACAD
1000
MTEXTBEGIN
1070
    73
1070
     1
1070
    44
1040
0.66
1070
    74
1070
     0
1000
MTEXTEND
  0
MTEXT
  5
BE5
100
AcDbEntity
  8
LY_1
  6
CONTINUOUS
100
AcDbMText
 10
45690.653202
 20
2331.816437
 30
0.0
 40
800.0
 41
0.0
 71
     7
 72
     1
  1
ファイル名
  7
MX_NOTE_STANDARD
1001
ACAD
1000
MTEXTBEGIN
1070
    73
1070
     1
1070
    44
1040
0.66
1070
    74
1070
     0
1000
MTEXTEND
  0
LINE
  5
BE6
100
AcDbEntity
  8
LY_1
  6
CONTINUOUS
100
AcDbLine
 10
45233.218199
 20
3138.490265
 30
0.0
 11
45233.218199
 21
138.490265
 31
0.0
  0
LINE
  5
BE7
100
AcDbEntity
  8
LY_1
  6
CONTINUOUS
100
AcDbLine
 10
50760.058043
 20
3138.490265
 30
0.0
 11
50760.058043
 21
138.490265
 31
0.0
  0
LINE
  5
BE8
100
AcDbEntity
  8
LY_1
  6
CONTINUOUS
100
AcDbLine
 10
60233.218199
 20
3138.490265
 30
0.0
 11
60233.218199
 21
138.490265
 31
0.0
  0
MTEXT
  5
BE9
100
AcDbEntity
  8
LY_1
  6
CONTINUOUS
 62
     7
100
AcDbMText
 10
45253.100331
 20
5926.48189
 30
0.0
 40
336.0
 41
0.0
 71
     1
 72
     1
  1
\W0.700;\A1;ALL RIGHTS RESERVED,COPYRIGHT(C) TADANOSYSTEMS INC.
  7
MX_NOTE_STANDARD
1001
ACAD
1000
MTEXTBEGIN
1070
    73
1070
     1
1070
    44
1040
1.0
1070
    74
1070
     0
1000
MTEXTEND
  0
LINE
  5
BEA
100
AcDbEntity
  8
LY_1
  6
CONTINUOUS
 62
     7
100
AcDbLine
 10
45259.750319
 20
5084.798079
 30
0.0
 11
46406.350319
 21
5084.798079
 31
0.0
  0
LINE
  5
BEB
100
AcDbEntity
  8
LY_1
  6
CONTINUOUS
 62
     7
100
AcDbLine
 10
45259.750319
 20
4202.798079
 30
0.0
 11
46406.350319
 21
5084.798079
 31
0.0
  0
LINE
  5
BEC
100
AcDbEntity
  8
LY_1
  6
CONTINUOUS
 62
     7
100
AcDbLine
 10
45259.750319
 20
5084.798079
 30
0.0
 11
45259.750319
 21
4202.798079
 31
0.0
  0
LINE
  5
BED
100
AcDbEntity
  8
LY_1
  6
CONTINUOUS
 62
     7
100
AcDbLine
 10
46906.150319
 20
5084.798079
 30
0.0
 11
46906.150319
 21
4496.798079
 31
0.0
  0
LINE
  5
BEE
100
AcDbEntity
  8
LY_1
  6
CONTINUOUS
 62
     7
100
AcDbLine
 10
46435.750319
 20
4496.798079
 30
0.0
 11
46435.750319
 21
3908.798079
 31
0.0
  0
LINE
  5
BEF
100
AcDbEntity
  8
LY_1
  6
CONTINUOUS
 62
     7
100
AcDbLine
 10
45553.750319
 20
3908.798079
 30
0.0
 11
46435.750319
 21
3908.798079
 31
0.0
  0
LINE
  5
BF0
100
AcDbEntity
  8
LY_1
  6
CONTINUOUS
 62
     7
100
AcDbLine
 10
45553.750319
 20
3908.798079
 30
0.0
 11
46435.750319
 21
5084.798079
 31
0.0
  0
LINE
  5
BF1
100
AcDbEntity
  8
LY_1
  6
CONTINUOUS
 62
     7
100
AcDbLine
 10
46435.750319
 20
4496.798079
 30
0.0
 11
46906.150319
 21
4496.798079
 31
0.0
  0
LINE
  5
BF2
100
AcDbEntity
  8
LY_1
  6
CONTINUOUS
 62
     7
100
AcDbLine
 10
46435.750319
 20
5084.798079
 30
0.0
 11
46906.150319
 21
5084.798079
 31
0.0
  0
ARC
  5
BF3
100
AcDbEntity
  8
LY_1
  6
CONTINUOUS
 62
     7
100
AcDbCircle
 10
50664.814319
 20
4839.938079
 30
0.0
 40
104.47248
100
AcDbArc
 50
14.6894
 51
164.799
  0
ARC
  5
BF4
100
AcDbEntity
  8
LY_1
  6
CONTINUOUS
 62
     7
100
AcDbCircle
 10
50664.814319
 20
4743.506079
 30
0.0
 40
354.59844
100
AcDbArc
 50
72.7367
 51
107.323
  0
ARC
  5
BF5
100
AcDbEntity
  8
LY_1
  6
CONTINUOUS
 62
     7
100
AcDbCircle
 10
50664.814319
 20
4741.658079
 30
0.0
 40
104.47332
100
AcDbArc
 50
195.203
 51
345.311
  0
ARC
  5
BF6
100
AcDbEntity
  8
LY_1
  6
CONTINUOUS
 62
     7
100
AcDbCircle
 10
50664.814319
 20
4838.006079
 30
0.0
 40
354.59844
100
AcDbArc
 50
252.699
 51
287.263
  0
ARC
  5
BF7
100
AcDbEntity
  8
LY_1
  6
CONTINUOUS
 62
     7
100
AcDbCircle
 10
48836.974319
 20
4836.494079
 30
0.0
 40
103.42332
100
AcDbArc
 50
22.2133
 51
90.0
  0
ARC
  5
BF8
100
AcDbEntity
  8
LY_1
  6
CONTINUOUS
 62
     7
100
AcDbCircle
 10
48879.814319
 20
4854.302079
 30
0.0
 40
230.48928
100
AcDbArc
 50
23.9328
 51
90.0
  0
ARC
  5
BF9
100
AcDbEntity
  8
LY_1
  6
CONTINUOUS
 62
     7
100
AcDbCircle
 10
48836.134319
 20
4750.898079
 30
0.0
 40
106.38012
100
AcDbArc
 50
270.0
 51
340.276
  0
ARC
  5
BFA
100
AcDbEntity
  8
LY_1
  6
CONTINUOUS
 62
     7
100
AcDbCircle
 10
48865.702319
 20
4747.958079
 30
0.0
 40
251.1726
100
AcDbArc
 50
270.0
 51
341.626
  0
LINE
  5
BFB
100
AcDbEntity
  8
LY_1
  6
CONTINUOUS
 62
     7
100
AcDbLine
 10
48760.282319
 20
4939.982079
 30
0.0
 11
48836.974319
 21
4939.982079
 31
0.0
  0
LINE
  5
BFC
100
AcDbEntity
  8
LY_1
  6
CONTINUOUS
 62
     7
100
AcDbLine
 10
48586.066319
 20
5084.798079
 30
0.0
 11
48879.814319
 21
5084.798079
 31
0.0
  0
LINE
  5
BFD
100
AcDbEntity
  8
LY_1
  6
CONTINUOUS
 62
     7
100
AcDbLine
 10
48008.230319
 20
5084.798079
 30
0.0
 11
48008.230319
 21
4925.198079
 31
0.0
  0
LINE
  5
BFE
100
AcDbEntity
  8
LY_1
  6
CONTINUOUS
 62
     7
100
AcDbLine
 10
47494.150319
 20
5084.798079
 30
0.0
 11
47494.150319
 21
4925.198079
 31
0.0
  0
LINE
  5
BFF
100
AcDbEntity
  8
LY_1
  6
CONTINUOUS
 62
     7
100
AcDbLine
 10
48239.734319
 20
4895.714079
 30
0.0
 11
48243.850319
 21
4895.714079
 31
0.0
  0
ARC
  5
C00
100
AcDbEntity
  8
LY_1
  6
CONTINUOUS
 62
     7
100
AcDbCircle
 10
47934.394319
 20
4939.982079
 30
0.0
 40
308.47992
100
AcDbArc
 50
342.867
 51
351.73902
  0
ARC
  5
C01
100
AcDbEntity
  8
LY_1
  6
CONTINUOUS
 62
     7
100
AcDbCircle
 10
48549.022319
 20
4939.982079
 30
0.0
 40
308.47908
100
AcDbArc
 50
188.261
 51
197.133
  0
LINE
  5
C02
100
AcDbEntity
  8
LY_1
  6
CONTINUOUS
 62
     7
100
AcDbLine
 10
47844.346319
 20
4925.198079
 30
0.0
 11
48008.230319
 21
4925.198079
 31
0.0
  0
LINE
  5
C03
100
AcDbEntity
  8
LY_1
  6
CONTINUOUS
 62
     7
100
AcDbLine
 10
47494.150319
 20
4925.198079
 30
0.0
 11
47658.202319
 21
4925.198079
 31
0.0
  0
LINE
  5
C04
100
AcDbEntity
  8
LY_1
  6
CONTINUOUS
 62
     7
100
AcDbLine
 10
48141.286319
 20
5084.798079
 30
0.0
 11
48342.214319
 21
5084.798079
 31
0.0
  0
LINE
  5
C05
100
AcDbEntity
  8
LY_1
  6
CONTINUOUS
 62
     7
100
AcDbLine
 10
47494.150319
 20
5084.798079
 30
0.0
 11
48008.230319
 21
5084.798079
 31
0.0
  0
LINE
  5
C06
100
AcDbEntity
  8
LY_1
  6
CONTINUOUS
 62
     7
100
AcDbLine
 10
48760.282319
 20
4644.470079
 30
0.0
 11
48836.134319
 21
4644.470079
 31
0.0
  0
LINE
  5
C07
100
AcDbEntity
  8
LY_1
  6
CONTINUOUS
 62
     7
100
AcDbLine
 10
48586.066319
 20
4496.798079
 30
0.0
 11
48865.702319
 21
4496.798079
 31
0.0
  0
LINE
  5
C08
100
AcDbEntity
  8
LY_1
  6
CONTINUOUS
 62
     7
100
AcDbLine
 10
48336.502319
 20
4582.478079
 30
0.0
 11
48362.794319
 21
4496.798079
 31
0.0
  0
LINE
  5
C09
100
AcDbEntity
  8
LY_1
  6
CONTINUOUS
 62
     7
100
AcDbLine
 10
48146.998319
 20
4582.478079
 30
0.0
 11
48120.538319
 21
4496.798079
 31
0.0
  0
LINE
  5
C0A
100
AcDbEntity
  8
LY_1
  6
CONTINUOUS
 62
     7
100
AcDbLine
 10
48146.998319
 20
4582.478079
 30
0.0
 11
48336.502319
 21
4582.478079
 31
0.0
  0
LINE
  5
C0B
100
AcDbEntity
  8
LY_1
  6
CONTINUOUS
 62
     7
100
AcDbLine
 10
48185.218319
 20
4706.546079
 30
0.0
 11
48298.114319
 21
4706.546079
 31
0.0
  0
LINE
  5
C0C
100
AcDbEntity
  8
LY_1
  6
CONTINUOUS
 62
     7
100
AcDbLine
 10
47658.202319
 20
4496.798079
 30
0.0
 11
47844.346319
 21
4496.798079
 31
0.0
  0
LINE
  5
C0D
100
AcDbEntity
  8
LY_1
  6
CONTINUOUS
 62
     7
100
AcDbLine
 10
47928.514319
 20
4496.798079
 30
0.0
 11
48120.538319
 21
4496.798079
 31
0.0
  0
LINE
  5
C0E
100
AcDbEntity
  8
LY_1
  6
CONTINUOUS
 62
     7
100
AcDbLine
 10
48362.794319
 20
4496.798079
 30
0.0
 11
48554.986319
 21
4496.798079
 31
0.0
  0
LINE
  5
C0F
100
AcDbEntity
  8
LY_1
  6
CONTINUOUS
 62
     7
100
AcDbLine
 10
48760.282319
 20
4939.982079
 30
0.0
 11
48760.282319
 21
4644.470079
 31
0.0
  0
LINE
  5
C10
100
AcDbEntity
  8
LY_1
  6
CONTINUOUS
 62
     7
100
AcDbLine
 10
48342.214319
 20
5084.798079
 30
0.0
 11
48554.986319
 21
4496.798079
 31
0.0
  0
LINE
  5
C11
100
AcDbEntity
  8
LY_1
  6
CONTINUOUS
 62
     7
100
AcDbLine
 10
48586.066319
 20
5084.798079
 30
0.0
 11
48586.066319
 21
4496.798079
 31
0.0
  0
LINE
  5
C12
100
AcDbEntity
  8
LY_1
  6
CONTINUOUS
 62
     7
100
AcDbLine
 10
48141.286319
 20
5084.798079
 30
0.0
 11
47928.514319
 21
4496.798079
 31
0.0
  0
LINE
  5
C13
100
AcDbEntity
  8
LY_1
  6
CONTINUOUS
 62
     7
100
AcDbLine
 10
48254.266319
 20
4849.094079
 30
0.0
 11
48298.114319
 21
4706.546079
 31
0.0
  0
LINE
  5
C14
100
AcDbEntity
  8
LY_1
  6
CONTINUOUS
 62
     7
100
AcDbLine
 10
48229.234319
 20
4849.094079
 30
0.0
 11
48185.218319
 21
4706.546079
 31
0.0
  0
LINE
  5
C15
100
AcDbEntity
  8
LY_1
  6
CONTINUOUS
 62
     7
100
AcDbLine
 10
47844.346319
 20
4925.198079
 30
0.0
 11
47844.346319
 21
4496.798079
 31
0.0
  0
LINE
  5
C16
100
AcDbEntity
  8
LY_1
  6
CONTINUOUS
 62
     7
100
AcDbLine
 10
47658.202319
 20
4925.198079
 30
0.0
 11
47658.202319
 21
4496.798079
 31
0.0
  0
ARC
  5
C17
100
AcDbEntity
  8
LY_1
  6
CONTINUOUS
 62
     7
100
AcDbCircle
 10
50636.758319
 20
4833.806079
 30
0.0
 40
260.03964
100
AcDbArc
 50
107.346
 51
153.043
  0
LINE
  5
C18
100
AcDbEntity
  8
LY_1
  6
CONTINUOUS
 62
     7
100
AcDbLine
 10
50126.962319
 20
5084.798079
 30
0.0
 11
50295.466319
 21
5084.798079
 31
0.0
  0
ARC
  5
C19
100
AcDbEntity
  8
LY_1
  6
CONTINUOUS
 62
     7
100
AcDbCircle
 10
50636.758319
 20
4747.706079
 30
0.0
 40
260.03712
100
AcDbArc
 50
206.967
 51
252.685
  0
LINE
  5
C1A
100
AcDbEntity
  8
LY_1
  6
CONTINUOUS
 62
     7
100
AcDbLine
 10
50121.082319
 20
4496.798079
 30
0.0
 11
50295.466319
 21
4496.798079
 31
0.0
  0
LINE
  5
C1B
100
AcDbEntity
  8
LY_1
  6
CONTINUOUS
 62
     7
100
AcDbLine
 10
50126.374319
 20
4759.718079
 30
0.0
 11
50129.650319
 21
4759.718079
 31
0.0
  0
ARC
  5
C1C
100
AcDbEntity
  8
LY_1
  6
CONTINUOUS
 62
     7
100
AcDbCircle
 10
50505.298319
 20
4804.070079
 30
0.0
 40
378.23772
100
AcDbArc
 50
180.0
 51
186.73
  0
LINE
  5
C1D
100
AcDbEntity
  8
LY_1
  6
CONTINUOUS
 62
     7
100
AcDbLine
 10
50295.466319
 20
5084.798079
 30
0.0
 11
50295.466319
 21
4496.798079
 31
0.0
  0
LINE
  5
C1E
100
AcDbEntity
  8
LY_1
  6
CONTINUOUS
 62
     7
100
AcDbLine
 10
50126.962319
 20
5084.798079
 30
0.0
 11
50126.962319
 21
4804.070079
 31
0.0
  0
ARC
  5
C1F
100
AcDbEntity
  8
LY_1
  6
CONTINUOUS
 62
     7
100
AcDbCircle
 10
50720.926319
 20
4790.798079
 30
0.0
 40
354.59844
100
AcDbArc
 50
152.861
 51
207.131
  0
ARC
  5
C20
100
AcDbEntity
  8
LY_1
  6
CONTINUOUS
 62
     7
100
AcDbCircle
 10
50852.386319
 20
4790.798079
 30
0.0
 40
298.452
100
AcDbArc
 50
165.132
 51
194.869
  0
LINE
  5
C21
100
AcDbEntity
  8
LY_1
  6
CONTINUOUS
 62
     7
100
AcDbLine
 10
49408.426319
 20
4895.714079
 30
0.0
 11
49412.374319
 21
4895.714079
 31
0.0
  0
ARC
  5
C22
100
AcDbEntity
  8
LY_1
  6
CONTINUOUS
 62
     7
100
AcDbCircle
 10
49717.714319
 20
4939.982079
 30
0.0
 40
308.47908
100
AcDbArc
 50
188.261
 51
197.133
  0
ARC
  5
C23
100
AcDbEntity
  8
LY_1
  6
CONTINUOUS
 62
     7
100
AcDbCircle
 10
49103.086319
 20
4939.982079
 30
0.0
 40
308.47992
100
AcDbArc
 50
342.867
 51
351.73902
  0
LINE
  5
C24
100
AcDbEntity
  8
LY_1
  6
CONTINUOUS
 62
     7
100
AcDbLine
 10
49309.978319
 20
5084.798079
 30
0.0
 11
49510.822319
 21
5084.798079
 31
0.0
  0
LINE
  5
C25
100
AcDbEntity
  8
LY_1
  6
CONTINUOUS
 62
     7
100
AcDbLine
 10
49754.590319
 20
5084.798079
 30
0.0
 11
49929.058319
 21
5084.798079
 31
0.0
  0
LINE
  5
C26
100
AcDbEntity
  8
LY_1
  6
CONTINUOUS
 62
     7
100
AcDbLine
 10
49923.178319
 20
4777.526079
 30
0.0
 11
49923.178319
 21
4496.798079
 31
0.0
  0
LINE
  5
C27
100
AcDbEntity
  8
LY_1
  6
CONTINUOUS
 62
     7
100
AcDbLine
 10
49920.406319
 20
4821.794079
 30
0.0
 11
49923.766319
 21
4821.794079
 31
0.0
  0
ARC
  5
C28
100
AcDbEntity
  8
LY_1
  6
CONTINUOUS
 62
     7
100
AcDbCircle
 10
50446.078319
 20
5084.798079
 30
0.0
 40
584.85168
100
AcDbArc
 50
206.723
 51
211.578
  0
ARC
  5
C29
100
AcDbEntity
  8
LY_1
  6
CONTINUOUS
 62
     7
100
AcDbCircle
 10
49544.842319
 20
4777.526079
 30
0.0
 40
378.23772
100
AcDbArc
 50
0.0
 51
6.7299
  0
LINE
  5
C2A
100
AcDbEntity
  8
LY_1
  6
CONTINUOUS
 62
     7
100
AcDbLine
 10
49315.606319
 20
4582.478079
 30
0.0
 11
49505.194319
 21
4582.478079
 31
0.0
  0
LINE
  5
C2B
100
AcDbEntity
  8
LY_1
  6
CONTINUOUS
 62
     7
100
AcDbLine
 10
49353.994319
 20
4706.546079
 30
0.0
 11
49466.890319
 21
4706.546079
 31
0.0
  0
LINE
  5
C2C
100
AcDbEntity
  8
LY_1
  6
CONTINUOUS
 62
     7
100
AcDbLine
 10
49315.606319
 20
4582.478079
 30
0.0
 11
49289.314319
 21
4496.798079
 31
0.0
  0
LINE
  5
C2D
100
AcDbEntity
  8
LY_1
  6
CONTINUOUS
 62
     7
100
AcDbLine
 10
49531.570319
 20
4496.798079
 30
0.0
 11
49723.678319
 21
4496.798079
 31
0.0
  0
LINE
  5
C2E
100
AcDbEntity
  8
LY_1
  6
CONTINUOUS
 62
     7
100
AcDbLine
 10
49505.194319
 20
4582.478079
 30
0.0
 11
49531.570319
 21
4496.798079
 31
0.0
  0
LINE
  5
C2F
100
AcDbEntity
  8
LY_1
  6
CONTINUOUS
 62
     7
100
AcDbLine
 10
49097.206319
 20
4496.798079
 30
0.0
 11
49289.314319
 21
4496.798079
 31
0.0
  0
LINE
  5
C30
100
AcDbEntity
  8
LY_1
  6
CONTINUOUS
 62
     7
100
AcDbLine
 10
49754.590319
 20
4496.798079
 30
0.0
 11
49923.178319
 21
4496.798079
 31
0.0
  0
LINE
  5
C31
100
AcDbEntity
  8
LY_1
  6
CONTINUOUS
 62
     7
100
AcDbLine
 10
49929.058319
 20
5084.798079
 30
0.0
 11
50102.266319
 21
4802.978079
 31
0.0
  0
LINE
  5
C32
100
AcDbEntity
  8
LY_1
  6
CONTINUOUS
 62
     7
100
AcDbLine
 10
49754.590319
 20
5084.798079
 30
0.0
 11
49754.590319
 21
4496.798079
 31
0.0
  0
LINE
  5
C33
100
AcDbEntity
  8
LY_1
  6
CONTINUOUS
 62
     7
100
AcDbLine
 10
49510.822319
 20
5084.798079
 30
0.0
 11
49723.678319
 21
4496.798079
 31
0.0
  0
ARC
  5
C34
100
AcDbEntity
  8
LY_1
  6
CONTINUOUS
 62
     7
100
AcDbCircle
 10
48736.678319
 20
4790.798079
 30
0.0
 40
387.1014
100
AcDbArc
 50
341.626
 51
23.9327
  0
LINE
  5
C35
100
AcDbEntity
  8
LY_1
  6
CONTINUOUS
 62
     7
100
AcDbLine
 10
49097.206319
 20
4496.798079
 30
0.0
 11
49309.978319
 21
5084.798079
 31
0.0
  0
LINE
  5
C36
100
AcDbEntity
  8
LY_1
  6
CONTINUOUS
 62
     7
100
AcDbLine
 10
49422.958319
 20
4849.094079
 30
0.0
 11
49466.890319
 21
4706.546079
 31
0.0
  0
LINE
  5
C37
100
AcDbEntity
  8
LY_1
  6
CONTINUOUS
 62
     7
100
AcDbLine
 10
49397.926319
 20
4849.094079
 30
0.0
 11
49353.994319
 21
4706.546079
 31
0.0
  0
ARC
  5
C38
100
AcDbEntity
  8
LY_1
  6
CONTINUOUS
 62
     7
100
AcDbCircle
 10
48724.834319
 20
4790.798079
 30
0.0
 40
224.5782
100
AcDbArc
 50
340.276
 51
22.213
  0
LINE
  5
C39
100
AcDbEntity
  8
LY_1
  6
CONTINUOUS
 62
     7
100
AcDbLine
 10
49947.874319
 20
4778.534079
 30
0.0
 11
50121.082319
 21
4496.798079
 31
0.0
  0
ARC
  5
C3A
100
AcDbEntity
  8
LY_1
  6
CONTINUOUS
 62
     7
100
AcDbCircle
 10
49603.978319
 20
4496.798079
 30
0.0
 40
584.84916
100
AcDbArc
 50
26.7228
 51
31.5781
  0
ARC
  5
C3B
100
AcDbEntity
  8
LY_1
  6
CONTINUOUS
 62
     7
100
AcDbCircle
 10
50692.870319
 20
4833.806079
 30
0.0
 40
260.03796
100
AcDbArc
 50
27.0618
 51
72.7366
  0
ARC
  5
C3C
100
AcDbEntity
  8
LY_1
  6
CONTINUOUS
 62
     7
100
AcDbCircle
 10
50692.870319
 20
4747.706079
 30
0.0
 40
260.03964
100
AcDbArc
 50
287.263
 51
332.938
  0
ARC
  5
C3D
100
AcDbEntity
  8
LY_1
  6
CONTINUOUS
 62
     7
100
AcDbCircle
 10
50608.618319
 20
4790.798079
 30
0.0
 40
354.59844
100
AcDbArc
 50
332.938
 51
27.062
  0
ARC
  5
C3E
100
AcDbEntity
  8
LY_1
  6
CONTINUOUS
 62
     7
100
AcDbCircle
 10
50477.158319
 20
4790.798079
 30
0.0
 40
298.452
100
AcDbArc
 50
345.311
 51
14.6886
  0
ENDSEC
  0
SECTION
  2
OBJECTS
  0
DICTIONARY
  5
C
100
AcDbDictionary
  3
ACAD_GROUP
350
D
  3
ACAD_MLINESTYLE
350
1B
  3
CONTENTDICTIONARY
350
B6D
  0
DICTIONARY
  5
D
102
{ACAD_REACTORS
330
C
102
}
100
AcDbDictionary
  0
DICTIONARY
  5
1B
102
{ACAD_REACTORS
330
C
102
}
100
AcDbDictionary
  3
STANDARD
350
1C
  0
DICTIONARY
  5
B6D
102
{ACAD_REACTORS
330
C
102
}
100
AcDbDictionary
  0
MLINESTYLE
  5
1C
102
{ACAD_REACTORS
330
1B
102
}
100
AcDbMlineStyle
  2
STANDARD
 70
     0
  3

 62
   256
 51
90.0
 52
90.0
 71
     2
 49
0.5
 62
   256
  6
BYLAYER
 49
-0.5
 62
   256
  6
BYLAYER
  0
ENDSEC
  0
EOF
