  0
SECTION
  2
HEADER
  9
$ACADVER
  1
AC1014
  9
$ACADMAINTVER
 70
     0
  9
$DWGCODEPAGE
  3
ANSI_932
  9
$INSBASE
 10
0.0
 20
0.0
 30
0.0
  9
$EXTMIN
 10
-158.422186
 20
0.000028
 30
0.0
  9
$EXTMAX
 10
31946.18761
 20
27365.849937
 30
0.0
  9
$LIMMIN
 10
0.0
 20
0.0
  9
$LIMMAX
 10
420.0
 20
297.0
  9
$ORTHOMODE
 70
     0
  9
$REGENMODE
 70
     1
  9
$FILLMODE
 70
     1
  9
$QTEXTMODE
 70
     0
  9
$MIRRTEXT
 70
     1
  9
$DRAGMODE
 70
     2
  9
$LTSCALE
 40
1.0
  9
$OSMODE
 70
     0
  9
$ATTMODE
 70
     1
  9
$TEXTSIZE
 40
2.5
  9
$TRACEWID
 40
1.0
  9
$TEXTSTYLE
  7
STANDARD
  9
$CLAYER
  8
0
  9
$CELTYPE
  6
BYLAYER
  9
$CECOLOR
 62
   256
  9
$CELTSCALE
 40
1.0
  9
$DELOBJ
 70
     1
  9
$DISPSILH
 70
     0
  9
$DIMSCALE
 40
1.0
  9
$DIMASZ
 40
2.5
  9
$DIMEXO
 40
0.625
  9
$DIMDLI
 40
3.75
  9
$DIMRND
 40
0.0
  9
$DIMDLE
 40
0.0
  9
$DIMEXE
 40
1.25
  9
$DIMTP
 40
0.0
  9
$DIMTM
 40
0.0
  9
$DIMTXT
 40
2.5
  9
$DIMCEN
 40
2.5
  9
$DIMTSZ
 40
0.0
  9
$DIMTOL
 70
     0
  9
$DIMLIM
 70
     0
  9
$DIMTIH
 70
     0
  9
$DIMTOH
 70
     0
  9
$DIMSE1
 70
     0
  9
$DIMSE2
 70
     0
  9
$DIMTAD
 70
     1
  9
$DIMZIN
 70
     8
  9
$DIMBLK
  1

  9
$DIMASO
 70
     1
  9
$DIMSHO
 70
     1
  9
$DIMPOST
  1

  9
$DIMAPOST
  1

  9
$DIMALT
 70
     0
  9
$DIMALTD
 70
     4
  9
$DIMALTF
 40
0.0394
  9
$DIMLFAC
 40
1.0
  9
$DIMTOFL
 70
     1
  9
$DIMTVP
 40
0.0
  9
$DIMTIX
 70
     0
  9
$DIMSOXD
 70
     0
  9
$DIMSAH
 70
     0
  9
$DIMBLK1
  1

  9
$DIMBLK2
  1

  9
$DIMSTYLE
  2
STANDARD
  9
$DIMCLRD
 70
     0
  9
$DIMCLRE
 70
     0
  9
$DIMCLRT
 70
     0
  9
$DIMTFAC
 40
1.0
  9
$DIMGAP
 40
0.625
  9
$DIMJUST
 70
     0
  9
$DIMSD1
 70
     0
  9
$DIMSD2
 70
     0
  9
$DIMTOLJ
 70
     1
  9
$DIMTZIN
 70
     0
  9
$DIMALTZ
 70
     0
  9
$DIMALTTZ
 70
     0
  9
$DIMFIT
 70
     3
  9
$DIMUPT
 70
     0
  9
$DIMUNIT
 70
     8
  9
$DIMDEC
 70
     4
  9
$DIMTDEC
 70
     4
  9
$DIMALTU
 70
     8
  9
$DIMALTTD
 70
     4
  9
$DIMTXSTY
  7
STANDARD
  9
$DIMAUNIT
 70
     0
  9
$LUNITS
 70
     2
  9
$LUPREC
 70
     4
  9
$SKETCHINC
 40
1.0
  9
$FILLETRAD
 40
0.0
  9
$AUNITS
 70
     0
  9
$AUPREC
 70
     0
  9
$MENU
  1
acad
  9
$ELEVATION
 40
0.0
  9
$PELEVATION
 40
0.0
  9
$THICKNESS
 40
0.0
  9
$LIMCHECK
 70
     0
  9
$BLIPMODE
 70
     0
  9
$CHAMFERA
 40
10.0
  9
$CHAMFERB
 40
10.0
  9
$CHAMFERC
 40
20.0
  9
$CHAMFERD
 40
0.0
  9
$SKPOLY
 70
     0
  9
$TDCREATE
 40
2454555.414996018
  9
$TDUPDATE
 40
2454555.427099606
  9
$TDINDWG
 40
0.0121035880
  9
$TDUSRTIMER
 40
0.0121035880
  9
$USRTIMER
 70
     1
  9
$ANGBASE
 50
0.0
  9
$ANGDIR
 70
     0
  9
$PDMODE
 70
    35
  9
$PDSIZE
 40
0.0
  9
$PLINEWID
 40
0.0
  9
$COORDS
 70
     1
  9
$SPLFRAME
 70
     0
  9
$SPLINETYPE
 70
     6
  9
$SPLINESEGS
 70
     8
  9
$ATTDIA
 70
     0
  9
$ATTREQ
 70
     1
  9
$HANDLING
 70
     1
  9
$HANDSEED
  5
F50
  9
$SURFTAB1
 70
     6
  9
$SURFTAB2
 70
     6
  9
$SURFTYPE
 70
     6
  9
$SURFU
 70
     6
  9
$SURFV
 70
     6
  9
$UCSNAME
  2

  9
$UCSORG
 10
0.0
 20
0.0
 30
0.0
  9
$UCSXDIR
 10
1.0
 20
0.0
 30
0.0
  9
$UCSYDIR
 10
0.0
 20
1.0
 30
0.0
  9
$PUCSNAME
  2

  9
$PUCSORG
 10
0.0
 20
0.0
 30
0.0
  9
$PUCSXDIR
 10
1.0
 20
0.0
 30
0.0
  9
$PUCSYDIR
 10
0.0
 20
1.0
 30
0.0
  9
$USERI1
 70
     0
  9
$USERI2
 70
     0
  9
$USERI3
 70
     0
  9
$USERI4
 70
     0
  9
$USERI5
 70
     0
  9
$USERR1
 40
0.0
  9
$USERR2
 40
0.0
  9
$USERR3
 40
0.0
  9
$USERR4
 40
0.0
  9
$USERR5
 40
0.0
  9
$WORLDVIEW
 70
     1
  9
$SHADEDGE
 70
     3
  9
$SHADEDIF
 70
    70
  9
$TILEMODE
 70
     1
  9
$MAXACTVP
 70
    48
  9
$PINSBASE
 10
0.0
 20
0.0
 30
0.0
  9
$PLIMCHECK
 70
     0
  9
$PEXTMIN
 10
1.000000E+20
 20
1.000000E+20
 30
1.000000E+20
  9
$PEXTMAX
 10
-1.000000E+20
 20
-1.000000E+20
 30
-1.000000E+20
  9
$PLIMMIN
 10
0.0
 20
0.0
  9
$PLIMMAX
 10
420.0
 20
297.0
  9
$UNITMODE
 70
     0
  9
$VISRETAIN
 70
     1
  9
$PLINEGEN
 70
     0
  9
$PSLTSCALE
 70
     1
  9
$TREEDEPTH
 70
  3020
  9
$PICKSTYLE
 70
     1
  9
$CMLSTYLE
  2
STANDARD
  9
$CMLJUST
 70
     0
  9
$CMLSCALE
 40
20.0
  9
$PROXYGRAPHICS
 70
     1
  9
$MEASUREMENT
 70
     1
  0
ENDSEC
  0
SECTION
  2
CLASSES
  0
CLASS
  1
LWPOLYLINE
  2
AcDbPolyline
  3
"AutoCAD"
 90
        0
280
     0
281
     1
  0
ENDSEC
  0
SECTION
  2
TABLES
  0
TABLE
  2
VPORT
  5
8
100
AcDbSymbolTable
 70
     1
  0
VPORT
  5
F48
100
AcDbSymbolTableRecord
100
AcDbViewportTableRecord
  2
*ACTIVE
 70
     0
 10
0.0
 20
0.0
 11
1.0
 21
1.0
 12
15967.275558
 22
13682.925032
 13
0.0
 23
0.0
 14
10.0
 24
10.0
 15
10.0
 25
10.0
 16
0.0
 26
0.0
 36
1.0
 17
0.0
 27
0.0
 37
0.0
 40
27680.291875
 41
1.839695
 42
50.0
 43
0.0
 44
0.0
 50
0.0
 51
0.0
 71
     0
 72
   100
 73
     1
 74
     1
 75
     0
 76
     0
 77
     0
 78
     0
  0
ENDTAB
  0
TABLE
  2
LTYPE
  5
5
100
AcDbSymbolTable
 70
     3
  0
LTYPE
  5
12
100
AcDbSymbolTableRecord
100
AcDbLinetypeTableRecord
  2
BYBLOCK
 70
     0
  3

 72
    65
 73
     0
 40
0.0
  0
LTYPE
  5
13
100
AcDbSymbolTableRecord
100
AcDbLinetypeTableRecord
  2
BYLAYER
 70
     0
  3

 72
    65
 73
     0
 40
0.0
  0
LTYPE
  5
14
100
AcDbSymbolTableRecord
100
AcDbLinetypeTableRecord
  2
CONTINUOUS
 70
     0
  3
Solid line
 72
    65
 73
     0
 40
0.0
  0
LTYPE
  5
56
100
AcDbSymbolTableRecord
100
AcDbLinetypeTableRecord
  2
CENTER
 70
     0
  3
Center ____ _ ____ _ ____ _ ____ _ ____ _ ____
 72
    65
 73
     4
 40
50.8
 49
31.75
 74
     0
 49
-6.35
 74
     0
 49
6.35
 74
     0
 49
-6.35
 74
     0
  0
LTYPE
  5
57
100
AcDbSymbolTableRecord
100
AcDbLinetypeTableRecord
  2
DASHED
 70
     0
  3
Dashed __ __ __ __ __ __ __ __ __ __ __ __ __ _
 72
    65
 73
     2
 40
19.05
 49
12.7
 74
     0
 49
-6.35
 74
     0
  0
ENDTAB
  0
TABLE
  2
LAYER
  5
2
100
AcDbSymbolTable
 70
     3
  0
LAYER
  5
E
100
AcDbSymbolTableRecord
100
AcDbLayerTableRecord
  2
0
 70
     0
 62
     7
  6
CONTINUOUS
  0
LAYER
  5
58
100
AcDbSymbolTableRecord
100
AcDbLayerTableRecord
  2
LY_1
 70
     0
 62
     7
  6
CONTINUOUS
  0
LAYER
  5
59
100
AcDbSymbolTableRecord
100
AcDbLayerTableRecord
  2
DEFPOINTS
 70
     0
 62
     7
  6
CONTINUOUS
  0
ENDTAB
  0
TABLE
  2
STYLE
  5
3
100
AcDbSymbolTable
 70
     4
  0
STYLE
  5
F
100
AcDbSymbolTableRecord
100
AcDbTextStyleTableRecord
  2
STANDARD
 70
     0
 40
0.0
 41
1.0
 50
0.0
 71
     0
 42
2.5
  3
txt
  4

  0
STYLE
  5
5A
100
AcDbSymbolTableRecord
100
AcDbTextStyleTableRecord
  2
MX_NOTE_STANDARD
 70
     0
 40
0.0
 41
1.0
 50
0.0
 71
     0
 42
3.15
  3
txt.shx
  4
bigfont.shx
  0
STYLE
  5
5B
100
AcDbSymbolTableRecord
100
AcDbTextStyleTableRecord
  2
MX_DIMTXSTY_2
 70
     0
 40
0.0
 41
1.05
 50
0.0
 71
     0
 42
3.15
  3
txt.shx
  4
bigfont.shx
  0
STYLE
  5
5C
100
AcDbSymbolTableRecord
100
AcDbTextStyleTableRecord
  2
MX_DIMTXSTY_3
 70
     0
 40
0.0
 41
1.1
 50
0.0
 71
     0
 42
3.15
  3
txt.shx
  4
bigfont.shx
  0
ENDTAB
  0
TABLE
  2
VIEW
  5
6
100
AcDbSymbolTable
 70
     0
  0
ENDTAB
  0
TABLE
  2
UCS
  5
7
100
AcDbSymbolTable
 70
     0
  0
ENDTAB
  0
TABLE
  2
APPID
  5
9
100
AcDbSymbolTable
 70
     3
  0
APPID
  5
10
100
AcDbSymbolTableRecord
100
AcDbRegAppTableRecord
  2
ACAD
 70
     0
  0
APPID
  5
F4E
100
AcDbSymbolTableRecord
100
AcDbRegAppTableRecord
  2
CONTENTTABDATA
 70
     0
  0
APPID
  5
F4F
100
AcDbSymbolTableRecord
100
AcDbRegAppTableRecord
  2
CONTENTCURRENTTAB
 70
     0
  0
ENDTAB
  0
TABLE
  2
DIMSTYLE
  5
A
100
AcDbSymbolTable
 70
     2
  0
DIMSTYLE
105
1D
100
AcDbSymbolTableRecord
100
AcDbDimStyleTableRecord
  2
STANDARD
 70
     0
  3

  4

  5

  6

  7

 40
1.0
 41
0.18
 42
0.0625
 43
0.38
 44
0.18
 45
0.0
 46
0.0
 47
0.0
 48
0.0
140
0.18
141
0.09
142
0.0
143
25.4
144
1.0
145
0.0
146
1.0
147
0.09
 71
     0
 72
     0
 73
     1
 74
     1
 75
     0
 76
     0
 77
     0
 78
     0
170
     0
171
     2
172
     0
173
     0
174
     0
175
     0
176
     0
177
     0
178
     0
270
     2
271
     4
272
     4
273
     2
274
     2
340
F
275
     0
280
     0
281
     0
282
     0
283
     1
284
     0
285
     0
286
     0
287
     3
288
     0
  0
DIMSTYLE
105
5E
102
{ACAD_REACTORS
330
7A8
330
7A9
330
7BE
330
876
102
}
100
AcDbSymbolTableRecord
100
AcDbDimStyleTableRecord
  2
MXDIMSTYLE
 70
     0
  3

  4

  5

  6
OPEN30
  7
OPEN30
 40
1.0
 41
2.5
 42
0.5
 43
3.75
 44
1.0
 45
0.0
 46
0.0
 47
0.0
 48
0.0
140
2.8
141
2.5
142
0.0
143
0.03937
144
1.0
145
0.0
146
1.0
147
0.5
 71
     0
 72
     0
 73
     0
 74
     0
 75
     0
 76
     0
 77
     1
 78
     8
170
     0
171
     4
172
     1
173
     1
174
     0
175
     0
176
     0
177
     0
178
     0
270
     2
271
     2
272
     2
273
     2
274
     4
340
5A
275
     0
280
     0
281
     0
282
     0
283
     0
284
     0
285
     0
286
     0
287
     3
288
     1
  0
ENDTAB
  0
TABLE
  2
BLOCK_RECORD
  5
1
100
AcDbSymbolTable
 70
     5
  0
BLOCK_RECORD
  5
18
100
AcDbSymbolTableRecord
100
AcDbBlockTableRecord
  2
*MODEL_SPACE
  0
BLOCK_RECORD
  5
15
100
AcDbSymbolTableRecord
100
AcDbBlockTableRecord
  2
*PAPER_SPACE
  0
BLOCK_RECORD
  5
20
100
AcDbSymbolTableRecord
100
AcDbBlockTableRecord
  2
_OPEN30
  0
BLOCK_RECORD
  5
EEC
100
AcDbSymbolTableRecord
100
AcDbBlockTableRecord
  2
*D1
  0
BLOCK_RECORD
  5
EF8
100
AcDbSymbolTableRecord
100
AcDbBlockTableRecord
  2
*D2
  0
BLOCK_RECORD
  5
F04
100
AcDbSymbolTableRecord
100
AcDbBlockTableRecord
  2
*D3
  0
BLOCK_RECORD
  5
F10
100
AcDbSymbolTableRecord
100
AcDbBlockTableRecord
  2
*D4
  0
ENDTAB
  0
ENDSEC
  0
SECTION
  2
BLOCKS
  0
BLOCK
  5
19
100
AcDbEntity
  8
0
100
AcDbBlockBegin
  2
*MODEL_SPACE
 70
     0
 10
0.0
 20
0.0
 30
0.0
  3
*MODEL_SPACE
  1

  0
ENDBLK
  5
1A
100
AcDbEntity
  8
0
100
AcDbBlockEnd
  0
BLOCK
  5
16
100
AcDbEntity
 67
     1
  8
0
100
AcDbBlockBegin
  2
*PAPER_SPACE
 70
     0
 10
0.0
 20
0.0
 30
0.0
  3
*PAPER_SPACE
  1

  0
ENDBLK
  5
17
100
AcDbEntity
 67
     1
  8
0
100
AcDbBlockEnd
  0
BLOCK
  5
24
100
AcDbEntity
  8
0
  6
BYBLOCK
 62
     0
100
AcDbBlockBegin
  2
_OPEN30
 70
     2
 10
0.0
 20
0.0
 30
0.0
  3
_OPEN30
  1

  0
LINE
  5
21
100
AcDbEntity
  8
0
  6
BYBLOCK
 62
     0
100
AcDbLine
 10
-1.0
 20
0.267949
 30
0.0
 11
0.0
 21
0.0
 31
0.0
  0
LINE
  5
22
100
AcDbEntity
  8
0
  6
BYBLOCK
 62
     0
100
AcDbLine
 10
0.0
 20
0.0
 30
0.0
 11
-1.0
 21
-0.267949
 31
0.0
  0
LINE
  5
23
100
AcDbEntity
  8
0
  6
BYBLOCK
 62
     0
100
AcDbLine
 10
0.0
 20
0.0
 30
0.0
 11
-1.0
 21
0.0
 31
0.0
  0
ENDBLK
  5
25
100
AcDbEntity
  8
0
  6
BYBLOCK
 62
     0
100
AcDbBlockEnd
  0
BLOCK
  5
F1C
100
AcDbEntity
  8
0
100
AcDbBlockBegin
  2
*D1
 70
     1
 10
0.0
 20
0.0
 30
0.0
  3
*D1
  1

  0
LINE
  5
F1D
100
AcDbEntity
  8
0
  6
BYBLOCK
 62
     0
100
AcDbLine
 10
21260.53255
 20
17932.497053
 30
0.0
 11
21260.53255
 21
16174.770857
 31
0.0
  0
LINE
  5
F1E
100
AcDbEntity
  8
0
  6
BYBLOCK
 62
     0
100
AcDbLine
 10
12730.940162
 20
17093.433333
 30
0.0
 11
12730.940162
 21
16174.770857
 31
0.0
  0
LINE
  5
F1F
100
AcDbEntity
  8
0
  6
BYBLOCK
 62
     0
100
AcDbLine
 10
20983.53255
 20
16175.770857
 30
0.0
 11
13007.940162
 21
16175.770857
 31
0.0
  0
INSERT
  5
F20
100
AcDbEntity
  8
0
  6
BYBLOCK
 62
     0
100
AcDbBlockReference
  2
_OPEN30
 10
21260.53255
 20
16175.770857
 30
0.0
 41
277.0
 42
277.0
 43
277.0
  0
INSERT
  5
F21
100
AcDbEntity
  8
0
  6
BYBLOCK
 62
     0
100
AcDbBlockReference
  2
_OPEN30
 10
12730.940162
 20
16175.770857
 30
0.0
 41
277.0
 42
277.0
 43
277.0
 50
180.0
  0
MTEXT
  5
F22
100
AcDbEntity
  8
0
  6
BYBLOCK
 62
     0
100
AcDbMText
 10
16995.736163
 20
16326.270857
 30
0.0
 40
300.0
 41
0.0
 71
     5
 72
     1
  1
8530
  7
MX_DIMTXSTY_2
  0
POINT
  5
F23
100
AcDbEntity
  8
DEFPOINTS
  6
BYBLOCK
 62
     0
100
AcDbPoint
 10
21260.53255
 20
17932.997053
 30
0.0
  0
POINT
  5
F24
100
AcDbEntity
  8
DEFPOINTS
  6
BYBLOCK
 62
     0
100
AcDbPoint
 10
12730.940162
 20
17093.933333
 30
0.0
  0
POINT
  5
F25
100
AcDbEntity
  8
DEFPOINTS
  6
BYBLOCK
 62
     0
100
AcDbPoint
 10
12730.940162
 20
16175.770857
 30
0.0
  0
ENDBLK
  5
F26
100
AcDbEntity
  8
0
100
AcDbBlockEnd
  0
BLOCK
  5
F27
100
AcDbEntity
  8
0
100
AcDbBlockBegin
  2
*D2
 70
     1
 10
0.0
 20
0.0
 30
0.0
  3
*D2
  1

  0
LINE
  5
F28
100
AcDbEntity
  8
0
  6
BYBLOCK
 62
     0
100
AcDbLine
 10
21260.53255
 20
11932.496946
 30
0.0
 11
21260.53255
 21
10112.583738
 31
0.0
  0
LINE
  5
F29
100
AcDbEntity
  8
0
  6
BYBLOCK
 62
     0
100
AcDbLine
 10
330.940162
 20
11093.433287
 30
0.0
 11
330.940162
 21
10112.583738
 31
0.0
  0
LINE
  5
F2A
100
AcDbEntity
  8
0
  6
BYBLOCK
 62
     0
100
AcDbLine
 10
20983.53255
 20
10113.583738
 30
0.0
 11
607.940162
 21
10113.583738
 31
0.0
  0
INSERT
  5
F2B
100
AcDbEntity
  8
0
  6
BYBLOCK
 62
     0
100
AcDbBlockReference
  2
_OPEN30
 10
21260.53255
 20
10113.583738
 30
0.0
 41
277.0
 42
277.0
 43
277.0
  0
INSERT
  5
F2C
100
AcDbEntity
  8
0
  6
BYBLOCK
 62
     0
100
AcDbBlockReference
  2
_OPEN30
 10
330.940162
 20
10113.583738
 30
0.0
 41
277.0
 42
277.0
 43
277.0
 50
180.0
  0
MTEXT
  5
F2D
100
AcDbEntity
  8
0
  6
BYBLOCK
 62
     0
100
AcDbMText
 10
10795.736651
 20
10264.083738
 30
0.0
 40
300.0
 41
0.0
 71
     5
 72
     1
  1
20930
  7
MX_DIMTXSTY_2
  0
POINT
  5
F2E
100
AcDbEntity
  8
DEFPOINTS
  6
BYBLOCK
 62
     0
100
AcDbPoint
 10
21260.53255
 20
11932.996946
 30
0.0
  0
POINT
  5
F2F
100
AcDbEntity
  8
DEFPOINTS
  6
BYBLOCK
 62
     0
100
AcDbPoint
 10
330.940162
 20
11093.933287
 30
0.0
  0
POINT
  5
F30
100
AcDbEntity
  8
DEFPOINTS
  6
BYBLOCK
 62
     0
100
AcDbPoint
 10
330.940162
 20
10113.583738
 30
0.0
  0
ENDBLK
  5
F31
100
AcDbEntity
  8
0
100
AcDbBlockEnd
  0
BLOCK
  5
F32
100
AcDbEntity
  8
0
100
AcDbBlockBegin
  2
*D3
 70
     1
 10
0.0
 20
0.0
 30
0.0
  3
*D3
  1

  0
LINE
  5
F33
100
AcDbEntity
  8
0
  6
BYBLOCK
 62
     0
100
AcDbLine
 10
6739.828352
 20
2451.182183
 30
0.0
 11
6739.828352
 21
1538.456047
 31
0.0
  0
LINE
  5
F34
100
AcDbEntity
  8
0
  6
BYBLOCK
 62
     0
100
AcDbLine
 10
3404.828352
 20
2451.182488
 30
0.0
 11
3404.828352
 21
1538.456047
 31
0.0
  0
LINE
  5
F35
100
AcDbEntity
  8
0
  6
BYBLOCK
 62
     0
100
AcDbLine
 10
6462.828352
 20
1539.456047
 30
0.0
 11
3681.828352
 21
1539.456047
 31
0.0
  0
INSERT
  5
F36
100
AcDbEntity
  8
0
  6
BYBLOCK
 62
     0
100
AcDbBlockReference
  2
_OPEN30
 10
6739.828352
 20
1539.456047
 30
0.0
 41
277.0
 42
277.0
 43
277.0
  0
INSERT
  5
F37
100
AcDbEntity
  8
0
  6
BYBLOCK
 62
     0
100
AcDbBlockReference
  2
_OPEN30
 10
3404.828352
 20
1539.456047
 30
0.0
 41
277.0
 42
277.0
 43
277.0
 50
180.0
  0
MTEXT
  5
F38
100
AcDbEntity
  8
0
  6
BYBLOCK
 62
     0
100
AcDbMText
 10
5072.328352
 20
1689.956047
 30
0.0
 40
300.0
 41
0.0
 71
     5
 72
     1
  1
3335
  7
MX_NOTE_STANDARD
  0
POINT
  5
F39
100
AcDbEntity
  8
DEFPOINTS
  6
BYBLOCK
 62
     0
100
AcDbPoint
 10
6739.828352
 20
2451.682183
 30
0.0
  0
POINT
  5
F3A
100
AcDbEntity
  8
DEFPOINTS
  6
BYBLOCK
 62
     0
100
AcDbPoint
 10
3404.828352
 20
2451.682488
 30
0.0
  0
POINT
  5
F3B
100
AcDbEntity
  8
DEFPOINTS
  6
BYBLOCK
 62
     0
100
AcDbPoint
 10
3404.828352
 20
1539.456047
 30
0.0
  0
ENDBLK
  5
F3C
100
AcDbEntity
  8
0
100
AcDbBlockEnd
  0
BLOCK
  5
F3D
100
AcDbEntity
  8
0
100
AcDbBlockBegin
  2
*D4
 70
     1
 10
0.0
 20
0.0
 30
0.0
  3
*D4
  1

  0
LINE
  5
F3E
100
AcDbEntity
  8
0
  6
BYBLOCK
 62
     0
100
AcDbLine
 10
5349.828381
 20
6818.748903
 30
0.0
 11
5349.828381
 21
5911.45801
 31
0.0
  0
LINE
  5
F3F
100
AcDbEntity
  8
0
  6
BYBLOCK
 62
     0
100
AcDbLine
 10
3404.828352
 20
6818.749392
 30
0.0
 11
3404.828352
 21
5911.45801
 31
0.0
  0
LINE
  5
F40
100
AcDbEntity
  8
0
  6
BYBLOCK
 62
     0
100
AcDbLine
 10
5072.828381
 20
5912.45801
 30
0.0
 11
3681.828352
 21
5912.45801
 31
0.0
  0
INSERT
  5
F41
100
AcDbEntity
  8
0
  6
BYBLOCK
 62
     0
100
AcDbBlockReference
  2
_OPEN30
 10
5349.828381
 20
5912.45801
 30
0.0
 41
277.0
 42
277.0
 43
277.0
  0
INSERT
  5
F42
100
AcDbEntity
  8
0
  6
BYBLOCK
 62
     0
100
AcDbBlockReference
  2
_OPEN30
 10
3404.828352
 20
5912.45801
 30
0.0
 41
277.0
 42
277.0
 43
277.0
 50
180.0
  0
MTEXT
  5
F43
100
AcDbEntity
  8
0
  6
BYBLOCK
 62
     0
100
AcDbMText
 10
4377.328381
 20
6062.95801
 30
0.0
 40
300.0
 41
0.0
 71
     5
 72
     1
  1
1945
  7
MX_DIMTXSTY_3
  0
POINT
  5
F44
100
AcDbEntity
  8
DEFPOINTS
  6
BYBLOCK
 62
     0
100
AcDbPoint
 10
5349.828381
 20
6819.248903
 30
0.0
  0
POINT
  5
F45
100
AcDbEntity
  8
DEFPOINTS
  6
BYBLOCK
 62
     0
100
AcDbPoint
 10
3404.828352
 20
6819.249392
 30
0.0
  0
POINT
  5
F46
100
AcDbEntity
  8
DEFPOINTS
  6
BYBLOCK
 62
     0
100
AcDbPoint
 10
3404.828352
 20
5912.45801
 30
0.0
  0
ENDBLK
  5
F47
100
AcDbEntity
  8
0
100
AcDbBlockEnd
  0
ENDSEC
  0
SECTION
  2
ENTITIES
  0
DIMENSION
  5
7A8
100
AcDbEntity
  8
LY_1
  6
CONTINUOUS
 62
     7
100
AcDbDimension
  2
*D1
 10
12730.940162
 20
16175.770857
 30
0.0
 11
16995.736163
 21
16175.770857
 31
0.0
 70
   160
  1
<>
  3
MXDIMSTYLE
100
AcDbAlignedDimension
 13
21260.53255
 23
17932.997053
 33
0.0
 14
12730.940162
 24
17093.933333
 34
0.0
100
AcDbRotatedDimension
1001
ACAD
1000
DSTYLE
1002
{
1070
    41
1040
277.0
1070
   140
1040
300.0
1070
   271
1070
     0
1070
   284
1070
     8
1070
   340
1005
5B
1002
}
  0
DIMENSION
  5
7A9
100
AcDbEntity
  8
LY_1
  6
CONTINUOUS
 62
     7
100
AcDbDimension
  2
*D2
 10
330.940162
 20
10113.583738
 30
0.0
 11
10795.736651
 21
10113.583738
 31
0.0
 70
   160
  1
<>
  3
MXDIMSTYLE
100
AcDbAlignedDimension
 13
21260.53255
 23
11932.996946
 33
0.0
 14
330.940162
 24
11093.933287
 34
0.0
100
AcDbRotatedDimension
1001
ACAD
1000
DSTYLE
1002
{
1070
    41
1040
277.0
1070
   140
1040
300.0
1070
   271
1070
     0
1070
   284
1070
     8
1070
   340
1005
5B
1002
}
  0
MTEXT
  5
7AA
100
AcDbEntity
  8
LY_1
  6
CONTINUOUS
 62
     7
100
AcDbMText
 10
8764.328228
 20
27365.849937
 30
0.0
 40
336.0
 41
0.0
 71
     1
 72
     1
  1
\W0.700;\A1;ALL RIGHTS RESERVED,COPYRIGHT(C) TADANOSYSTEMS INC.
  7
MX_NOTE_STANDARD
1001
ACAD
1000
MTEXTBEGIN
1070
    73
1070
     1
1070
    44
1040
1.0
1070
    74
1070
     0
1000
MTEXTEND
  0
MTEXT
  5
7AB
100
AcDbEntity
  8
LY_1
  6
CONTINUOUS
 62
     7
100
AcDbMText
 10
11031.285469
 20
2624.419472
 30
0.0
 40
1000.0
 41
0.0
 71
     7
 72
     1
  1
\W0.888;\A1;FLJ0006
  7
MX_NOTE_STANDARD
1001
ACAD
1000
MTEXTBEGIN
1070
    73
1070
     1
1070
    44
1040
0.66
1070
    74
1070
     0
1000
MTEXTEND
  0
MTEXT
  5
7AC
100
AcDbEntity
  8
LY_1
  6
CONTINUOUS
 62
     7
100
AcDbMText
 10
14652.502851
 20
14454.939558
 30
0.0
 40
1000.0
 41
0.0
 71
     7
 72
     1
  1
\W0.936;\A1;FLJ0001
  7
MX_NOTE_STANDARD
1001
ACAD
1000
MTEXTBEGIN
1070
    73
1070
     1
1070
    44
1040
0.66
1070
    74
1070
     0
1000
MTEXTEND
  0
LINE
  5
7AD
100
AcDbEntity
  8
LY_1
  6
CONTINUOUS
 62
    46
100
AcDbLine
 10
14405.532794
 20
11691.496996
 30
0.0
 11
21019.53255
 21
11691.496996
 31
0.0
  0
LINE
  5
7AE
100
AcDbEntity
  8
LY_1
  6
CONTINUOUS
 62
    46
100
AcDbLine
 10
14405.532794
 20
11691.496996
 30
0.0
 11
21019.53255
 21
11691.496996
 31
0.0
  0
LINE
  5
7AF
100
AcDbEntity
  8
LY_1
  6
CONTINUOUS
 62
    46
100
AcDbLine
 10
14405.532794
 20
11390.996996
 30
0.0
 11
18278.442664
 21
11390.996996
 31
0.0
  0
LINE
  5
7B0
100
AcDbEntity
  8
LY_1
  6
CONTINUOUS
 62
    46
100
AcDbLine
 10
13283.53255
 20
12087.996996
 30
0.0
 11
21157.03255
 21
12087.996996
 31
0.0
  0
LINE
  5
7B1
100
AcDbEntity
  8
LY_1
  6
CONTINUOUS
 62
    46
100
AcDbLine
 10
13283.53255
 20
18087.996996
 30
0.0
 11
21157.03255
 21
18087.996996
 31
0.0
  0
LINE
  5
7B2
100
AcDbEntity
  8
LY_1
  6
CONTINUOUS
 62
    46
100
AcDbLine
 10
14405.532794
 20
17390.996996
 30
0.0
 11
18278.442664
 21
17390.996996
 31
0.0
  0
LINE
  5
7B3
100
AcDbEntity
  8
LY_1
  6
CONTINUOUS
 62
    46
100
AcDbLine
 10
14405.532794
 20
17691.496996
 30
0.0
 11
21019.53255
 21
17691.496996
 31
0.0
  0
LINE
  5
7B4
100
AcDbEntity
  8
LY_1
  6
CONTINUOUS
 62
    46
100
AcDbLine
 10
14405.532794
 20
17691.496996
 30
0.0
 11
21019.53255
 21
17691.496996
 31
0.0
  0
MTEXT
  5
7B5
100
AcDbEntity
  8
LY_1
  6
CONTINUOUS
 62
     7
100
AcDbMText
 10
15912.725067
 20
22515.827637
 30
0.0
 40
700.0
 41
0.0
 71
     1
 72
     1
  1
3FLJ
  7
MX_NOTE_STANDARD
1001
ACAD
1000
MTEXTBEGIN
1070
    73
1070
     1
1070
    44
1040
0.78
1070
    74
1070
     0
1000
MTEXTEND
  0
MTEXT
  5
7B6
100
AcDbEntity
  8
LY_1
  6
CONTINUOUS
 62
     7
100
AcDbMText
 10
15872.012263
 20
23523.628906
 30
0.0
 40
700.0
 41
0.0
 71
     1
 72
     1
  1
ATF220G-5
  7
MX_NOTE_STANDARD
1001
ACAD
1000
MTEXTBEGIN
1070
    73
1070
     1
1070
    44
1040
0.78
1070
    74
1070
     0
1000
MTEXTEND
  0
MTEXT
  5
7B7
100
AcDbEntity
  8
LY_1
  6
CONTINUOUS
 62
     7
100
AcDbMText
 10
15906.410875
 20
24488.544922
 30
0.0
 40
700.0
 41
0.0
 71
     1
 72
     1
  1
ATF220G5FLJ00B
  7
MX_NOTE_STANDARD
1001
ACAD
1000
MTEXTBEGIN
1070
    73
1070
     1
1070
    44
1040
0.78
1070
    74
1070
     0
1000
MTEXTEND
  0
LINE
  5
7B8
100
AcDbEntity
  8
LY_1
  6
CONTINUOUS
 62
     7
100
AcDbLine
 10
8744.446096
 20
21577.858313
 30
0.0
 11
25514.531057
 21
21577.858313
 31
0.0
  0
LINE
  5
7B9
100
AcDbEntity
  8
LY_1
  6
CONTINUOUS
 62
     7
100
AcDbLine
 10
8744.446096
 20
22577.858313
 30
0.0
 11
25514.531057
 21
22577.858313
 31
0.0
  0
LINE
  5
7BA
100
AcDbEntity
  8
LY_1
  6
CONTINUOUS
 62
     7
100
AcDbLine
 10
8744.446096
 20
23577.858313
 30
0.0
 11
25514.531057
 21
23577.858313
 31
0.0
  0
LINE
  5
7BB
100
AcDbEntity
  8
LY_1
  6
CONTINUOUS
 62
     7
100
AcDbLine
 10
8744.446096
 20
24577.858313
 30
0.0
 11
25514.531057
 21
24577.858313
 31
0.0
  0
MTEXT
  5
7BC
100
AcDbEntity
  8
LY_1
  6
CONTINUOUS
 62
     7
100
AcDbMText
 10
1841.830917
 20
0.000028
 30
0.0
 40
1000.0
 41
0.0
 71
     7
 72
     1
  1
\W0.888;\A1;FLJ0005
  7
MX_NOTE_STANDARD
1001
ACAD
1000
MTEXTBEGIN
1070
    73
1070
     1
1070
    44
1040
0.66
1070
    74
1070
     0
1000
MTEXTEND
  0
MTEXT
  5
7BD
100
AcDbEntity
  8
LY_1
  6
CONTINUOUS
 62
     7
100
AcDbMText
 10
1765.090959
 20
4373.001991
 30
0.0
 40
1000.0
 41
0.0
 71
     7
 72
     1
  1
\W0.888;\A1;FLJ0004
  7
MX_NOTE_STANDARD
1001
ACAD
1000
MTEXTBEGIN
1070
    73
1070
     1
1070
    44
1040
0.66
1070
    74
1070
     0
1000
MTEXTEND
  0
DIMENSION
  5
7BE
100
AcDbEntity
  8
LY_1
  6
CONTINUOUS
 62
     7
100
AcDbDimension
  2
*D3
 10
3404.828352
 20
1539.456047
 30
0.0
 11
5072.328352
 21
1539.456047
 31
0.0
 70
   160
  1
<>
  3
MXDIMSTYLE
100
AcDbAlignedDimension
 13
6739.828352
 23
2451.682183
 33
0.0
 14
3404.828352
 24
2451.682488
 34
0.0
100
AcDbRotatedDimension
1001
ACAD
1000
DSTYLE
1002
{
1070
    41
1040
277.0
1070
   140
1040
300.0
1070
   271
1070
     1
1070
   284
1070
     8
1002
}
  0
LINE
  5
7BF
100
AcDbEntity
  8
LY_1
  6
CONTINUOUS
 62
   130
100
AcDbLine
 10
5212.828965
 20
2359.183102
 30
0.0
 11
6611.82754
 21
2359.183102
 31
0.0
  0
LINE
  5
7C0
100
AcDbEntity
  8
LY_1
  6
CONTINUOUS
 62
   130
100
AcDbLine
 10
5212.828965
 20
2544.180508
 30
0.0
 11
6611.827425
 21
2544.180508
 31
0.0
  0
LINE
  5
7C1
100
AcDbEntity
  8
LY_1
  6
CONTINUOUS
 62
    46
100
AcDbLine
 10
680.53255
 20
11452.496996
 30
0.0
 11
6901.53255
 21
11452.496996
 31
0.0
  0
LINE
  5
7C2
100
AcDbEntity
  8
LY_1
  6
CONTINUOUS
 62
    46
100
AcDbLine
 10
680.53255
 20
11706.996996
 30
0.0
 11
6910.53255
 21
11706.996996
 31
0.0
  0
LINE
  5
7C3
100
AcDbEntity
  8
LY_1
  6
CONTINUOUS
 62
    46
100
AcDbLine
 10
680.53255
 20
12023.496996
 30
0.0
 11
6901.53255
 21
12023.496996
 31
0.0
  0
LINE
  5
7C7
100
AcDbEntity
  8
LY_1
  6
CONTINUOUS
 62
   130
100
AcDbLine
 10
3485.854862
 20
2584.181423
 30
0.0
 11
5212.828965
 21
2584.179287
 31
0.0
  0
LINE
  5
7C8
100
AcDbEntity
  8
LY_1
  6
CONTINUOUS
 62
   130
100
AcDbLine
 10
3488.977831
 20
2319.1822
 30
0.0
 11
3518.831043
 21
2319.1822
 31
0.0
  0
LINE
  5
7C9
100
AcDbEntity
  8
LY_1
  6
CONTINUOUS
 62
   130
100
AcDbLine
 10
3485.854862
 20
2319.182034
 30
0.0
 11
5212.828965
 21
2319.182797
 31
0.0
  0
CIRCLE
  5
7CA
100
AcDbEntity
  8
LY_1
  6
CONTINUOUS
 62
   130
100
AcDbCircle
 10
3404.828352
 20
2451.682492
 30
0.0
 40
54.999943
  0
CIRCLE
  5
7CB
100
AcDbEntity
  8
LY_1
  6
CONTINUOUS
 62
   130
100
AcDbCircle
 10
3404.828352
 20
2451.681881
 30
0.0
 40
84.149923
  0
LINE
  5
7CC
100
AcDbEntity
  8
LY_1
  6
CONTINUOUS
 62
   130
100
AcDbLine
 10
3243.828345
 20
2526.682495
 30
0.0
 11
3243.828345
 21
2376.682488
 31
0.0
  0
ELLIPSE
  5
7CD
100
AcDbEntity
  8
LY_1
  6
CONTINUOUS
 62
   130
100
AcDbEllipse
 10
3351.34705
 20
2451.682415
 30
0.0
 11
-0.0000000000000112
 21
-61.00000090897022
 31
0.0
210
0.0
220
0.0
230
1.0
 40
0.502136
 41
3.322753441953906
 42
4.637151265968007
  0
ELLIPSE
  5
7CE
100
AcDbEntity
  8
LY_1
  6
CONTINUOUS
 62
   130
100
AcDbEllipse
 10
3340.969583
 20
2451.682415
 30
0.0
 11
0.0000000000000037
 21
61.00000090897022
 31
0.0
210
0.0
220
0.0
230
1.0
 40
0.502136
 41
0.1811607883641017
 42
2.960431865228086
  0
POINT
  5
7CF
100
AcDbEntity
  8
LY_1
  6
CONTINUOUS
 62
    20
100
AcDbPoint
 10
3404.828352
 20
2451.682492
 30
0.0
  0
LINE
  5
7D0
100
AcDbEntity
  8
LY_1
  6
CONTINUOUS
 62
   130
100
AcDbLine
 10
3243.828345
 20
2376.682488
 30
0.0
 11
3345.82835
 21
2376.682488
 31
0.0
  0
LINE
  5
7D1
100
AcDbEntity
  8
LY_1
  6
CONTINUOUS
 62
   130
100
AcDbLine
 10
3345.82835
 20
2391.679903
 30
0.0
 11
3345.82835
 21
2376.682488
 31
0.0
  0
LINE
  5
7D2
100
AcDbEntity
  8
LY_1
  6
CONTINUOUS
 62
   130
100
AcDbLine
 10
3335.450882
 20
2391.680666
 30
0.0
 11
3335.450882
 21
2376.682488
 31
0.0
  0
LINE
  5
7D3
100
AcDbEntity
  8
LY_1
  6
CONTINUOUS
 62
   130
100
AcDbLine
 10
3335.450882
 20
2391.680666
 30
0.0
 11
3345.828349
 21
2391.680666
 31
0.0
  0
LINE
  5
7D4
100
AcDbEntity
  8
LY_1
  6
CONTINUOUS
 62
   130
100
AcDbLine
 10
3434.831621
 20
2333.188414
 30
0.0
 11
3485.831621
 21
2319.188414
 31
0.0
  0
LINE
  5
7D5
100
AcDbEntity
  8
LY_1
  6
CONTINUOUS
 62
   130
100
AcDbLine
 10
3434.831621
 20
2373.062154
 30
0.0
 11
3434.831621
 21
2333.188414
 31
0.0
  0
LINE
  5
7D6
100
AcDbEntity
  8
LY_1
  6
CONTINUOUS
 62
   130
100
AcDbLine
 10
3243.828345
 20
2526.682495
 30
0.0
 11
3345.82835
 21
2526.682495
 31
0.0
  0
LINE
  5
7D7
100
AcDbEntity
  8
LY_1
  6
CONTINUOUS
 62
   130
100
AcDbLine
 10
3345.82835
 20
2526.682495
 30
0.0
 11
3345.82835
 21
2511.683402
 31
0.0
  0
LINE
  5
7D8
100
AcDbEntity
  8
LY_1
  6
CONTINUOUS
 62
   130
100
AcDbLine
 10
3335.450882
 20
2526.682495
 30
0.0
 11
3335.450882
 21
2511.684164
 31
0.0
  0
LINE
  5
7D9
100
AcDbEntity
  8
LY_1
  6
CONTINUOUS
 62
   130
100
AcDbLine
 10
3345.828349
 20
2511.684164
 30
0.0
 11
3335.450882
 21
2511.684164
 31
0.0
  0
LINE
  5
7DA
100
AcDbEntity
  8
LY_1
  6
CONTINUOUS
 62
   130
100
AcDbLine
 10
3434.831621
 20
2570.175044
 30
0.0
 11
3485.831621
 21
2584.175044
 31
0.0
  0
LINE
  5
7DB
100
AcDbEntity
  8
LY_1
  6
CONTINUOUS
 62
   130
100
AcDbLine
 10
3434.831621
 20
2530.301303
 30
0.0
 11
3434.831621
 21
2570.175044
 31
0.0
  0
LINE
  5
7DC
100
AcDbEntity
  8
LY_1
  6
CONTINUOUS
 62
   130
100
AcDbLine
 10
3503.827986
 20
2319.182797
 30
0.0
 11
3503.827986
 21
2584.181881
 31
0.0
  0
LINE
  5
7DD
100
AcDbEntity
  8
LY_1
  6
CONTINUOUS
 62
   130
100
AcDbLine
 10
3532.830677
 20
2319.806869
 30
0.0
 11
3532.830677
 21
2318.456545
 31
0.0
  0
LINE
  5
7DE
100
AcDbEntity
  8
LY_1
  6
CONTINUOUS
 62
   130
100
AcDbLine
 10
3518.831043
 20
2300.714985
 30
0.0
 11
3518.831043
 21
2319.1822
 31
0.0
  0
LINE
  5
7DF
100
AcDbEntity
  8
LY_1
  6
CONTINUOUS
 62
   130
100
AcDbLine
 10
3556.831266
 20
2300.714985
 30
0.0
 11
3518.831043
 21
2300.714985
 31
0.0
  0
LINE
  5
7E0
100
AcDbEntity
  8
LY_1
  6
CONTINUOUS
 62
   130
100
AcDbLine
 10
3556.831266
 20
2300.714985
 30
0.0
 11
3556.831266
 21
2319.1822
 31
0.0
  0
LINE
  5
7E1
100
AcDbEntity
  8
LY_1
  6
CONTINUOUS
 62
   130
100
AcDbLine
 10
5212.828965
 20
2319.182797
 30
0.0
 11
5212.828965
 21
2584.179287
 31
0.0
  0
LINE
  5
7E2
100
AcDbEntity
  8
LY_1
  6
CONTINUOUS
 62
   130
100
AcDbLine
 10
5192.334886
 20
2584.176846
 30
0.0
 11
5192.334886
 21
2319.182797
 31
0.0
  0
LINE
  5
7E3
100
AcDbEntity
  8
LY_1
  6
CONTINUOUS
 62
    46
100
AcDbLine
 10
180.763486
 20
11146.163236
 30
0.0
 11
356.177226
 21
11650.530186
 31
0.0
  0
LINE
  5
7E4
100
AcDbEntity
  8
LY_1
  6
CONTINUOUS
 62
    46
100
AcDbLine
 10
585.486824
 20
11451.883282
 30
0.0
 11
570.054615
 21
11624.235836
 31
0.0
  0
LINE
  5
7E5
100
AcDbEntity
  8
LY_1
  6
CONTINUOUS
 62
    46
100
AcDbLine
 10
576.522686
 20
11451.080645
 30
0.0
 11
558.891068
 21
11647.996996
 31
0.0
  0
LINE
  5
7E6
100
AcDbEntity
  8
LY_1
  6
CONTINUOUS
 62
    46
100
AcDbLine
 10
189.264053
 20
11143.206825
 30
0.0
 11
388.352316
 21
11715.645108
 31
0.0
  0
LINE
  5
7E7
100
AcDbEntity
  8
LY_1
  6
CONTINUOUS
 62
    46
100
AcDbLine
 10
680.53255
 20
11387.496996
 30
0.0
 11
680.53255
 21
11652.496996
 31
0.0
  0
LINE
  5
7E8
100
AcDbEntity
  8
LY_1
  6
CONTINUOUS
 62
    46
100
AcDbLine
 10
614.53255
 20
11387.496996
 30
0.0
 11
614.53255
 21
11654.496996
 31
0.0
  0
LINE
  5
7E9
100
AcDbEntity
  8
LY_1
  6
CONTINUOUS
 62
    46
100
AcDbLine
 10
620.53255
 20
11387.496996
 30
0.0
 11
620.53255
 21
11654.496996
 31
0.0
  0
LINE
  5
7EA
100
AcDbEntity
  8
LY_1
  6
CONTINUOUS
 62
    46
100
AcDbLine
 10
671.53255
 20
11387.496996
 30
0.0
 11
671.53255
 21
11652.496996
 31
0.0
  0
ARC
  5
7EB
100
AcDbEntity
  8
LY_1
  6
CONTINUOUS
 62
    46
100
AcDbCircle
 10
330.940162
 20
11093.933302
 30
0.0
 40
285.000004
100
AcDbArc
 50
226.359406
 51
18.717622
  0
ARC
  5
7EC
100
AcDbEntity
  8
LY_1
  6
CONTINUOUS
 62
    46
100
AcDbCircle
 10
330.940162
 20
11093.933302
 30
0.0
 40
150.0
100
AcDbArc
 50
160.822841
 51
340.835781
  0
CIRCLE
  5
7ED
100
AcDbEntity
  8
LY_1
  6
CONTINUOUS
 62
    46
100
AcDbCircle
 10
330.940162
 20
11093.933302
 30
0.0
 40
60.0
  0
LINE
  5
7F1
100
AcDbEntity
  8
LY_1
  6
CONTINUOUS
 62
    46
100
AcDbLine
 10
147.097421
 20
10997.450994
 30
0.0
 11
171.547509
 21
11030.392572
 31
0.0
  0
LINE
  5
7F2
100
AcDbEntity
  8
LY_1
  6
CONTINUOUS
 62
    46
100
AcDbLine
 10
80.706576
 20
10951.234806
 30
0.0
 11
26.771481
 21
11016.943215
 31
0.0
  0
LINE
  5
7F3
100
AcDbEntity
  8
LY_1
  6
CONTINUOUS
 62
    46
100
AcDbLine
 10
111.181919
 20
10983.457333
 30
0.0
 11
60.781505
 21
11044.859488
 31
0.0
  0
LINE
  5
7F4
100
AcDbEntity
  8
LY_1
  6
CONTINUOUS
 62
    46
100
AcDbLine
 10
79.47273
 20
10930.870755
 30
0.0
 11
20.870801
 21
10874.898014
 31
0.0
  0
LINE
  5
7F5
100
AcDbEntity
  8
LY_1
  6
CONTINUOUS
 62
    46
100
AcDbLine
 10
185.814612
 20
10923.887945
 30
0.0
 11
55.667667
 21
10832.505454
 31
0.0
  0
LINE
  5
7F6
100
AcDbEntity
  8
LY_1
  6
CONTINUOUS
 62
    46
100
AcDbLine
 10
71.390505
 20
10919.053714
 30
0.0
 11
43.788783
 21
10896.397536
 31
0.0
  0
LINE
  5
7F7
100
AcDbEntity
  8
LY_1
  6
CONTINUOUS
 62
    46
100
AcDbLine
 10
63.026087
 20
10842.937691
 30
0.0
 11
41.367167
 21
10840.171612
 31
0.0
  0
LINE
  5
7F8
100
AcDbEntity
  8
LY_1
  6
CONTINUOUS
 62
    46
100
AcDbLine
 10
64.935276
 20
10862.33937
 30
0.0
 11
44.230951
 21
10869.274131
 31
0.0
  0
ARC
  5
7F9
100
AcDbEntity
  8
LY_1
  6
CONTINUOUS
 62
    46
100
AcDbCircle
 10
39.865016
 20
10855.011591
 30
0.0
 40
40.0
100
AcDbArc
 50
87.11798
 51
351.642021
  0
ARC
  5
7FA
100
AcDbEntity
  8
LY_1
  6
CONTINUOUS
 62
    46
100
AcDbCircle
 10
39.865016
 20
10855.011591
 30
0.0
 40
27.5
100
AcDbArc
 50
133.685443
 51
305.074557
  0
ARC
  5
7FB
100
AcDbEntity
  8
LY_1
  6
CONTINUOUS
 62
    46
100
AcDbCircle
 10
107.234857
 20
10819.102027
 30
0.0
 40
100.0
100
AcDbArc
 50
129.38
 51
133.685443
  0
ARC
  5
7FC
100
AcDbEntity
  8
LY_1
  6
CONTINUOUS
 62
    46
100
AcDbCircle
 10
39.466938
 20
10855.050763
 30
0.0
 40
15.0
100
AcDbArc
 50
71.482107
 51
277.277894
  0
ARC
  5
7FD
100
AcDbEntity
  8
LY_1
  6
CONTINUOUS
 62
    46
100
AcDbCircle
 10
122.776245
 20
10992.974244
 30
0.0
 40
15.0
100
AcDbArc
 50
219.38
 51
313.685443
  0
ARC
  5
7FE
100
AcDbEntity
  8
LY_1
  6
CONTINUOUS
 62
    46
100
AcDbCircle
 10
66.798774
 20
11057.05072
 30
0.0
 40
100.0
100
AcDbArc
 50
313.685443
 51
323.416243
  0
LINE
  5
7FF
100
AcDbEntity
  8
LY_1
  6
CONTINUOUS
 62
    46
100
AcDbLine
 10
135.868644
 20
10984.736454
 30
0.0
 11
133.136726
 21
10982.127104
 31
0.0
  0
ARC
  5
800
100
AcDbEntity
  8
LY_1
  6
CONTINUOUS
 62
    46
100
AcDbCircle
 10
194.744689
 20
11040.358805
 30
0.0
 40
100.0
100
AcDbArc
 50
295.343757
 51
309.214345
  0
ARC
  5
801
100
AcDbEntity
  8
LY_1
  6
CONTINUOUS
 62
    46
100
AcDbCircle
 10
243.2788
 20
10842.047448
 30
0.0
 40
100.0
100
AcDbArc
 50
115.343757
 51
125.074557
  0
LINE
  5
802
100
AcDbEntity
  8
LY_1
  6
CONTINUOUS
 62
    46
100
AcDbLine
 10
109.51616
 20
10880.486443
 30
0.0
 11
78.427584
 21
10918.361242
 31
0.0
  0
LINE
  5
803
100
AcDbEntity
  8
LY_1
  6
CONTINUOUS
 62
    46
100
AcDbLine
 10
108.823688
 20
10873.449364
 30
0.0
 11
81.221967
 21
10850.793185
 31
0.0
  0
ARC
  5
804
100
AcDbEntity
  8
LY_1
  6
CONTINUOUS
 62
    46
100
AcDbCircle
 10
105.651385
 20
10877.314139
 30
0.0
 40
5.0
100
AcDbArc
 50
309.38
 51
39.38
  0
ARC
  5
805
100
AcDbEntity
  8
LY_1
  6
CONTINUOUS
 62
    46
100
AcDbCircle
 10
74.562808
 20
10915.188939
 30
0.0
 40
5.0
100
AcDbArc
 50
39.38
 51
129.38
  0
ARC
  5
806
100
AcDbEntity
  8
LY_1
  6
CONTINUOUS
 62
    46
100
AcDbCircle
 10
17.775893
 20
10928.088694
 30
0.0
 40
100.0
100
AcDbArc
 50
305.074557
 51
309.38
  0
ARC
  5
807
100
AcDbEntity
  8
LY_1
  6
CONTINUOUS
 62
    46
100
AcDbCircle
 10
61.759268
 20
10852.857125
 30
0.0
 40
10.0
100
AcDbArc
 50
277.277894
 51
71.482107
  0
ARC
  5
808
100
AcDbEntity
  8
LY_1
  6
CONTINUOUS
 62
    46
100
AcDbCircle
 10
69.112249
 20
10941.717894
 30
0.0
 40
15.0
100
AcDbArc
 50
313.685443
 51
39.38
  0
LINE
  5
809
100
AcDbEntity
  8
LY_1
  6
CONTINUOUS
 62
    46
100
AcDbLine
 10
237.549508
 20
10949.983214
 30
0.0
 11
200.473982
 21
10932.423039
 31
0.0
  0
ARC
  5
80A
100
AcDbEntity
  8
LY_1
  6
CONTINUOUS
 62
    46
100
AcDbCircle
 10
330.940162
 20
11093.933302
 30
0.0
 40
285.000004
100
AcDbArc
 50
104.73317
 51
188.405649
  0
CIRCLE
  5
80B
100
AcDbEntity
  8
LY_1
  6
CONTINUOUS
 62
    46
100
AcDbCircle
 10
43.776493
 20
11030.901351
 30
0.0
 40
9.0
  0
ARC
  5
80C
100
AcDbEntity
  8
LY_1
  6
CONTINUOUS
 62
    46
100
AcDbCircle
 10
43.776493
 20
11030.901351
 30
0.0
 40
22.0
100
AcDbArc
 50
39.38
 51
219.38
  0
POINT
  5
80D
100
AcDbEntity
  8
LY_1
  6
CONTINUOUS
 62
    20
100
AcDbPoint
 10
330.940162
 20
11093.933302
 30
0.0
  0
ARC
  5
80E
100
AcDbEntity
  8
LY_1
  6
CONTINUOUS
 62
    46
100
AcDbCircle
 10
251.846156
 20
10970.792847
 30
0.0
 40
100.0
100
AcDbArc
 50
129.545655
 51
143.416243
  0
LINE
  5
80F
100
AcDbEntity
  8
LY_1
  6
CONTINUOUS
 62
    46
100
AcDbLine
 10
180.763486
 20
11146.163236
 30
0.0
 11
189.264053
 21
11143.206825
 31
0.0
  0
LINE
  5
810
100
AcDbEntity
  8
LY_1
  6
CONTINUOUS
 62
    46
100
AcDbLine
 10
187.333289
 20
11165.053384
 30
0.0
 11
195.833856
 21
11162.096973
 31
0.0
  0
ARC
  5
811
100
AcDbEntity
  8
LY_1
  6
CONTINUOUS
 62
    46
100
AcDbCircle
 10
662.793961
 20
11226.330646
 30
0.0
 40
50.0
100
AcDbArc
 50
250.835781
 51
70.835781
  0
LINE
  5
812
100
AcDbEntity
  8
LY_1
  6
CONTINUOUS
 62
    46
100
AcDbLine
 10
589.53255
 20
11382.996996
 30
0.0
 11
592.735717
 21
11452.996996
 31
0.0
  0
ARC
  5
813
100
AcDbEntity
  8
LY_1
  6
CONTINUOUS
 62
    46
100
AcDbCircle
 10
551.817198
 20
11348.707231
 30
0.0
 40
25.0
100
AcDbArc
 50
340.835781
 51
357.38
  0
LINE
  5
814
100
AcDbEntity
  8
LY_1
  6
CONTINUOUS
 62
    46
100
AcDbLine
 10
585.211137
 20
11334.685251
 30
0.0
 11
587.308233
 21
11380.513854
 31
0.0
  0
LINE
  5
815
100
AcDbEntity
  8
LY_1
  6
CONTINUOUS
 62
    46
100
AcDbLine
 10
578.31764
 20
11380.925259
 30
0.0
 11
576.220545
 21
11335.096656
 31
0.0
  0
LINE
  5
816
100
AcDbEntity
  8
LY_1
  6
CONTINUOUS
 62
    46
100
AcDbLine
 10
682.162293
 20
11282.060958
 30
0.0
 11
679.207802
 21
11273.559724
 31
0.0
  0
CIRCLE
  5
817
100
AcDbEntity
  8
LY_1
  6
CONTINUOUS
 62
    46
100
AcDbCircle
 10
662.793961
 20
11226.330646
 30
0.0
 40
17.0
  0
LINE
  5
818
100
AcDbEntity
  8
LY_1
  6
CONTINUOUS
 62
    46
100
AcDbLine
 10
575.431737
 20
11340.500311
 30
0.0
 11
472.627397
 21
11044.691779
 31
0.0
  0
LINE
  5
819
100
AcDbEntity
  8
LY_1
  6
CONTINUOUS
 62
    46
100
AcDbLine
 10
481.128631
 20
11041.737288
 30
0.0
 11
472.627397
 21
11044.691779
 31
0.0
  0
LINE
  5
81A
100
AcDbEntity
  8
LY_1
  6
CONTINUOUS
 62
    46
100
AcDbLine
 10
565.146105
 20
11207.333375
 30
0.0
 11
646.38012
 21
11179.101568
 31
0.0
  0
LINE
  5
81B
100
AcDbEntity
  8
LY_1
  6
CONTINUOUS
 62
    46
100
AcDbLine
 10
599.023592
 20
11301.426685
 30
0.0
 11
679.207802
 21
11273.559724
 31
0.0
  0
CIRCLE
  5
81C
100
AcDbEntity
  8
LY_1
  6
CONTINUOUS
 62
    46
100
AcDbCircle
 10
662.793961
 20
11226.330646
 30
0.0
 40
17.0
  0
LINE
  5
81D
100
AcDbEntity
  8
LY_1
  6
CONTINUOUS
 62
    46
100
AcDbLine
 10
601.978084
 20
11309.927919
 30
0.0
 11
682.162293
 21
11282.060958
 31
0.0
  0
ARC
  5
81E
100
AcDbEntity
  8
LY_1
  6
CONTINUOUS
 62
    46
100
AcDbCircle
 10
610.185004
 20
11333.542458
 30
0.0
 40
25.0
100
AcDbArc
 50
177.38
 51
250.835781
  0
ARC
  5
81F
100
AcDbEntity
  8
LY_1
  6
CONTINUOUS
 62
    46
100
AcDbCircle
 10
610.185004
 20
11333.542458
 30
0.0
 40
34.0
100
AcDbArc
 50
177.38
 51
250.835781
  0
LINE
  5
820
100
AcDbEntity
  8
LY_1
  6
CONTINUOUS
 62
    46
100
AcDbLine
 10
530.370154
 20
11183.424522
 30
0.0
 11
481.128631
 21
11041.737288
 31
0.0
  0
LINE
  5
821
100
AcDbEntity
  8
LY_1
  6
CONTINUOUS
 62
    46
100
AcDbLine
 10
562.191614
 20
11198.832141
 30
0.0
 11
643.425628
 21
11170.600334
 31
0.0
  0
ARC
  5
822
100
AcDbEntity
  8
LY_1
  6
CONTINUOUS
 62
    46
100
AcDbCircle
 10
553.984693
 20
11175.217602
 30
0.0
 40
25.0
100
AcDbArc
 50
70.835781
 51
160.835781
  0
ARC
  5
823
100
AcDbEntity
  8
LY_1
  6
CONTINUOUS
 62
    46
100
AcDbCircle
 10
553.984693
 20
11175.217602
 30
0.0
 40
34.0
100
AcDbArc
 50
70.835781
 51
160.835781
  0
LINE
  5
824
100
AcDbEntity
  8
LY_1
  6
CONTINUOUS
 62
    46
100
AcDbLine
 10
529.313779
 20
11198.613029
 30
0.0
 11
526.464796
 21
11199.603155
 31
0.0
  0
ARC
  5
825
100
AcDbEntity
  8
LY_1
  6
CONTINUOUS
 62
    46
100
AcDbCircle
 10
609.135199
 20
11333.907304
 30
0.0
 40
34.0
100
AcDbArc
 50
185.15152
 51
250.835781
  0
LINE
  5
826
100
AcDbEntity
  8
LY_1
  6
CONTINUOUS
 62
    46
100
AcDbLine
 10
575.272535
 20
11330.854447
 30
0.0
 11
572.423551
 21
11331.844574
 31
0.0
  0
LINE
  5
827
100
AcDbEntity
  8
LY_1
  6
CONTINUOUS
 62
    46
100
AcDbLine
 10
682.162293
 20
11282.060958
 30
0.0
 11
679.207802
 21
11273.559724
 31
0.0
  0
LINE
  5
828
100
AcDbEntity
  8
LY_1
  6
CONTINUOUS
 62
    46
100
AcDbLine
 10
646.38012
 20
11179.101568
 30
0.0
 11
643.425628
 21
11170.600334
 31
0.0
  0
LINE
  5
829
100
AcDbEntity
  8
LY_1
  6
CONTINUOUS
 62
    46
100
AcDbLine
 10
487.694167
 20
11060.628919
 30
0.0
 11
479.192933
 21
11063.58341
 31
0.0
  0
LINE
  5
82A
100
AcDbEntity
  8
LY_1
  6
CONTINUOUS
 62
    46
100
AcDbLine
 10
627.488488
 20
11185.667104
 30
0.0
 11
624.533997
 21
11177.16587
 31
0.0
  0
LINE
  5
82B
100
AcDbEntity
  8
LY_1
  6
CONTINUOUS
 62
    46
100
AcDbLine
 10
663.270662
 20
11288.626495
 30
0.0
 11
660.31617
 21
11280.125261
 31
0.0
  0
LINE
  5
82C
100
AcDbEntity
  8
LY_1
  6
CONTINUOUS
 62
    46
100
AcDbLine
 10
576.522686
 20
11451.080645
 30
0.0
 11
592.50596
 21
11450.349258
 31
0.0
  0
LINE
  5
82D
100
AcDbEntity
  8
LY_1
  6
CONTINUOUS
 62
    46
100
AcDbLine
 10
589.306142
 20
11380.422431
 30
0.0
 11
592.50596
 21
11450.349258
 31
0.0
  0
LINE
  5
82E
100
AcDbEntity
  8
LY_1
  6
CONTINUOUS
 62
    46
100
AcDbLine
 10
573.322867
 20
11381.153818
 30
0.0
 11
576.522686
 21
11451.080645
 31
0.0
  0
LINE
  5
82F
100
AcDbEntity
  8
LY_1
  6
CONTINUOUS
 62
    46
100
AcDbLine
 10
573.322867
 20
11381.153818
 30
0.0
 11
589.306142
 21
11380.422431
 31
0.0
  0
LINE
  5
830
100
AcDbEntity
  8
LY_1
  6
CONTINUOUS
 62
    46
100
AcDbLine
 10
585.486824
 20
11451.883282
 30
0.0
 11
576.522686
 21
11451.080645
 31
0.0
  0
LINE
  5
831
100
AcDbEntity
  8
LY_1
  6
CONTINUOUS
 62
    46
100
AcDbLine
 10
575.83701
 20
11436.096325
 30
0.0
 11
591.820285
 21
11435.364938
 31
0.0
  0
LINE
  5
832
100
AcDbEntity
  8
LY_1
  6
CONTINUOUS
 62
    46
100
AcDbLine
 10
625.53255
 20
11472.83782
 30
0.0
 11
666.53255
 21
11472.83782
 31
0.0
  0
LINE
  5
833
100
AcDbEntity
  8
LY_1
  6
CONTINUOUS
 62
    46
100
AcDbLine
 10
631.53255
 20
11382.996996
 30
0.0
 11
627.53255
 21
11386.996996
 31
0.0
  0
LINE
  5
834
100
AcDbEntity
  8
LY_1
  6
CONTINUOUS
 62
    46
100
AcDbLine
 10
667.53255
 20
11382.996996
 30
0.0
 11
671.53255
 21
11386.996996
 31
0.0
  0
LINE
  5
835
100
AcDbEntity
  8
LY_1
  6
CONTINUOUS
 62
    46
100
AcDbLine
 10
614.53255
 20
11453.996996
 30
0.0
 11
620.53255
 21
11453.996996
 31
0.0
  0
LINE
  5
836
100
AcDbEntity
  8
LY_1
  6
CONTINUOUS
 62
    46
100
AcDbLine
 10
631.53255
 20
11382.996996
 30
0.0
 11
667.53255
 21
11382.996996
 31
0.0
  0
LINE
  5
837
100
AcDbEntity
  8
LY_1
  6
CONTINUOUS
 62
    46
100
AcDbLine
 10
680.53255
 20
11387.496996
 30
0.0
 11
671.53255
 21
11387.496996
 31
0.0
  0
LINE
  5
838
100
AcDbEntity
  8
LY_1
  6
CONTINUOUS
 62
    46
100
AcDbLine
 10
620.53255
 20
11387.496996
 30
0.0
 11
614.53255
 21
11387.496996
 31
0.0
  0
LINE
  5
839
100
AcDbEntity
  8
LY_1
  6
CONTINUOUS
 62
    46
100
AcDbLine
 10
589.578309
 20
11382.996996
 30
0.0
 11
627.53255
 21
11382.996996
 31
0.0
  0
LINE
  5
83A
100
AcDbEntity
  8
LY_1
  6
CONTINUOUS
 62
    46
100
AcDbLine
 10
620.53255
 20
11395.496996
 30
0.0
 11
671.53255
 21
11395.496996
 31
0.0
  0
LINE
  5
83B
100
AcDbEntity
  8
LY_1
  6
CONTINUOUS
 62
    46
100
AcDbLine
 10
592.735717
 20
11452.996996
 30
0.0
 11
614.53255
 21
11452.996996
 31
0.0
  0
LINE
  5
83C
100
AcDbEntity
  8
LY_1
  6
CONTINUOUS
 62
    46
100
AcDbLine
 10
627.53255
 20
11395.496996
 30
0.0
 11
627.53255
 21
11382.996996
 31
0.0
  0
LINE
  5
83D
100
AcDbEntity
  8
LY_1
  6
CONTINUOUS
 62
    46
100
AcDbLine
 10
360.653199
 20
11654.267252
 30
0.0
 11
386.140752
 21
11727.551588
 31
0.0
  0
ARC
  5
83E
100
AcDbEntity
  8
LY_1
  6
CONTINUOUS
 62
    46
100
AcDbCircle
 10
360.53255
 20
12007.996996
 30
0.0
 40
120.0
100
AcDbArc
 50
69.154181
 51
208.937716
  0
LINE
  5
83F
100
AcDbEntity
  8
LY_1
  6
CONTINUOUS
 62
    46
100
AcDbLine
 10
255.515005
 20
11949.933968
 30
0.0
 11
383.17788
 21
11719.032444
 31
0.0
  0
CIRCLE
  5
840
100
AcDbEntity
  8
LY_1
  6
CONTINUOUS
 62
    46
100
AcDbCircle
 10
360.53255
 20
12007.996996
 30
0.0
 40
60.0
  0
ARC
  5
841
100
AcDbEntity
  8
LY_1
  6
CONTINUOUS
 62
    46
100
AcDbCircle
 10
475.53255
 20
11737.996996
 30
0.0
 40
90.0
100
AcDbArc
 50
151.875081
 51
270.0
  0
ARC
  5
842
100
AcDbEntity
  8
LY_1
  6
CONTINUOUS
 62
    46
100
AcDbCircle
 10
360.53255
 20
12283.996996
 30
0.0
 40
22.0
100
AcDbArc
 50
0.0
 51
180.0
  0
ARC
  5
843
100
AcDbEntity
  8
LY_1
  6
CONTINUOUS
 62
    46
100
AcDbCircle
 10
360.53255
 20
12007.996996
 30
0.0
 40
262.5
100
AcDbArc
 50
94.807571
 51
271.734822
  0
LINE
  5
844
100
AcDbEntity
  8
LY_1
  6
CONTINUOUS
 62
    46
100
AcDbLine
 10
364.677793
 20
11647.573774
 30
0.0
 11
356.177226
 21
11650.530186
 31
0.0
  0
LINE
  5
845
100
AcDbEntity
  8
LY_1
  6
CONTINUOUS
 62
    46
100
AcDbLine
 10
360.653199
 20
11654.267252
 30
0.0
 11
363.733286
 21
11647.902265
 31
0.0
  0
CIRCLE
  5
846
100
AcDbEntity
  8
LY_1
  6
CONTINUOUS
 62
    46
100
AcDbCircle
 10
360.53255
 20
12283.996996
 30
0.0
 40
8.0
  0
LINE
  5
847
100
AcDbEntity
  8
LY_1
  6
CONTINUOUS
 62
    46
100
AcDbLine
 10
338.53255
 20
12125.963093
 30
0.0
 11
338.53255
 21
12283.996996
 31
0.0
  0
LINE
  5
848
100
AcDbEntity
  8
LY_1
  6
CONTINUOUS
 62
    46
100
AcDbLine
 10
670.779965
 20
12024.686555
 30
0.0
 11
405.370208
 21
12125.749212
 31
0.0
  0
LINE
  5
849
100
AcDbEntity
  8
LY_1
  6
CONTINUOUS
 62
    46
100
AcDbLine
 10
655.775409
 20
12023.979725
 30
0.0
 11
403.235081
 21
12120.141964
 31
0.0
  0
ARC
  5
84A
100
AcDbEntity
  8
LY_1
  6
CONTINUOUS
 62
    46
100
AcDbCircle
 10
360.53255
 20
12007.996996
 30
0.0
 40
262.5
100
AcDbArc
 50
7.839583
 51
85.192429
  0
LINE
  5
84B
100
AcDbEntity
  8
LY_1
  6
CONTINUOUS
 62
    46
100
AcDbLine
 10
521.53255
 20
12023.979725
 30
0.0
 11
671.53255
 21
12023.979725
 31
0.0
  0
LINE
  5
84C
100
AcDbEntity
  8
LY_1
  6
CONTINUOUS
 62
    46
100
AcDbLine
 10
523.821124
 20
12028.42522
 30
0.0
 11
518.48653
 21
12031.171509
 31
0.0
  0
LINE
  5
84D
100
AcDbEntity
  8
LY_1
  6
CONTINUOUS
 62
    46
100
AcDbLine
 10
655.022824
 20
12024.266294
 30
0.0
 11
657.15795
 21
12029.873542
 31
0.0
  0
LINE
  5
84E
100
AcDbEntity
  8
LY_1
  6
CONTINUOUS
 62
    46
100
AcDbLine
 10
670.510818
 20
12023.979725
 30
0.0
 11
670.779965
 21
12024.686555
 31
0.0
  0
LINE
  5
84F
100
AcDbEntity
  8
LY_1
  6
CONTINUOUS
 62
    46
100
AcDbLine
 10
523.821124
 20
12028.42522
 30
0.0
 11
521.53255
 21
12023.979725
 31
0.0
  0
LINE
  5
850
100
AcDbEntity
  8
LY_1
  6
CONTINUOUS
 62
    46
100
AcDbLine
 10
671.53255
 20
12029.496996
 30
0.0
 11
680.53255
 21
12029.496996
 31
0.0
  0
LINE
  5
851
100
AcDbEntity
  8
LY_1
  6
CONTINUOUS
 62
    46
100
AcDbLine
 10
566.62066
 20
11628.948367
 30
0.0
 11
564.915072
 21
11647.996996
 31
0.0
  0
LINE
  5
852
100
AcDbEntity
  8
LY_1
  6
CONTINUOUS
 62
    46
100
AcDbLine
 10
570.054615
 20
11624.235836
 30
0.0
 11
561.090477
 21
11623.433199
 31
0.0
  0
LINE
  5
853
100
AcDbEntity
  8
LY_1
  6
CONTINUOUS
 62
    46
100
AcDbLine
 10
566.62066
 20
11628.948367
 30
0.0
 11
562.086492
 21
11623.522381
 31
0.0
  0
LINE
  5
854
100
AcDbEntity
  8
LY_1
  6
CONTINUOUS
 62
    46
100
AcDbLine
 10
570.500524
 20
11619.255759
 30
0.0
 11
561.536386
 21
11618.453122
 31
0.0
  0
LINE
  5
855
100
AcDbEntity
  8
LY_1
  6
CONTINUOUS
 62
    46
100
AcDbLine
 10
661.53255
 20
11652.496996
 30
0.0
 11
630.53255
 21
11652.496996
 31
0.0
  0
LINE
  5
856
100
AcDbEntity
  8
LY_1
  6
CONTINUOUS
 62
    46
100
AcDbLine
 10
680.53255
 20
11652.496996
 30
0.0
 11
671.53255
 21
11652.496996
 31
0.0
  0
LINE
  5
857
100
AcDbEntity
  8
LY_1
  6
CONTINUOUS
 62
    46
100
AcDbLine
 10
620.53255
 20
11654.496996
 30
0.0
 11
614.53255
 21
11654.496996
 31
0.0
  0
ARC
  5
858
100
AcDbEntity
  8
LY_1
  6
CONTINUOUS
 62
    46
100
AcDbCircle
 10
479.943248
 20
11910.422119
 30
0.0
 40
21.0
100
AcDbArc
 50
152.760248
 51
197.175557
  0
LINE
  5
859
100
AcDbEntity
  8
LY_1
  6
CONTINUOUS
 62
    46
100
AcDbLine
 10
466.606762
 20
11917.287842
 30
0.0
 11
461.272168
 21
11920.034131
 31
0.0
  0
LINE
  5
85A
100
AcDbEntity
  8
LY_1
  6
CONTINUOUS
 62
    46
100
AcDbLine
 10
475.53255
 20
11647.996996
 30
0.0
 11
612.53255
 21
11647.996996
 31
0.0
  0
CIRCLE
  5
85B
100
AcDbEntity
  8
LY_1
  6
CONTINUOUS
 62
    46
100
AcDbCircle
 10
475.53255
 20
11737.996996
 30
0.0
 40
27.75
  0
LINE
  5
85C
100
AcDbEntity
  8
LY_1
  6
CONTINUOUS
 62
    46
100
AcDbLine
 10
611.53255
 20
11681.496996
 30
0.0
 11
611.53255
 21
11807.496996
 31
0.0
  0
LINE
  5
85D
100
AcDbEntity
  8
LY_1
  6
CONTINUOUS
 62
    46
100
AcDbLine
 10
602.53255
 20
11667.996996
 30
0.0
 11
602.53255
 21
11807.496996
 31
0.0
  0
ARC
  5
85E
100
AcDbEntity
  8
LY_1
  6
CONTINUOUS
 62
    46
100
AcDbCircle
 10
631.53255
 20
11807.496996
 30
0.0
 40
29.0
100
AcDbArc
 50
90.0
 51
180.0
  0
ARC
  5
85F
100
AcDbEntity
  8
LY_1
  6
CONTINUOUS
 62
    46
100
AcDbCircle
 10
631.53255
 20
11807.496996
 30
0.0
 40
20.0
100
AcDbArc
 50
90.0
 51
180.0
  0
LINE
  5
860
100
AcDbEntity
  8
LY_1
  6
CONTINUOUS
 62
    46
100
AcDbLine
 10
671.53255
 20
11827.496996
 30
0.0
 11
631.53255
 21
11827.496996
 31
0.0
  0
LINE
  5
861
100
AcDbEntity
  8
LY_1
  6
CONTINUOUS
 62
    46
100
AcDbLine
 10
671.53255
 20
11836.496996
 30
0.0
 11
631.53255
 21
11836.496996
 31
0.0
  0
ARC
  5
862
100
AcDbEntity
  8
LY_1
  6
CONTINUOUS
 62
    46
100
AcDbCircle
 10
631.53255
 20
11681.496996
 30
0.0
 40
29.0
100
AcDbArc
 50
180.0
 51
270.0
  0
LINE
  5
863
100
AcDbEntity
  8
LY_1
  6
CONTINUOUS
 62
    46
100
AcDbLine
 10
602.53255
 20
11667.996996
 30
0.0
 11
612.53255
 21
11657.996996
 31
0.0
  0
LINE
  5
864
100
AcDbEntity
  8
LY_1
  6
CONTINUOUS
 62
    46
100
AcDbLine
 10
612.53255
 20
11657.996996
 30
0.0
 11
612.53255
 21
11647.996996
 31
0.0
  0
ARC
  5
865
100
AcDbEntity
  8
LY_1
  6
CONTINUOUS
 62
    46
100
AcDbCircle
 10
631.53255
 20
11681.496996
 30
0.0
 40
20.0
100
AcDbArc
 50
180.0
 51
270.0
  0
LINE
  5
866
100
AcDbEntity
  8
LY_1
  6
CONTINUOUS
 62
    46
100
AcDbLine
 10
680.53255
 20
11652.496996
 30
0.0
 11
630.53255
 21
11652.496996
 31
0.0
  0
LINE
  5
867
100
AcDbEntity
  8
LY_1
  6
CONTINUOUS
 62
    46
100
AcDbLine
 10
671.53255
 20
11661.496996
 30
0.0
 11
631.53255
 21
11661.496996
 31
0.0
  0
LINE
  5
868
100
AcDbEntity
  8
LY_1
  6
CONTINUOUS
 62
    46
100
AcDbLine
 10
680.53255
 20
11839.496996
 30
0.0
 11
671.53255
 21
11839.496996
 31
0.0
  0
LINE
  5
869
100
AcDbEntity
  8
LY_1
  6
CONTINUOUS
 62
    46
100
AcDbLine
 10
680.53255
 20
11652.496996
 30
0.0
 11
680.53255
 21
11707.496996
 31
0.0
  0
LINE
  5
86A
100
AcDbEntity
  8
LY_1
  6
CONTINUOUS
 62
    46
100
AcDbLine
 10
620.53255
 20
11652.496996
 30
0.0
 11
680.53255
 21
11652.496996
 31
0.0
  0
LINE
  5
86B
100
AcDbEntity
  8
LY_1
  6
CONTINUOUS
 62
    46
100
AcDbLine
 10
491.53255
 20
11913.979725
 30
0.0
 11
571.53255
 21
11913.979725
 31
0.0
  0
LINE
  5
86C
100
AcDbEntity
  8
LY_1
  6
CONTINUOUS
 62
    46
100
AcDbLine
 10
491.53255
 20
11891.979725
 30
0.0
 11
571.53255
 21
11891.979725
 31
0.0
  0
LINE
  5
86D
100
AcDbEntity
  8
LY_1
  6
CONTINUOUS
 62
    46
100
AcDbLine
 10
491.53255
 20
11913.979725
 30
0.0
 11
491.53255
 21
11891.979725
 31
0.0
  0
LINE
  5
86E
100
AcDbEntity
  8
LY_1
  6
CONTINUOUS
 62
    46
100
AcDbLine
 10
571.53255
 20
11913.979725
 30
0.0
 11
571.53255
 21
11891.979725
 31
0.0
  0
LINE
  5
86F
100
AcDbEntity
  8
LY_1
  6
CONTINUOUS
 62
    46
100
AcDbLine
 10
521.53255
 20
12023.979725
 30
0.0
 11
395.513638
 21
11779.191337
 31
0.0
  0
LINE
  5
870
100
AcDbEntity
  8
LY_1
  6
CONTINUOUS
 62
    46
100
AcDbLine
 10
518.48653
 20
12031.171509
 30
0.0
 11
461.272168
 21
11920.034131
 31
0.0
  0
LINE
  5
871
100
AcDbEntity
  8
LY_1
  6
CONTINUOUS
 62
    46
100
AcDbLine
 10
680.53255
 20
11652.496996
 30
0.0
 11
680.53255
 21
12029.496996
 31
0.0
  0
LINE
  5
872
100
AcDbEntity
  8
LY_1
  6
CONTINUOUS
 62
    46
100
AcDbLine
 10
671.53255
 20
11652.496996
 30
0.0
 11
671.53255
 21
12029.496996
 31
0.0
  0
LINE
  5
873
100
AcDbEntity
  8
LY_1
  6
CONTINUOUS
 62
    46
100
AcDbLine
 10
680.53255
 20
11707.496996
 30
0.0
 11
680.53255
 21
12023.996996
 31
0.0
  0
LINE
  5
874
100
AcDbEntity
  8
LY_1
  6
CONTINUOUS
 62
    46
100
AcDbLine
 10
405.370208
 20
12125.749212
 30
0.0
 11
403.235081
 21
12120.141964
 31
0.0
  0
LINE
  5
875
100
AcDbEntity
  8
LY_1
  6
CONTINUOUS
 62
    46
100
AcDbLine
 10
382.53255
 20
12125.963093
 30
0.0
 11
382.53255
 21
12283.996996
 31
0.0
  0
DIMENSION
  5
876
100
AcDbEntity
  8
LY_1
  6
CONTINUOUS
 62
     7
100
AcDbDimension
  2
*D4
 10
3404.828352
 20
5912.45801
 30
0.0
 11
4377.328381
 21
5912.45801
 31
0.0
 70
   160
  1
<>
  3
MXDIMSTYLE
100
AcDbAlignedDimension
 13
5349.828381
 23
6819.248903
 33
0.0
 14
3404.828352
 24
6819.249392
 34
0.0
100
AcDbRotatedDimension
1001
ACAD
1000
DSTYLE
1002
{
1070
    41
1040
277.0
1070
   140
1040
300.0
1070
   271
1070
     1
1070
   284
1070
     8
1070
   340
1005
5C
1002
}
  0
LINE
  5
87A
100
AcDbEntity
  8
LY_1
  6
CONTINUOUS
 62
   130
100
AcDbLine
 10
3485.854862
 20
6686.748907
 30
0.0
 11
5212.828965
 21
6686.74967
 31
0.0
  0
LINE
  5
87B
100
AcDbEntity
  8
LY_1
  6
CONTINUOUS
 62
   130
100
AcDbLine
 10
3488.977831
 20
6686.749072
 30
0.0
 11
3518.831043
 21
6686.749072
 31
0.0
  0
LINE
  5
87C
100
AcDbEntity
  8
LY_1
  6
CONTINUOUS
 62
   130
100
AcDbLine
 10
3485.854862
 20
6951.748296
 30
0.0
 11
5212.828965
 21
6951.74616
 31
0.0
  0
LINE
  5
87D
100
AcDbEntity
  8
LY_1
  6
CONTINUOUS
 62
   130
100
AcDbLine
 10
3434.831621
 20
6740.629027
 30
0.0
 11
3434.831621
 21
6700.755286
 31
0.0
  0
LINE
  5
87E
100
AcDbEntity
  8
LY_1
  6
CONTINUOUS
 62
   130
100
AcDbLine
 10
3434.831621
 20
6700.755286
 30
0.0
 11
3485.831621
 21
6686.755286
 31
0.0
  0
POINT
  5
87F
100
AcDbEntity
  8
LY_1
  6
CONTINUOUS
 62
    20
100
AcDbPoint
 10
3404.828352
 20
6819.249364
 30
0.0
  0
LINE
  5
880
100
AcDbEntity
  8
LY_1
  6
CONTINUOUS
 62
   130
100
AcDbLine
 10
3434.831621
 20
6897.868176
 30
0.0
 11
3434.831621
 21
6937.741916
 31
0.0
  0
LINE
  5
881
100
AcDbEntity
  8
LY_1
  6
CONTINUOUS
 62
   130
100
AcDbLine
 10
3434.831621
 20
6937.741916
 30
0.0
 11
3485.831621
 21
6951.741916
 31
0.0
  0
LINE
  5
882
100
AcDbEntity
  8
LY_1
  6
CONTINUOUS
 62
   130
100
AcDbLine
 10
3335.450882
 20
6759.247539
 30
0.0
 11
3345.828349
 21
6759.247539
 31
0.0
  0
LINE
  5
883
100
AcDbEntity
  8
LY_1
  6
CONTINUOUS
 62
   130
100
AcDbLine
 10
3345.828349
 20
6879.251037
 30
0.0
 11
3335.450882
 21
6879.251037
 31
0.0
  0
ELLIPSE
  5
884
100
AcDbEntity
  8
LY_1
  6
CONTINUOUS
 62
   130
100
AcDbEllipse
 10
3340.969583
 20
6819.249288
 30
0.0
 11
0.0000000000000037
 21
61.00000090897022
 31
0.0
210
0.0
220
0.0
230
1.0
 40
0.502136
 41
0.1811607883641017
 42
2.960431865228086
  0
ELLIPSE
  5
885
100
AcDbEntity
  8
LY_1
  6
CONTINUOUS
 62
   130
100
AcDbEllipse
 10
3351.34705
 20
6819.249288
 30
0.0
 11
-0.0000000000000112
 21
-61.00000090897022
 31
0.0
210
0.0
220
0.0
230
1.0
 40
0.502136
 41
3.322753441953906
 42
4.637151265968007
  0
LINE
  5
886
100
AcDbEntity
  8
LY_1
  6
CONTINUOUS
 62
   130
100
AcDbLine
 10
3335.450882
 20
6894.249368
 30
0.0
 11
3335.450882
 21
6879.251037
 31
0.0
  0
LINE
  5
887
100
AcDbEntity
  8
LY_1
  6
CONTINUOUS
 62
   130
100
AcDbLine
 10
3345.82835
 20
6894.249368
 30
0.0
 11
3345.82835
 21
6879.250274
 31
0.0
  0
LINE
  5
888
100
AcDbEntity
  8
LY_1
  6
CONTINUOUS
 62
   130
100
AcDbLine
 10
3335.450882
 20
6759.247539
 30
0.0
 11
3335.450882
 21
6744.249361
 31
0.0
  0
LINE
  5
889
100
AcDbEntity
  8
LY_1
  6
CONTINUOUS
 62
   130
100
AcDbLine
 10
3345.82835
 20
6759.246776
 30
0.0
 11
3345.82835
 21
6744.249361
 31
0.0
  0
LINE
  5
88A
100
AcDbEntity
  8
LY_1
  6
CONTINUOUS
 62
   130
100
AcDbLine
 10
3243.828345
 20
6744.249361
 30
0.0
 11
3345.82835
 21
6744.249361
 31
0.0
  0
LINE
  5
88B
100
AcDbEntity
  8
LY_1
  6
CONTINUOUS
 62
   130
100
AcDbLine
 10
3243.828345
 20
6894.249368
 30
0.0
 11
3345.82835
 21
6894.249368
 31
0.0
  0
LINE
  5
88C
100
AcDbEntity
  8
LY_1
  6
CONTINUOUS
 62
   130
100
AcDbLine
 10
3243.828345
 20
6894.249368
 30
0.0
 11
3243.828345
 21
6744.249361
 31
0.0
  0
CIRCLE
  5
88D
100
AcDbEntity
  8
LY_1
  6
CONTINUOUS
 62
   130
100
AcDbCircle
 10
3404.828352
 20
6819.248754
 30
0.0
 40
84.149923
  0
CIRCLE
  5
88E
100
AcDbEntity
  8
LY_1
  6
CONTINUOUS
 62
   130
100
AcDbCircle
 10
3404.828352
 20
6819.249364
 30
0.0
 40
54.999943
  0
LINE
  5
88F
100
AcDbEntity
  8
LY_1
  6
CONTINUOUS
 62
   130
100
AcDbLine
 10
3503.827986
 20
6686.74967
 30
0.0
 11
3503.827986
 21
6951.748754
 31
0.0
  0
LINE
  5
890
100
AcDbEntity
  8
LY_1
  6
CONTINUOUS
 62
   130
100
AcDbLine
 10
3556.831266
 20
6668.281858
 30
0.0
 11
3556.831266
 21
6686.749072
 31
0.0
  0
LINE
  5
891
100
AcDbEntity
  8
LY_1
  6
CONTINUOUS
 62
   130
100
AcDbLine
 10
3556.831266
 20
6668.281858
 30
0.0
 11
3518.831043
 21
6668.281858
 31
0.0
  0
LINE
  5
892
100
AcDbEntity
  8
LY_1
  6
CONTINUOUS
 62
   130
100
AcDbLine
 10
3518.831043
 20
6668.281858
 30
0.0
 11
3518.831043
 21
6686.749072
 31
0.0
  0
LINE
  5
893
100
AcDbEntity
  8
LY_1
  6
CONTINUOUS
 62
   130
100
AcDbLine
 10
3532.830677
 20
6687.373741
 30
0.0
 11
3532.830677
 21
6686.023418
 31
0.0
  0
CIRCLE
  5
897
100
AcDbEntity
  8
LY_1
  6
CONTINUOUS
 62
   130
100
AcDbCircle
 10
5349.828381
 20
6819.248907
 30
0.0
 40
56.292534
  0
ARC
  5
898
100
AcDbEntity
  8
LY_1
  6
CONTINUOUS
 62
   130
100
AcDbCircle
 10
5349.828381
 20
6819.249059
 30
0.0
 40
104.999962
100
AcDbArc
 50
258.255631
 51
101.744356
  0
LINE
  5
899
100
AcDbEntity
  8
LY_1
  6
CONTINUOUS
 62
   130
100
AcDbLine
 10
5221.827454
 20
6726.748907
 30
0.0
 11
5221.827454
 21
6911.747381
 31
0.0
  0
LINE
  5
89A
100
AcDbEntity
  8
LY_1
  6
CONTINUOUS
 62
   130
100
AcDbLine
 10
5192.334886
 20
6951.743719
 30
0.0
 11
5192.334886
 21
6686.74967
 31
0.0
  0
LINE
  5
89B
100
AcDbEntity
  8
LY_1
  6
CONTINUOUS
 62
   130
100
AcDbLine
 10
5212.828965
 20
6686.74967
 30
0.0
 11
5212.828965
 21
6951.74616
 31
0.0
  0
LINE
  5
89C
100
AcDbEntity
  8
LY_1
  6
CONTINUOUS
 62
   130
100
AcDbLine
 10
5242.828355
 20
6727.748815
 30
0.0
 11
5242.828355
 21
6910.748846
 31
0.0
  0
LINE
  5
89D
100
AcDbEntity
  8
LY_1
  6
CONTINUOUS
 62
   130
100
AcDbLine
 10
5221.827454
 20
6727.74851
 30
0.0
 11
5242.828431
 21
6727.74851
 31
0.0
  0
LINE
  5
89E
100
AcDbEntity
  8
LY_1
  6
CONTINUOUS
 62
   130
100
AcDbLine
 10
5328.456491
 20
6716.44751
 30
0.0
 11
5242.828913
 21
6734.249363
 31
0.0
  0
LINE
  5
89F
100
AcDbEntity
  8
LY_1
  6
CONTINUOUS
 62
   130
100
AcDbLine
 10
5212.828965
 20
6726.749975
 30
0.0
 11
5221.827569
 21
6726.749975
 31
0.0
  0
POINT
  5
8A0
100
AcDbEntity
  8
LY_1
  6
CONTINUOUS
 62
    20
100
AcDbPoint
 10
5349.828381
 20
6819.248907
 30
0.0
  0
LINE
  5
8A1
100
AcDbEntity
  8
LY_1
  6
CONTINUOUS
 62
   130
100
AcDbLine
 10
5212.828965
 20
6911.747381
 30
0.0
 11
5221.827454
 21
6911.747381
 31
0.0
  0
LINE
  5
8A2
100
AcDbEntity
  8
LY_1
  6
CONTINUOUS
 62
   130
100
AcDbLine
 10
5221.827454
 20
6910.74854
 30
0.0
 11
5242.828431
 21
6910.74854
 31
0.0
  0
LINE
  5
8A3
100
AcDbEntity
  8
LY_1
  6
CONTINUOUS
 62
   130
100
AcDbLine
 10
5328.456779
 20
6922.050759
 30
0.0
 11
5242.829197
 21
6904.248917
 31
0.0
  0
ARC
  5
8A4
100
AcDbEntity
  8
LY_1
  6
CONTINUOUS
 62
   224
100
AcDbCircle
 10
13861.705054
 20
5164.717913
 30
0.0
 40
74.559705
100
AcDbArc
 50
180.000079
 51
19.480418
  0
ARC
  5
8A5
100
AcDbEntity
  8
LY_1
  6
CONTINUOUS
 62
   224
100
AcDbCircle
 10
13583.754927
 20
5164.717696
 30
0.0
 40
74.559488
100
AcDbArc
 50
160.520002
 51
0.0
  0
LWPOLYLINE
  5
8A6
100
AcDbEntity
  8
LY_1
  6
CONTINUOUS
 62
   224
100
AcDbPolyline
 90
       21
 70
     0
 43
0.0
 10
13929.416685
 20
5272.256516
 10
13952.707472
 20
5261.203691
 10
13974.206148
 20
5246.975693
 10
13993.482783
 20
5229.857312
 10
14010.151755
 20
5210.190831
 10
14023.879935
 20
5188.369439
 10
14034.392541
 20
5164.829902
 10
14041.479367
 20
5140.042681
 10
14044.998689
 20
5114.503745
 10
14044.880194
 20
5088.723716
 10
14041.126079
 20
5063.218218
 10
14033.81166
 20
5038.497504
 10
14023.083055
 20
5015.055839
 10
14009.15474
 20
4993.361971
 10
13992.305646
 20
4973.85023
 10
13972.872319
 20
4956.910262
 10
13951.243798
 20
4942.88118
 10
13927.852456
 20
4932.0435
 10
13903.166064
 20
4924.614023
 10
13877.678522
 20
4920.741429
 10
13863.107234
 20
4920.158157
  0
ARC
  5
8A7
100
AcDbEntity
  8
LY_1
  6
CONTINUOUS
 62
   224
100
AcDbCircle
 10
13582.352465
 20
5102.464899
 30
0.0
 40
182.307007
100
AcDbArc
 50
111.328988
 51
270.000079
  0
LINE
  5
8A8
100
AcDbEntity
  8
LY_1
  6
CONTINUOUS
 62
   130
100
AcDbLine
 10
6611.827425
 20
2543.181668
 30
0.0
 11
6632.828402
 21
2543.181668
 31
0.0
  0
LINE
  5
8A9
100
AcDbEntity
  8
LY_1
  6
CONTINUOUS
 62
   130
100
AcDbLine
 10
6611.827425
 20
2360.181637
 30
0.0
 11
6632.828402
 21
2360.181637
 31
0.0
  0
LINE
  5
8AD
100
AcDbEntity
  8
LY_1
  6
CONTINUOUS
 62
   130
100
AcDbLine
 10
6611.827425
 20
2359.182034
 30
0.0
 11
6611.827425
 21
2544.180508
 31
0.0
  0
CIRCLE
  5
8AE
100
AcDbEntity
  8
LY_1
  6
CONTINUOUS
 62
   130
100
AcDbCircle
 10
6739.828352
 20
2451.682186
 30
0.0
 40
56.292534
  0
LINE
  5
8AF
100
AcDbEntity
  8
LY_1
  6
CONTINUOUS
 62
   130
100
AcDbLine
 10
6632.828326
 20
2360.181942
 30
0.0
 11
6632.828326
 21
2543.181973
 31
0.0
  0
ARC
  5
8B0
100
AcDbEntity
  8
LY_1
  6
CONTINUOUS
 62
   130
100
AcDbCircle
 10
6739.828352
 20
2451.682186
 30
0.0
 40
104.999962
100
AcDbArc
 50
258.255631
 51
101.744356
  0
POINT
  5
8B1
100
AcDbEntity
  8
LY_1
  6
CONTINUOUS
 62
    20
100
AcDbPoint
 10
6739.828352
 20
2451.682186
 30
0.0
  0
LINE
  5
8B2
100
AcDbEntity
  8
LY_1
  6
CONTINUOUS
 62
   130
100
AcDbLine
 10
6718.456462
 20
2348.880637
 30
0.0
 11
6632.828884
 21
2366.68249
 31
0.0
  0
LINE
  5
8B3
100
AcDbEntity
  8
LY_1
  6
CONTINUOUS
 62
   130
100
AcDbLine
 10
6718.45675
 20
2554.483887
 30
0.0
 11
6632.829168
 21
2536.682044
 31
0.0
  0
MTEXT
  5
8B4
100
AcDbEntity
  8
LY_1
  6
CONTINUOUS
 62
   234
100
AcDbMText
 10
14106.884957
 20
4707.720506
 30
0.0
 40
350.0
 41
0.0
 71
     1
 72
     1
  1
\W1.059;\A1;80t
  7
MX_NOTE_STANDARD
1001
ACAD
1000
MTEXTBEGIN
1070
    73
1070
     1
1070
    44
1040
0.66
1070
    74
1070
     0
1000
MTEXTEND
  0
LINE
  5
8B5
100
AcDbEntity
  8
LY_1
  6
CONTINUOUS
 62
   224
100
AcDbLine
 10
13863.106745
 20
4920.158401
 30
0.0
 11
13582.352717
 21
4920.158014
 31
0.0
  0
MTEXT
  5
8B6
100
AcDbEntity
  8
LY_1
  6
CONTINUOUS
 62
     7
100
AcDbMText
 10
8444.498694
 20
8454.939558
 30
0.0
 40
1000.0
 41
0.0
 71
     7
 72
     1
  1
\W0.888;\A1;FLJ0002
  7
MX_NOTE_STANDARD
1001
ACAD
1000
MTEXTBEGIN
1070
    73
1070
     1
1070
    44
1040
0.66
1070
    74
1070
     0
1000
MTEXTEND
  0
LINE
  5
8B7
100
AcDbEntity
  8
LY_1
  6
CONTINUOUS
 62
    46
100
AcDbLine
 10
6970.53255
 20
11422.496996
 30
0.0
 11
13191.53255
 21
11422.496996
 31
0.0
  0
LINE
  5
8B8
100
AcDbEntity
  8
LY_1
  6
CONTINUOUS
 62
    46
100
AcDbLine
 10
6923.310822
 20
11697.996996
 30
0.0
 11
13205.53255
 21
11697.996996
 31
0.0
  0
LINE
  5
8B9
100
AcDbEntity
  8
LY_1
  6
CONTINUOUS
 62
    46
100
AcDbLine
 10
6983.53255
 20
12048.496996
 30
0.0
 11
13196.53255
 21
12048.496996
 31
0.0
  0
LINE
  5
8BA
100
AcDbEntity
  8
LY_1
  6
CONTINUOUS
 62
    46
100
AcDbLine
 10
6958.53255
 20
11546.865169
 30
0.0
 11
6963.53255
 21
11531.865169
 31
0.0
  0
LINE
  5
8BB
100
AcDbEntity
  8
LY_1
  6
CONTINUOUS
 62
    46
100
AcDbLine
 10
6920.53255
 20
11531.865169
 30
0.0
 11
6925.53255
 21
11546.865169
 31
0.0
  0
LINE
  5
8BC
100
AcDbEntity
  8
LY_1
  6
CONTINUOUS
 62
    46
100
AcDbLine
 10
6910.53255
 20
11377.427076
 30
0.0
 11
6910.53255
 21
11681.494822
 31
0.0
  0
LINE
  5
8BD
100
AcDbEntity
  8
LY_1
  6
CONTINUOUS
 62
    46
100
AcDbLine
 10
6901.53255
 20
11377.427076
 30
0.0
 11
6901.53255
 21
11681.494822
 31
0.0
  0
LINE
  5
8BE
100
AcDbEntity
  8
LY_1
  6
CONTINUOUS
 62
    46
100
AcDbLine
 10
6910.53255
 20
11377.427076
 30
0.0
 11
6910.53255
 21
11671.494822
 31
0.0
  0
LINE
  5
8BF
100
AcDbEntity
  8
LY_1
  6
CONTINUOUS
 62
    46
100
AcDbLine
 10
6920.53255
 20
11361.496996
 30
0.0
 11
6920.53255
 21
11697.996996
 31
0.0
  0
LINE
  5
8C0
100
AcDbEntity
  8
LY_1
  6
CONTINUOUS
 62
    46
100
AcDbLine
 10
6910.53255
 20
11361.496996
 30
0.0
 11
6910.53255
 21
11697.996996
 31
0.0
  0
LINE
  5
8C1
100
AcDbEntity
  8
LY_1
  6
CONTINUOUS
 62
    46
100
AcDbLine
 10
6963.53255
 20
11361.496996
 30
0.0
 11
6963.53255
 21
11591.496996
 31
0.0
  0
LINE
  5
8C2
100
AcDbEntity
  8
LY_1
  6
CONTINUOUS
 62
    46
100
AcDbLine
 10
6970.53255
 20
11361.496996
 30
0.0
 11
6970.53255
 21
11591.496996
 31
0.0
  0
LINE
  5
8C3
100
AcDbEntity
  8
LY_1
  6
CONTINUOUS
 62
    46
100
AcDbLine
 10
6920.53255
 20
11371.496996
 30
0.0
 11
6963.53255
 21
11371.496996
 31
0.0
  0
LINE
  5
8C4
100
AcDbEntity
  8
LY_1
  6
CONTINUOUS
 62
    46
100
AcDbLine
 10
6901.53255
 20
11377.427076
 30
0.0
 11
6910.53255
 21
11377.427076
 31
0.0
  0
LINE
  5
8C5
100
AcDbEntity
  8
LY_1
  6
CONTINUOUS
 62
    46
100
AcDbLine
 10
6901.53255
 20
11378.496996
 30
0.0
 11
6903.13743
 21
11377.427076
 31
0.0
  0
LINE
  5
8C6
100
AcDbEntity
  8
LY_1
  6
CONTINUOUS
 62
    46
100
AcDbLine
 10
6920.53255
 20
11361.496996
 30
0.0
 11
6910.53255
 21
11361.496996
 31
0.0
  0
LINE
  5
8C7
100
AcDbEntity
  8
LY_1
  6
CONTINUOUS
 62
    46
100
AcDbLine
 10
6880.53255
 20
11422.496996
 30
0.0
 11
6901.53255
 21
11422.496996
 31
0.0
  0
LINE
  5
8C8
100
AcDbEntity
  8
LY_1
  6
CONTINUOUS
 62
    46
100
AcDbLine
 10
6880.53255
 20
11392.496996
 30
0.0
 11
6880.53255
 21
11422.496996
 31
0.0
  0
LINE
  5
8C9
100
AcDbEntity
  8
LY_1
  6
CONTINUOUS
 62
    46
100
AcDbLine
 10
6880.53255
 20
11392.496996
 30
0.0
 11
6910.53255
 21
11372.496996
 31
0.0
  0
LINE
  5
8CA
100
AcDbEntity
  8
LY_1
  6
CONTINUOUS
 62
    46
100
AcDbLine
 10
6970.53255
 20
11372.496996
 30
0.0
 11
6975.53255
 21
11372.496996
 31
0.0
  0
LINE
  5
8CB
100
AcDbEntity
  8
LY_1
  6
CONTINUOUS
 62
    46
100
AcDbLine
 10
6975.53255
 20
11372.496996
 30
0.0
 11
6975.53255
 21
11422.496996
 31
0.0
  0
LINE
  5
8CC
100
AcDbEntity
  8
LY_1
  6
CONTINUOUS
 62
    46
100
AcDbLine
 10
6970.53255
 20
11422.496996
 30
0.0
 11
7005.53255
 21
11422.496996
 31
0.0
  0
LINE
  5
8CD
100
AcDbEntity
  8
LY_1
  6
CONTINUOUS
 62
    46
100
AcDbLine
 10
6963.53255
 20
11377.496996
 30
0.0
 11
6963.53255
 21
11417.496996
 31
0.0
  0
LINE
  5
8CE
100
AcDbEntity
  8
LY_1
  6
CONTINUOUS
 62
    46
100
AcDbLine
 10
6963.53255
 20
11361.496996
 30
0.0
 11
6970.53255
 21
11361.496996
 31
0.0
  0
LINE
  5
8CF
100
AcDbEntity
  8
LY_1
  6
CONTINUOUS
 62
    46
100
AcDbLine
 10
6964.53255
 20
11447.070544
 30
0.0
 11
6969.53255
 21
11447.070544
 31
0.0
  0
LINE
  5
8D0
100
AcDbEntity
  8
LY_1
  6
CONTINUOUS
 62
    46
100
AcDbLine
 10
6927.53255
 20
11450.646011
 30
0.0
 11
6956.958816
 21
11450.646011
 31
0.0
  0
LINE
  5
8D1
100
AcDbEntity
  8
LY_1
  6
CONTINUOUS
 62
    46
100
AcDbLine
 10
6910.53255
 20
11944.496996
 30
0.0
 11
6910.53255
 21
12098.496996
 31
0.0
  0
LINE
  5
8D2
100
AcDbEntity
  8
LY_1
  6
CONTINUOUS
 62
    46
100
AcDbLine
 10
6901.53255
 20
11944.496996
 30
0.0
 11
6901.53255
 21
12098.496996
 31
0.0
  0
LINE
  5
8D3
100
AcDbEntity
  8
LY_1
  6
CONTINUOUS
 62
    46
100
AcDbLine
 10
6922.53255
 20
11899.496996
 30
0.0
 11
6922.53255
 21
12110.496996
 31
0.0
  0
LINE
  5
8D4
100
AcDbEntity
  8
LY_1
  6
CONTINUOUS
 62
    46
100
AcDbLine
 10
6910.53255
 20
11697.996996
 30
0.0
 11
6910.53255
 21
12110.496996
 31
0.0
  0
LINE
  5
8D5
100
AcDbEntity
  8
LY_1
  6
CONTINUOUS
 62
    46
100
AcDbLine
 10
6922.53255
 20
12057.496996
 30
0.0
 11
6976.53255
 21
12057.496996
 31
0.0
  0
LINE
  5
8D6
100
AcDbEntity
  8
LY_1
  6
CONTINUOUS
 62
    46
100
AcDbLine
 10
6922.53255
 20
11907.496996
 30
0.0
 11
6976.53255
 21
11907.496996
 31
0.0
  0
LINE
  5
8D7
100
AcDbEntity
  8
LY_1
  6
CONTINUOUS
 62
    46
100
AcDbLine
 10
6925.53255
 20
11546.865169
 30
0.0
 11
6958.53255
 21
11546.865169
 31
0.0
  0
LINE
  5
8D8
100
AcDbEntity
  8
LY_1
  6
CONTINUOUS
 62
    46
100
AcDbLine
 10
6901.53255
 20
11681.494822
 30
0.0
 11
6910.53255
 21
11681.494822
 31
0.0
  0
LINE
  5
8D9
100
AcDbEntity
  8
LY_1
  6
CONTINUOUS
 62
    46
100
AcDbLine
 10
6901.53255
 20
11944.496996
 30
0.0
 11
6910.53255
 21
11944.496996
 31
0.0
  0
LINE
  5
8DA
100
AcDbEntity
  8
LY_1
  6
CONTINUOUS
 62
    46
100
AcDbLine
 10
6917.53255
 20
11697.996996
 30
0.0
 11
6917.53255
 21
11899.496996
 31
0.0
  0
LINE
  5
8DB
100
AcDbEntity
  8
LY_1
  6
CONTINUOUS
 62
    46
100
AcDbLine
 10
6910.53255
 20
11899.496996
 30
0.0
 11
6922.53255
 21
11899.496996
 31
0.0
  0
LINE
  5
8DC
100
AcDbEntity
  8
LY_1
  6
CONTINUOUS
 62
    46
100
AcDbLine
 10
6976.53255
 20
12068.496996
 30
0.0
 11
6983.53255
 21
12068.496996
 31
0.0
  0
LINE
  5
8DD
100
AcDbEntity
  8
LY_1
  6
CONTINUOUS
 62
    46
100
AcDbLine
 10
6963.53255
 20
11591.496996
 30
0.0
 11
6970.53255
 21
11591.496996
 31
0.0
  0
LINE
  5
8DE
100
AcDbEntity
  8
LY_1
  6
CONTINUOUS
 62
    46
100
AcDbLine
 10
6963.53255
 20
11586.496996
 30
0.0
 11
6970.53255
 21
11586.496996
 31
0.0
  0
LINE
  5
8DF
100
AcDbEntity
  8
LY_1
  6
CONTINUOUS
 62
    46
100
AcDbLine
 10
6976.53255
 20
11928.496996
 30
0.0
 11
6983.53255
 21
11928.496996
 31
0.0
  0
LINE
  5
8E0
100
AcDbEntity
  8
LY_1
  6
CONTINUOUS
 62
    46
100
AcDbLine
 10
6976.53255
 20
11918.496996
 30
0.0
 11
6983.53255
 21
11918.496996
 31
0.0
  0
LINE
  5
8E1
100
AcDbEntity
  8
LY_1
  6
CONTINUOUS
 62
    46
100
AcDbLine
 10
6976.53255
 20
11937.496996
 30
0.0
 11
6976.53255
 21
12068.496996
 31
0.0
  0
LINE
  5
8E2
100
AcDbEntity
  8
LY_1
  6
CONTINUOUS
 62
    46
100
AcDbLine
 10
6976.53255
 20
11907.496996
 30
0.0
 11
6976.53255
 21
12068.496996
 31
0.0
  0
LINE
  5
8E3
100
AcDbEntity
  8
LY_1
  6
CONTINUOUS
 62
    46
100
AcDbLine
 10
6983.53255
 20
11918.496996
 30
0.0
 11
6983.53255
 21
12068.496996
 31
0.0
  0
LINE
  5
8E4
100
AcDbEntity
  8
LY_1
  6
CONTINUOUS
 62
    46
100
AcDbLine
 10
6917.385755
 20
12139.5219
 30
0.0
 11
6928.679345
 21
12170.144102
 31
0.0
  0
ARC
  5
8E5
100
AcDbEntity
  8
LY_1
  6
CONTINUOUS
 62
    46
100
AcDbCircle
 10
6900.53255
 20
12180.524753
 30
0.0
 40
35.0
100
AcDbArc
 50
308.753105
 51
121.002719
  0
ARC
  5
8E6
100
AcDbEntity
  8
LY_1
  6
CONTINUOUS
 62
    46
100
AcDbCircle
 10
6900.53255
 20
12180.524753
 30
0.0
 40
30.0
100
AcDbArc
 50
339.755824
 51
90.0
  0
LINE
  5
8E7
100
AcDbEntity
  8
LY_1
  6
CONTINUOUS
 62
    46
100
AcDbLine
 10
6901.53255
 20
12098.496996
 30
0.0
 11
6910.53255
 21
12098.496996
 31
0.0
  0
ARC
  5
8E8
100
AcDbEntity
  8
LY_1
  6
CONTINUOUS
 62
    46
100
AcDbCircle
 10
6900.53255
 20
12180.524753
 30
0.0
 40
19.0
100
AcDbArc
 50
327.307511
 51
172.692489
  0
LINE
  5
8E9
100
AcDbEntity
  8
LY_1
  6
CONTINUOUS
 62
    46
100
AcDbLine
 10
6897.816548
 20
12141.116209
 30
0.0
 11
6916.5226
 21
12170.262283
 31
0.0
  0
LINE
  5
8EA
100
AcDbEntity
  8
LY_1
  6
CONTINUOUS
 62
    46
100
AcDbLine
 10
6881.686872
 20
12182.941451
 30
0.0
 11
6877.281803
 21
12148.590245
 31
0.0
  0
ARC
  5
8EB
100
AcDbEntity
  8
LY_1
  6
CONTINUOUS
 62
    46
100
AcDbCircle
 10
6888.390834
 20
12147.165665
 30
0.0
 40
11.2
100
AcDbArc
 50
172.692489
 51
327.307511
  0
ARC
  5
8EC
100
AcDbEntity
  8
LY_1
  6
CONTINUOUS
 62
    46
100
AcDbCircle
 10
6861.53255
 20
12144.461755
 30
0.0
 40
20.0
100
AcDbArc
 50
180.0
 51
253.61046
  0
LINE
  5
8ED
100
AcDbEntity
  8
LY_1
  6
CONTINUOUS
 62
    46
100
AcDbLine
 10
6875.53255
 20
12119.496996
 30
0.0
 11
6855.889223
 21
12125.274445
 31
0.0
  0
ARC
  5
8EE
100
AcDbEntity
  8
LY_1
  6
CONTINUOUS
 62
    46
100
AcDbCircle
 10
6945.53255
 20
12129.141249
 30
0.0
 40
30.0
100
AcDbArc
 50
159.755824
 51
180.0
  0
LINE
  5
8EF
100
AcDbEntity
  8
LY_1
  6
CONTINUOUS
 62
    46
100
AcDbLine
 10
6875.53255
 20
12110.496996
 30
0.0
 11
6875.53255
 21
12119.496996
 31
0.0
  0
LINE
  5
8F0
100
AcDbEntity
  8
LY_1
  6
CONTINUOUS
 62
    46
100
AcDbLine
 10
6915.53255
 20
12110.496996
 30
0.0
 11
6915.53255
 21
12129.141249
 31
0.0
  0
ARC
  5
8F1
100
AcDbEntity
  8
LY_1
  6
CONTINUOUS
 62
    46
100
AcDbCircle
 10
6811.53255
 20
12205.784338
 30
0.0
 40
30.0
100
AcDbArc
 50
0.0
 51
20.0
  0
LINE
  5
8F2
100
AcDbEntity
  8
LY_1
  6
CONTINUOUS
 62
    46
100
AcDbLine
 10
6841.53255
 20
12157.496996
 30
0.0
 11
6860.53255
 21
12157.496996
 31
0.0
  0
LINE
  5
8F3
100
AcDbEntity
  8
LY_1
  6
CONTINUOUS
 62
    46
100
AcDbLine
 10
6839.723329
 20
12216.044942
 30
0.0
 11
6742.105469
 21
12484.247807
 31
0.0
  0
LINE
  5
8F4
100
AcDbEntity
  8
LY_1
  6
CONTINUOUS
 62
    46
100
AcDbLine
 10
6841.53255
 20
12266.626431
 30
0.0
 11
6759.959628
 21
12490.74619
 31
0.0
  0
CIRCLE
  5
8F5
100
AcDbEntity
  8
LY_1
  6
CONTINUOUS
 62
    46
100
AcDbCircle
 10
6751.032548
 20
12487.496998
 30
0.0
 40
9.5
  0
ARC
  5
8F6
100
AcDbEntity
  8
LY_1
  6
CONTINUOUS
 62
    46
100
AcDbCircle
 10
6851.03255
 20
12487.496996
 30
0.0
 40
9.5
100
AcDbArc
 50
0.0
 51
180.0
  0
LINE
  5
8F7
100
AcDbEntity
  8
LY_1
  6
CONTINUOUS
 62
    46
100
AcDbLine
 10
6860.53255
 20
12210.524753
 30
0.0
 11
6900.53255
 21
12210.524753
 31
0.0
  0
LINE
  5
8F8
100
AcDbEntity
  8
LY_1
  6
CONTINUOUS
 62
    46
100
AcDbLine
 10
6841.53255
 20
12144.461755
 30
0.0
 11
6841.53255
 21
12487.496996
 31
0.0
  0
LINE
  5
8F9
100
AcDbEntity
  8
LY_1
  6
CONTINUOUS
 62
    46
100
AcDbLine
 10
6860.53255
 20
12157.496996
 30
0.0
 11
6860.53255
 21
12487.496996
 31
0.0
  0
LINE
  5
8FA
100
AcDbEntity
  8
LY_1
  6
CONTINUOUS
 62
    46
100
AcDbLine
 10
6875.53255
 20
12110.496996
 30
0.0
 11
6915.53255
 21
12110.496996
 31
0.0
  0
LINE
  5
8FB
100
AcDbEntity
  8
LY_1
  6
CONTINUOUS
 62
    46
100
AcDbLine
 10
6910.53255
 20
12110.496996
 30
0.0
 11
6922.53255
 21
12110.496996
 31
0.0
  0
ARC
  5
8FC
100
AcDbEntity
  8
LY_1
  6
CONTINUOUS
 62
   224
100
AcDbCircle
 10
13495.229181
 20
6257.819646
 30
0.0
 40
20.0
100
AcDbArc
 50
148.952809
 51
180.000001
  0
ARC
  5
8FD
100
AcDbEntity
  8
LY_1
  6
CONTINUOUS
 62
   224
100
AcDbCircle
 10
13490.229181
 20
5993.628562
 30
0.0
 40
15.0
100
AcDbArc
 50
180.0
 51
249.830958
  0
ARC
  5
8FE
100
AcDbEntity
  8
LY_1
  6
CONTINUOUS
 62
   224
100
AcDbCircle
 10
13472.887222
 20
5943.090635
 30
0.0
 40
10.0
100
AcDbArc
 50
34.978443
 51
102.538848
  0
LINE
  5
8FF
100
AcDbEntity
  8
LY_1
  6
CONTINUOUS
 62
   224
100
AcDbLine
 10
13491.224907
 20
5824.36202
 30
0.0
 11
13463.028189
 21
5951.142263
 31
0.0
  0
LINE
  5
900
100
AcDbEntity
  8
LY_1
  6
CONTINUOUS
 62
   224
100
AcDbLine
 10
13491.224937
 20
5824.362027
 30
0.0
 11
13471.701951
 21
5820.020003
 31
0.0
  0
LINE
  5
901
100
AcDbEntity
  8
LY_1
  6
CONTINUOUS
 62
   224
100
AcDbLine
 10
13408.921259
 20
6102.303777
 30
0.0
 11
13538.059273
 21
5521.645575
 31
0.0
  0
ARC
  5
902
100
AcDbEntity
  8
LY_1
  6
CONTINUOUS
 62
   224
100
AcDbCircle
 10
13999.491407
 20
6009.86897
 30
0.0
 40
601.521087
100
AcDbArc
 50
125.364616
 51
169.205864
  0
LINE
  5
903
100
AcDbEntity
  8
LY_1
  6
CONTINUOUS
 62
   224
100
AcDbLine
 10
13475.229181
 20
5993.628562
 30
0.0
 11
13475.229181
 21
6257.819646
 31
0.0
  0
ARC
  5
904
100
AcDbEntity
  8
LY_1
  6
CONTINUOUS
 62
   224
100
AcDbCircle
 10
13457.728693
 20
6113.158269
 30
0.0
 40
49.999992
100
AcDbArc
 50
169.205864
 51
192.538207
  0
LINE
  5
905
100
AcDbEntity
  8
LY_1
  6
CONTINUOUS
 62
   224
100
AcDbLine
 10
13463.028189
 20
5951.142263
 30
0.0
 11
13461.942682
 21
5956.023008
 31
0.0
  0
LINE
  5
906
100
AcDbEntity
  8
LY_1
  6
CONTINUOUS
 62
   224
100
AcDbLine
 10
13461.942682
 20
5956.023008
 30
0.0
 11
13461.502535
 21
5955.925118
 31
0.0
  0
LINE
  5
907
100
AcDbEntity
  8
LY_1
  6
CONTINUOUS
 62
   224
100
AcDbLine
 10
13470.716207
 20
5952.852126
 30
0.0
 11
13463.028189
 21
5951.142264
 31
0.0
  0
LINE
  5
908
100
AcDbEntity
  8
LY_1
  6
CONTINUOUS
 62
   224
100
AcDbLine
 10
13461.502535
 20
5955.925118
 30
0.0
 11
13442.419696
 21
5951.680978
 31
0.0
  0
ARC
  5
909
100
AcDbEntity
  8
LY_1
  6
CONTINUOUS
 62
   224
100
AcDbCircle
 10
13445.968054
 20
6009.86897
 30
0.0
 40
601.521087
100
AcDbArc
 50
10.794136
 51
54.635384
  0
LINE
  5
90A
100
AcDbEntity
  8
LY_1
  6
CONTINUOUS
 62
   224
100
AcDbLine
 10
13970.229731
 20
6257.819646
 30
0.0
 11
13970.229731
 21
5993.628562
 31
0.0
  0
CIRCLE
  5
90E
100
AcDbEntity
  8
LY_1
  6
CONTINUOUS
 62
   224
100
AcDbCircle
 10
13722.729731
 20
5628.158208
 30
0.0
 40
51.999001
  0
LINE
  5
90F
100
AcDbEntity
  8
LY_1
  6
CONTINUOUS
 62
   224
100
AcDbLine
 10
13888.749161
 20
5529.901404
 30
0.0
 11
13939.140061
 21
5756.484314
 31
0.0
  0
LINE
  5
910
100
AcDbEntity
  8
LY_1
  6
CONTINUOUS
 62
   224
100
AcDbLine
 10
13907.398799
 20
5521.645634
 30
0.0
 11
14036.536615
 21
6102.303777
 31
0.0
  0
LINE
  5
911
100
AcDbEntity
  8
LY_1
  6
CONTINUOUS
 62
   224
100
AcDbLine
 10
13556.7103
 20
5529.901404
 30
0.0
 11
13506.319401
 21
5756.484314
 31
0.0
  0
LINE
  5
912
100
AcDbEntity
  8
LY_1
  6
CONTINUOUS
 62
   224
100
AcDbLine
 10
13784.30231
 20
5335.106575
 30
0.0
 11
13801.991225
 21
5365.744741
 31
0.0
  0
LINE
  5
913
100
AcDbEntity
  8
LY_1
  6
CONTINUOUS
 62
   224
100
AcDbLine
 10
13799.552724
 20
5411.426013
 30
0.0
 11
13784.302184
 21
5426.676459
 31
0.0
  0
ARC
  5
914
100
AcDbEntity
  8
LY_1
  6
CONTINUOUS
 62
   224
100
AcDbCircle
 10
13794.225032
 20
5390.053386
 30
0.0
 40
22.026667
100
AcDbArc
 50
29.150078
 51
266.857428
  0
LINE
  5
915
100
AcDbEntity
  8
LY_1
  6
CONTINUOUS
 62
   224
100
AcDbLine
 10
13571.35257
 20
5518.157771
 30
0.0
 11
13874.106376
 21
5518.157771
 31
0.0
  0
LINE
  5
916
100
AcDbEntity
  8
LY_1
  6
CONTINUOUS
 62
   224
100
AcDbLine
 10
13567.342646
 20
5498.158208
 30
0.0
 11
13878.115717
 21
5498.158208
 31
0.0
  0
ARC
  5
917
100
AcDbEntity
  8
LY_1
  6
CONTINUOUS
 62
   224
100
AcDbCircle
 10
13651.23521
 20
5390.053189
 30
0.0
 40
22.026667
100
AcDbArc
 50
273.14273
 51
150.85008
  0
LINE
  5
918
100
AcDbEntity
  8
LY_1
  6
CONTINUOUS
 62
   224
100
AcDbLine
 10
13661.157958
 20
5426.676289
 30
0.0
 11
13661.157981
 21
5409.7182
 31
0.0
  0
LINE
  5
919
100
AcDbEntity
  8
LY_1
  6
CONTINUOUS
 62
   224
100
AcDbLine
 10
13645.90746
 20
5411.425801
 30
0.0
 11
13661.157958
 21
5426.676289
 31
0.0
  0
LINE
  5
91A
100
AcDbEntity
  8
LY_1
  6
CONTINUOUS
 62
   224
100
AcDbLine
 10
13661.158084
 20
5335.106405
 30
0.0
 11
13643.469085
 21
5365.744523
 31
0.0
  0
ARC
  5
91B
100
AcDbEntity
  8
LY_1
  6
CONTINUOUS
 62
   224
100
AcDbCircle
 10
13625.127925
 20
5404.614127
 30
0.0
 40
7.866667
100
AcDbArc
 50
240.850034
 51
330.850069
  0
ARC
  5
91C
100
AcDbEntity
  8
LY_1
  6
CONTINUOUS
 62
   224
100
AcDbCircle
 10
13653.736631
 20
5344.495148
 30
0.0
 40
23.6
100
AcDbArc
 50
93.14275
 51
146.690384
  0
LINE
  5
91D
100
AcDbEntity
  8
LY_1
  6
CONTINUOUS
 62
   224
100
AcDbLine
 10
13634.013751
 20
5357.455387
 30
0.0
 11
13547.502042
 21
5225.80207
 31
0.0
  0
LINE
  5
91E
100
AcDbEntity
  8
LY_1
  6
CONTINUOUS
 62
   224
100
AcDbLine
 10
13661.158084
 20
5334.867838
 30
0.0
 11
13661.158035
 21
5370.388204
 31
0.0
  0
LINE
  5
91F
100
AcDbEntity
  8
LY_1
  6
CONTINUOUS
 62
   224
100
AcDbLine
 10
13784.30231
 20
5334.868008
 30
0.0
 11
13784.302261
 21
5370.388374
 31
0.0
  0
LINE
  5
920
100
AcDbEntity
  8
LY_1
  6
CONTINUOUS
 62
   224
100
AcDbLine
 10
13784.302184
 20
5426.676459
 30
0.0
 11
13784.302207
 21
5409.71837
 31
0.0
  0
ARC
  5
921
100
AcDbEntity
  8
LY_1
  6
CONTINUOUS
 62
   224
100
AcDbCircle
 10
13571.35257
 20
5533.157771
 30
0.0
 40
15.0
100
AcDbArc
 50
192.538239
 51
270.0
  0
LINE
  5
922
100
AcDbEntity
  8
LY_1
  6
CONTINUOUS
 62
   224
100
AcDbLine
 10
13658.314416
 20
5164.717799
 30
0.0
 11
13658.314174
 21
5340.032181
 31
0.0
  0
LINE
  5
923
100
AcDbEntity
  8
LY_1
  6
CONTINUOUS
 62
   224
100
AcDbLine
 10
13658.314059
 20
5423.832392
 30
0.0
 11
13658.313956
 21
5498.158208
 31
0.0
  0
LINE
  5
924
100
AcDbEntity
  8
LY_1
  6
CONTINUOUS
 62
   224
100
AcDbLine
 10
13787.144992
 20
5423.833668
 30
0.0
 11
13787.144889
 21
5498.158208
 31
0.0
  0
LINE
  5
925
100
AcDbEntity
  8
LY_1
  6
CONTINUOUS
 62
   224
100
AcDbLine
 10
13787.145107
 20
5340.030455
 30
0.0
 11
13787.145349
 21
5164.71781
 31
0.0
  0
LINE
  5
926
100
AcDbEntity
  8
LY_1
  6
CONTINUOUS
 62
   224
100
AcDbLine
 10
13527.799392
 20
5230.107646
 30
0.0
 11
13539.177117
 21
5223.761803
 31
0.0
  0
LINE
  5
927
100
AcDbEntity
  8
LY_1
  6
CONTINUOUS
 62
   224
100
AcDbLine
 10
13535.906274
 20
5253.0288
 30
0.0
 11
13513.463376
 21
5189.581627
 31
0.0
  0
LWPOLYLINE
  5
928
100
AcDbEntity
  8
LY_1
  6
CONTINUOUS
 62
   224
100
AcDbPolyline
 90
       18
 70
     0
 43
0.0
 10
13516.080991
 20
5272.285853
 10
13518.135556
 20
5272.919523
 10
13520.258907
 20
5273.256806
 10
13522.408565
 20
5273.290989
 10
13524.541561
 20
5273.021461
 10
13526.615231
 20
5272.453593
 10
13528.588133
 20
5271.598736
 10
13530.420715
 20
5270.473983
 10
13532.076418
 20
5269.101793
 10
13533.522099
 20
5267.509754
 10
13534.728889
 20
5265.729483
 10
13535.672555
 20
5263.796744
 10
13536.334241
 20
5261.750114
 10
13536.700821
 20
5259.630487
 10
13536.76485
 20
5257.480462
 10
13536.525106
 20
5255.342888
 10
13535.986352
 20
5253.26049
 10
13535.906579
 20
5253.029044
  0
LINE
  5
929
100
AcDbEntity
  8
LY_1
  6
CONTINUOUS
 62
   224
100
AcDbLine
 10
13516.043027
 20
5272.285853
 30
0.0
 11
13516.08093
 21
5272.285853
 31
0.0
  0
ARC
  5
92A
100
AcDbEntity
  8
LY_1
  6
CONTINUOUS
 62
   224
100
AcDbCircle
 10
13542.242607
 20
5229.258116
 30
0.0
 40
6.293334
100
AcDbArc
 50
240.850034
 51
326.690389
  0
LINE
  5
92B
100
AcDbEntity
  8
LY_1
  6
CONTINUOUS
 62
   224
100
AcDbLine
 10
13527.799392
 20
5230.107646
 30
0.0
 11
13621.29609
 21
5397.74376
 31
0.0
  0
ARC
  5
92C
100
AcDbEntity
  8
LY_1
  6
CONTINUOUS
 62
   224
100
AcDbCircle
 10
13567.342646
 20
5528.158208
 30
0.0
 40
30.000507
100
AcDbArc
 50
192.538534
 51
270.0
  0
ARC
  5
92D
100
AcDbEntity
  8
LY_1
  6
CONTINUOUS
 62
   224
100
AcDbCircle
 10
13903.218079
 20
5229.258614
 30
0.0
 40
6.293334
100
AcDbArc
 50
213.309769
 51
299.150124
  0
LINE
  5
92E
100
AcDbEntity
  8
LY_1
  6
CONTINUOUS
 62
   224
100
AcDbLine
 10
13917.661292
 20
5230.108183
 30
0.0
 11
13906.283584
 21
5223.762309
 31
0.0
  0
LWPOLYLINE
  5
92F
100
AcDbEntity
  8
LY_1
  6
CONTINUOUS
 62
   224
100
AcDbPolyline
 90
       18
 70
     0
 43
0.0
 10
13909.553186
 20
5253.028827
 10
13908.981405
 20
5255.101091
 10
13908.707477
 20
5257.233293
 10
13908.737137
 20
5259.382952
 10
13909.069653
 20
5261.506854
 10
13909.698313
 20
5263.56264
 10
13910.610664
 20
5265.509053
 10
13911.788273
 20
5267.307394
 10
13913.207827
 20
5268.921532
 10
13914.840881
 20
5270.31924
 10
13916.654723
 20
5271.472562
 10
13918.612973
 20
5272.358307
 10
13920.676572
 20
5272.959018
 10
13922.804378
 20
5273.262488
 10
13924.953548
 20
5273.262612
 10
13927.081357
 20
5272.959637
 10
13929.145078
 20
5272.359298
 10
13929.416807
 20
5272.256028
  0
LINE
  5
930
100
AcDbEntity
  8
LY_1
  6
CONTINUOUS
 62
   224
100
AcDbLine
 10
13931.996627
 20
5189.582431
 30
0.0
 11
13909.553308
 21
5253.029315
 31
0.0
  0
ARC
  5
931
100
AcDbEntity
  8
LY_1
  6
CONTINUOUS
 62
   224
100
AcDbCircle
 10
13874.106376
 20
5533.157771
 30
0.0
 40
15.0
100
AcDbArc
 50
270.0
 51
347.462051
  0
ARC
  5
932
100
AcDbEntity
  8
LY_1
  6
CONTINUOUS
 62
   224
100
AcDbCircle
 10
13878.115717
 20
5528.158208
 30
0.0
 40
30.0
100
AcDbArc
 50
270.0
 51
347.461455
  0
ARC
  5
933
100
AcDbEntity
  8
LY_1
  6
CONTINUOUS
 62
   224
100
AcDbCircle
 10
13791.723737
 20
5344.495338
 30
0.0
 40
23.6
100
AcDbArc
 50
33.309774
 51
86.857408
  0
ARC
  5
934
100
AcDbEntity
  8
LY_1
  6
CONTINUOUS
 62
   224
100
AcDbCircle
 10
13820.332277
 20
5404.614396
 30
0.0
 40
7.866667
100
AcDbArc
 50
209.150089
 51
299.150124
  0
LINE
  5
935
100
AcDbEntity
  8
LY_1
  6
CONTINUOUS
 62
   224
100
AcDbLine
 10
13917.661292
 20
5230.108183
 30
0.0
 11
13824.164132
 21
5397.74404
 31
0.0
  0
LINE
  5
936
100
AcDbEntity
  8
LY_1
  6
CONTINUOUS
 62
   224
100
AcDbLine
 10
13811.446581
 20
5357.455631
 30
0.0
 11
13897.958654
 21
5225.802553
 31
0.0
  0
POINT
  5
937
100
AcDbEntity
  8
LY_1
  6
CONTINUOUS
 62
    20
100
AcDbPoint
 10
13722.729731
 20
6133.158391
 30
0.0
  0
LINE
  5
938
100
AcDbEntity
  8
LY_1
  6
CONTINUOUS
 62
   224
100
AcDbLine
 10
13597.73083
 20
5873.158208
 30
0.0
 11
13585.022199
 21
5873.158208
 31
0.0
  0
ARC
  5
939
100
AcDbEntity
  8
LY_1
  6
CONTINUOUS
 62
   224
100
AcDbCircle
 10
13585.022199
 20
5888.158208
 30
0.0
 40
15.0
100
AcDbArc
 50
215.610484
 51
270.0
  0
ARC
  5
93A
100
AcDbEntity
  8
LY_1
  6
CONTINUOUS
 62
   224
100
AcDbCircle
 10
13597.73083
 20
5833.158208
 30
0.0
 40
40.0
100
AcDbArc
 50
282.538688
 51
90.0
  0
LINE
  5
93B
100
AcDbEntity
  8
LY_1
  6
CONTINUOUS
 62
   224
100
AcDbLine
 10
13485.057315
 20
5979.54837
 30
0.0
 11
13502.518153
 21
5973.134742
 31
0.0
  0
ARC
  5
93C
100
AcDbEntity
  8
LY_1
  6
CONTINUOUS
 62
   224
100
AcDbCircle
 10
13497.346287
 20
5959.05455
 30
0.0
 40
15.0
100
AcDbArc
 50
34.978443
 51
69.830958
  0
LINE
  5
93D
100
AcDbEntity
  8
LY_1
  6
CONTINUOUS
 62
   224
100
AcDbLine
 10
13533.580289
 20
5873.786344
 30
0.0
 11
13481.080889
 21
5948.823317
 31
0.0
  0
ARC
  5
93E
100
AcDbEntity
  8
LY_1
  6
CONTINUOUS
 62
   224
100
AcDbCircle
 10
13520.961671
 20
5759.740681
 30
0.0
 40
15.0
100
AcDbArc
 50
102.538688
 51
192.538239
  0
ARC
  5
93F
100
AcDbEntity
  8
LY_1
  6
CONTINUOUS
 62
   224
100
AcDbCircle
 10
13525.386612
 20
5868.053662
 30
0.0
 40
10.0
100
AcDbArc
 50
315.809428
 51
34.978448
  0
LINE
  5
940
100
AcDbEntity
  8
LY_1
  6
CONTINUOUS
 62
   224
100
AcDbLine
 10
13506.848675
 20
5834.638173
 30
0.0
 11
13532.556865
 21
5861.08319
 31
0.0
  0
LINE
  5
941
100
AcDbEntity
  8
LY_1
  6
CONTINUOUS
 62
   224
100
AcDbLine
 10
13501.849442
 20
5831.84716
 30
0.0
 11
13490.139395
 21
5829.242779
 31
0.0
  0
ARC
  5
942
100
AcDbEntity
  8
LY_1
  6
CONTINUOUS
 62
   224
100
AcDbCircle
 10
13499.678431
 20
5841.608651
 30
0.0
 40
10.0
100
AcDbArc
 50
282.53884
 51
315.809429
  0
LINE
  5
943
100
AcDbEntity
  8
LY_1
  6
CONTINUOUS
 62
   224
100
AcDbLine
 10
13572.827286
 20
5879.424132
 30
0.0
 11
13509.636787
 21
5967.653573
 31
0.0
  0
LINE
  5
944
100
AcDbEntity
  8
LY_1
  6
CONTINUOUS
 62
   224
100
AcDbLine
 10
13606.414782
 20
5794.112222
 30
0.0
 11
13517.705189
 21
5774.382925
 31
0.0
  0
ARC
  5
945
100
AcDbEntity
  8
LY_1
  6
CONTINUOUS
 62
   224
100
AcDbCircle
 10
13987.728632
 20
6113.158269
 30
0.0
 40
50.000408
100
AcDbArc
 50
347.461933
 51
10.794045
  0
LINE
  5
946
100
AcDbEntity
  8
LY_1
  6
CONTINUOUS
 62
   224
100
AcDbLine
 10
13943.610019
 20
5831.84716
 30
0.0
 11
13955.320066
 21
5829.242779
 31
0.0
  0
ARC
  5
947
100
AcDbEntity
  8
LY_1
  6
CONTINUOUS
 62
   224
100
AcDbCircle
 10
13945.781031
 20
5841.608651
 30
0.0
 40
10.0
100
AcDbArc
 50
224.190571
 51
257.46116
  0
LINE
  5
948
100
AcDbEntity
  8
LY_1
  6
CONTINUOUS
 62
   224
100
AcDbLine
 10
13954.234524
 20
5824.362027
 30
0.0
 11
13973.757511
 21
5820.020003
 31
0.0
  0
ARC
  5
949
100
AcDbEntity
  8
LY_1
  6
CONTINUOUS
 62
   224
100
AcDbCircle
 10
13924.497791
 20
5759.740681
 30
0.0
 40
15.0
100
AcDbArc
 50
347.461761
 51
77.461312
  0
LINE
  5
94A
100
AcDbEntity
  8
LY_1
  6
CONTINUOUS
 62
   224
100
AcDbLine
 10
13983.956926
 20
5955.925118
 30
0.0
 11
14003.039765
 21
5951.680978
 31
0.0
  0
LINE
  5
94B
100
AcDbEntity
  8
LY_1
  6
CONTINUOUS
 62
   224
100
AcDbLine
 10
13974.743254
 20
5952.852126
 30
0.0
 11
13982.431272
 21
5951.142264
 31
0.0
  0
LINE
  5
94C
100
AcDbEntity
  8
LY_1
  6
CONTINUOUS
 62
   224
100
AcDbLine
 10
13983.516779
 20
5956.023008
 30
0.0
 11
13983.956926
 21
5955.925118
 31
0.0
  0
LINE
  5
94D
100
AcDbEntity
  8
LY_1
  6
CONTINUOUS
 62
   224
100
AcDbLine
 10
13982.431272
 20
5951.142263
 30
0.0
 11
13983.516779
 21
5956.023008
 31
0.0
  0
ARC
  5
94E
100
AcDbEntity
  8
LY_1
  6
CONTINUOUS
 62
   224
100
AcDbCircle
 10
13972.572239
 20
5943.090635
 30
0.0
 40
10.0
100
AcDbArc
 50
77.461152
 51
145.021557
  0
ARC
  5
94F
100
AcDbEntity
  8
LY_1
  6
CONTINUOUS
 62
   224
100
AcDbCircle
 10
13948.113175
 20
5959.05455
 30
0.0
 40
15.0
100
AcDbArc
 50
110.169042
 51
145.021557
  0
LINE
  5
950
100
AcDbEntity
  8
LY_1
  6
CONTINUOUS
 62
   224
100
AcDbLine
 10
13960.402147
 20
5979.54837
 30
0.0
 11
13942.941309
 21
5973.134742
 31
0.0
  0
ARC
  5
951
100
AcDbEntity
  8
LY_1
  6
CONTINUOUS
 62
   224
100
AcDbCircle
 10
13955.230281
 20
5993.628562
 30
0.0
 40
15.0
100
AcDbArc
 50
290.169042
 51
0.0
  0
LINE
  5
952
100
AcDbEntity
  8
LY_1
  6
CONTINUOUS
 62
   224
100
AcDbLine
 10
13872.632176
 20
5879.424132
 30
0.0
 11
13935.822674
 21
5967.653573
 31
0.0
  0
LINE
  5
953
100
AcDbEntity
  8
LY_1
  6
CONTINUOUS
 62
   224
100
AcDbLine
 10
13911.879172
 20
5873.786344
 30
0.0
 11
13964.378572
 21
5948.823317
 31
0.0
  0
ARC
  5
954
100
AcDbEntity
  8
LY_1
  6
CONTINUOUS
 62
   224
100
AcDbCircle
 10
13860.437262
 20
5888.158208
 30
0.0
 40
15.0
100
AcDbArc
 50
270.0
 51
324.389516
  0
ARC
  5
955
100
AcDbEntity
  8
LY_1
  6
CONTINUOUS
 62
   224
100
AcDbCircle
 10
13920.072849
 20
5868.053662
 30
0.0
 40
10.0
100
AcDbArc
 50
145.021552
 51
224.190572
  0
LINE
  5
956
100
AcDbEntity
  8
LY_1
  6
CONTINUOUS
 62
   224
100
AcDbLine
 10
13954.234555
 20
5824.36202
 30
0.0
 11
13982.431272
 21
5951.142263
 31
0.0
  0
LINE
  5
957
100
AcDbEntity
  8
LY_1
  6
CONTINUOUS
 62
   224
100
AcDbLine
 10
13938.610787
 20
5834.638173
 30
0.0
 11
13912.902596
 21
5861.08319
 31
0.0
  0
ARC
  5
958
100
AcDbEntity
  8
LY_1
  6
CONTINUOUS
 62
   224
100
AcDbCircle
 10
13847.728632
 20
5833.158208
 30
0.0
 40
40.0
100
AcDbArc
 50
90.0
 51
257.461312
  0
LINE
  5
959
100
AcDbEntity
  8
LY_1
  6
CONTINUOUS
 62
   224
100
AcDbLine
 10
13847.728632
 20
5873.158208
 30
0.0
 11
13860.437262
 21
5873.158208
 31
0.0
  0
LINE
  5
95A
100
AcDbEntity
  8
LY_1
  6
CONTINUOUS
 62
   224
100
AcDbLine
 10
13839.04468
 20
5794.112222
 30
0.0
 11
13927.754273
 21
5774.382925
 31
0.0
  0
ARC
  5
95B
100
AcDbEntity
  8
LY_1
  6
CONTINUOUS
 62
   224
100
AcDbCircle
 10
13722.729461
 20
6399.820651
 30
0.0
 40
123.337557
100
AcDbArc
 50
54.635437
 51
125.364616
  0
LINE
  5
95C
100
AcDbEntity
  8
LY_1
  6
CONTINUOUS
 62
   224
100
AcDbLine
 10
13910.713756
 20
6348.158391
 30
0.0
 11
13534.745706
 21
6348.158391
 31
0.0
  0
CIRCLE
  5
95D
100
AcDbEntity
  8
LY_1
  6
CONTINUOUS
 62
   224
100
AcDbCircle
 10
13722.729731
 20
6473.158208
 30
0.0
 40
17.75
  0
ARC
  5
95E
100
AcDbEntity
  8
LY_1
  6
CONTINUOUS
 62
   224
100
AcDbCircle
 10
13534.745706
 20
6333.158391
 30
0.0
 40
15.0
100
AcDbArc
 50
90.0
 51
148.952809
  0
LINE
  5
95F
100
AcDbEntity
  8
LY_1
  6
CONTINUOUS
 62
   224
100
AcDbLine
 10
13521.894563
 20
6340.894549
 30
0.0
 11
13478.094325
 21
6268.134524
 31
0.0
  0
ARC
  5
960
100
AcDbEntity
  8
LY_1
  6
CONTINUOUS
 62
   224
100
AcDbCircle
 10
13950.230281
 20
6257.819646
 30
0.0
 40
20.0
100
AcDbArc
 50
359.999999
 51
31.047191
  0
ARC
  5
961
100
AcDbEntity
  8
LY_1
  6
CONTINUOUS
 62
   224
100
AcDbCircle
 10
13910.713756
 20
6333.158391
 30
0.0
 40
15.0
100
AcDbArc
 50
31.047191
 51
90.0
  0
LINE
  5
962
100
AcDbEntity
  8
LY_1
  6
CONTINUOUS
 62
   224
100
AcDbLine
 10
13923.564898
 20
6340.894549
 30
0.0
 11
13967.365137
 21
6268.134524
 31
0.0
  0
LINE
  5
963
100
AcDbEntity
  8
LY_1
  6
CONTINUOUS
 62
    46
100
AcDbLine
 10
13439.079696
 20
12596.551711
 30
0.0
 11
13489.079696
 21
12096.551711
 31
0.0
  0
LINE
  5
964
100
AcDbEntity
  8
LY_1
  6
CONTINUOUS
 62
    46
100
AcDbLine
 10
13457.985403
 20
12598.442282
 30
0.0
 11
13498.53255
 21
12192.970815
 31
0.0
  0
LINE
  5
965
100
AcDbEntity
  8
LY_1
  6
CONTINUOUS
 62
    46
100
AcDbLine
 10
13296.235852
 20
11043.947823
 30
0.0
 11
13506.230146
 21
10964.558615
 31
0.0
  0
LINE
  5
966
100
AcDbEntity
  8
LY_1
  6
CONTINUOUS
 62
    46
100
AcDbLine
 10
13283.683642
 20
11040.437995
 30
0.0
 11
13517.530295
 21
10952.031305
 31
0.0
  0
LINE
  5
967
100
AcDbEntity
  8
LY_1
  6
CONTINUOUS
 62
    46
100
AcDbLine
 10
13285.805403
 20
11046.050315
 30
0.0
 11
13519.652056
 21
10957.643625
 31
0.0
  0
LINE
  5
968
100
AcDbEntity
  8
LY_1
  6
CONTINUOUS
 62
    46
100
AcDbLine
 10
13456.715778
 20
10833.586974
 30
0.0
 11
13485.818158
 21
10910.566376
 31
0.0
  0
ARC
  5
969
100
AcDbEntity
  8
LY_1
  6
CONTINUOUS
 62
    46
100
AcDbCircle
 10
13341.193168
 20
10839.077783
 30
0.0
 40
149.25
100
AcDbArc
 50
116.768741
 51
21.812648
  0
ARC
  5
96A
100
AcDbEntity
  8
LY_1
  6
CONTINUOUS
 62
    46
100
AcDbCircle
 10
13341.193168
 20
10839.077783
 30
0.0
 40
141.25
100
AcDbArc
 50
120.437974
 51
18.143416
  0
LINE
  5
96B
100
AcDbEntity
  8
LY_1
  6
CONTINUOUS
 62
    46
100
AcDbLine
 10
13295.626962
 20
11042.337234
 30
0.0
 11
13525.381023
 21
11650.065198
 31
0.0
  0
LINE
  5
96C
100
AcDbEntity
  8
LY_1
  6
CONTINUOUS
 62
    46
100
AcDbLine
 10
13412.53255
 20
11741.496996
 30
0.0
 11
14112.520375
 21
11741.496996
 31
0.0
  0
LINE
  5
96D
100
AcDbEntity
  8
LY_1
  6
CONTINUOUS
 62
    46
100
AcDbLine
 10
13472.621148
 20
11767.34223
 30
0.0
 11
13574.068294
 21
11767.280268
 31
0.0
  0
LINE
  5
96E
100
AcDbEntity
  8
LY_1
  6
CONTINUOUS
 62
    46
100
AcDbLine
 10
13438.888068
 20
11902.627366
 30
0.0
 11
13570.769396
 21
11902.546815
 31
0.0
  0
LINE
  5
96F
100
AcDbEntity
  8
LY_1
  6
CONTINUOUS
 62
    46
100
AcDbLine
 10
13412.53255
 20
11921.48968
 30
0.0
 11
14112.520375
 21
11921.48968
 31
0.0
  0
LINE
  5
970
100
AcDbEntity
  8
LY_1
  6
CONTINUOUS
 62
    46
100
AcDbLine
 10
13472.621092
 20
11767.342218
 30
0.0
 11
13574.150974
 21
11902.544689
 31
0.0
  0
LINE
  5
971
100
AcDbEntity
  8
LY_1
  6
CONTINUOUS
 62
    46
100
AcDbLine
 10
13438.826088
 20
11801.179258
 30
0.0
 11
13570.769485
 21
11902.546845
 31
0.0
  0
LINE
  5
972
100
AcDbEntity
  8
LY_1
  6
CONTINUOUS
 62
    46
100
AcDbLine
 10
13200.53255
 20
11691.496996
 30
0.0
 11
14405.532794
 21
11691.496996
 31
0.0
  0
LINE
  5
973
100
AcDbEntity
  8
LY_1
  6
CONTINUOUS
 62
    46
100
AcDbLine
 10
13191.53255
 20
11342.330332
 30
0.0
 11
13191.53255
 21
11691.496996
 31
0.0
  0
LINE
  5
974
100
AcDbEntity
  8
LY_1
  6
CONTINUOUS
 62
    46
100
AcDbLine
 10
13200.53255
 20
11342.330332
 30
0.0
 11
13200.53255
 21
11691.496996
 31
0.0
  0
LINE
  5
975
100
AcDbEntity
  8
LY_1
  6
CONTINUOUS
 62
    46
100
AcDbLine
 10
13200.53255
 20
11342.330332
 30
0.0
 11
13200.53255
 21
11681.496996
 31
0.0
  0
LINE
  5
976
100
AcDbEntity
  8
LY_1
  6
CONTINUOUS
 62
    46
100
AcDbLine
 10
13212.53255
 20
11326.496996
 30
0.0
 11
13212.53255
 21
11691.496996
 31
0.0
  0
LINE
  5
977
100
AcDbEntity
  8
LY_1
  6
CONTINUOUS
 62
    46
100
AcDbLine
 10
13200.53255
 20
11326.496996
 30
0.0
 11
13200.53255
 21
11690.996996
 31
0.0
  0
LINE
  5
978
100
AcDbEntity
  8
LY_1
  6
CONTINUOUS
 62
    46
100
AcDbLine
 10
13271.614624
 20
10991.546904
 30
0.0
 11
13289.295962
 21
11038.316235
 31
0.0
  0
LINE
  5
979
100
AcDbEntity
  8
LY_1
  6
CONTINUOUS
 62
    46
100
AcDbLine
 10
13253.108451
 20
10959.562824
 30
0.0
 11
13285.805403
 21
11046.050315
 31
0.0
  0
LINE
  5
97A
100
AcDbEntity
  8
LY_1
  6
CONTINUOUS
 62
    46
100
AcDbLine
 10
13271.614624
 20
10991.546904
 30
0.0
 11
13280.033103
 21
10988.364263
 31
0.0
  0
LINE
  5
97B
100
AcDbEntity
  8
LY_1
  6
CONTINUOUS
 62
    46
100
AcDbLine
 10
13354.872259
 20
10791.710667
 30
0.0
 11
13353.104454
 21
10802.517021
 31
0.0
  0
LINE
  5
97C
100
AcDbEntity
  8
LY_1
  6
CONTINUOUS
 62
    46
100
AcDbLine
 10
13373.589419
 20
10794.772596
 30
0.0
 11
13371.821614
 21
10805.57895
 31
0.0
  0
LINE
  5
97D
100
AcDbEntity
  8
LY_1
  6
CONTINUOUS
 62
    46
100
AcDbLine
 10
13353.104455
 20
10802.517022
 30
0.0
 11
13361.579129
 21
10809.451165
 31
0.0
  0
LINE
  5
97E
100
AcDbEntity
  8
LY_1
  6
CONTINUOUS
 62
    46
100
AcDbLine
 10
13365.114744
 20
10787.838453
 30
0.0
 11
13373.589418
 21
10794.772595
 31
0.0
  0
LINE
  5
97F
100
AcDbEntity
  8
LY_1
  6
CONTINUOUS
 62
    46
100
AcDbLine
 10
13361.579129
 20
10809.451165
 30
0.0
 11
13371.821613
 21
10805.578952
 31
0.0
  0
LINE
  5
980
100
AcDbEntity
  8
LY_1
  6
CONTINUOUS
 62
    46
100
AcDbLine
 10
13354.87226
 20
10791.710666
 30
0.0
 11
13365.114744
 21
10787.838452
 31
0.0
  0
CIRCLE
  5
981
100
AcDbEntity
  8
LY_1
  6
CONTINUOUS
 62
    46
100
AcDbCircle
 10
13363.346935
 20
10798.644809
 30
0.0
 40
9.482977
  0
LINE
  5
982
100
AcDbEntity
  8
LY_1
  6
CONTINUOUS
 62
    46
100
AcDbLine
 10
13376.070827
 20
10847.841232
 30
0.0
 11
13374.303021
 21
10858.647586
 31
0.0
  0
LINE
  5
983
100
AcDbEntity
  8
LY_1
  6
CONTINUOUS
 62
    46
100
AcDbLine
 10
13394.787986
 20
10850.903161
 30
0.0
 11
13393.020181
 21
10861.709516
 31
0.0
  0
LINE
  5
984
100
AcDbEntity
  8
LY_1
  6
CONTINUOUS
 62
    46
100
AcDbLine
 10
13374.303022
 20
10858.647588
 30
0.0
 11
13382.777696
 21
10865.58173
 31
0.0
  0
LINE
  5
985
100
AcDbEntity
  8
LY_1
  6
CONTINUOUS
 62
    46
100
AcDbLine
 10
13386.313311
 20
10843.969018
 30
0.0
 11
13394.787986
 21
10850.90316
 31
0.0
  0
LINE
  5
986
100
AcDbEntity
  8
LY_1
  6
CONTINUOUS
 62
    46
100
AcDbLine
 10
13382.777696
 20
10865.58173
 30
0.0
 11
13393.02018
 21
10861.709517
 31
0.0
  0
LINE
  5
987
100
AcDbEntity
  8
LY_1
  6
CONTINUOUS
 62
    46
100
AcDbLine
 10
13376.070827
 20
10847.841231
 30
0.0
 11
13386.313311
 21
10843.969018
 31
0.0
  0
CIRCLE
  5
988
100
AcDbEntity
  8
LY_1
  6
CONTINUOUS
 62
    46
100
AcDbCircle
 10
13384.545503
 20
10854.775374
 30
0.0
 40
9.482977
  0
ARC
  5
989
100
AcDbEntity
  8
LY_1
  6
CONTINUOUS
 62
    46
100
AcDbCircle
 10
13438.008046
 20
10840.65951
 30
0.0
 40
20.0
100
AcDbArc
 50
295.329819
 51
339.290695
  0
ARC
  5
98A
100
AcDbEntity
  8
LY_1
  6
CONTINUOUS
 62
    46
100
AcDbCircle
 10
13269.638456
 20
10904.312327
 30
0.0
 40
20.0
100
AcDbArc
 50
159.290695
 51
203.25157
  0
LINE
  5
98B
100
AcDbEntity
  8
LY_1
  6
CONTINUOUS
 62
    46
100
AcDbLine
 10
13446.564612
 20
10822.582309
 30
0.0
 11
13366.867713
 21
10784.858999
 31
0.0
  0
LINE
  5
98C
100
AcDbEntity
  8
LY_1
  6
CONTINUOUS
 62
    46
100
AcDbLine
 10
13251.262848
 20
10896.416946
 30
0.0
 11
13286.071189
 21
10815.404458
 31
0.0
  0
ARC
  5
98D
100
AcDbEntity
  8
LY_1
  6
CONTINUOUS
 62
    46
100
AcDbCircle
 10
13341.198013
 20
10839.0906
 30
0.0
 40
60.0
100
AcDbArc
 50
203.25157
 51
295.329819
  0
ARC
  5
98E
100
AcDbEntity
  8
LY_1
  6
CONTINUOUS
 62
    46
100
AcDbCircle
 10
13341.198013
 20
10839.0906
 30
0.0
 40
25.25
100
AcDbArc
 50
31.362451
 51
287.218938
  0
LINE
  5
98F
100
AcDbEntity
  8
LY_1
  6
CONTINUOUS
 62
    46
100
AcDbLine
 10
13397.848982
 20
10854.557265
 30
0.0
 11
13373.448735
 21
10790.01559
 31
0.0
  0
LINE
  5
990
100
AcDbEntity
  8
LY_1
  6
CONTINUOUS
 62
    46
100
AcDbLine
 10
13370.744838
 20
10873.356059
 30
0.0
 11
13393.194687
 21
10864.868801
 31
0.0
  0
LINE
  5
991
100
AcDbEntity
  8
LY_1
  6
CONTINUOUS
 62
    46
100
AcDbLine
 10
13393.194688
 20
10864.868803
 30
0.0
 11
13397.848693
 21
10854.556917
 31
0.0
  0
LINE
  5
992
100
AcDbEntity
  8
LY_1
  6
CONTINUOUS
 62
    46
100
AcDbLine
 10
13370.744881
 20
10873.356173
 30
0.0
 11
13362.651568
 21
10851.948357
 31
0.0
  0
LINE
  5
993
100
AcDbEntity
  8
LY_1
  6
CONTINUOUS
 62
    46
100
AcDbLine
 10
13348.789934
 20
10815.282618
 30
0.0
 11
13340.686607
 21
10793.848312
 31
0.0
  0
LINE
  5
994
100
AcDbEntity
  8
LY_1
  6
CONTINUOUS
 62
    46
100
AcDbLine
 10
13373.448709
 20
10790.015392
 30
0.0
 11
13363.136009
 21
10785.361113
 31
0.0
  0
LINE
  5
995
100
AcDbEntity
  8
LY_1
  6
CONTINUOUS
 62
    46
100
AcDbLine
 10
13340.686563
 20
10793.848198
 30
0.0
 11
13363.13607
 21
10785.361069
 31
0.0
  0
CIRCLE
  5
996
100
AcDbEntity
  8
LY_1
  6
CONTINUOUS
 62
    46
100
AcDbCircle
 10
13341.202858
 20
10839.103417
 30
0.0
 40
24.999985
  0
LINE
  5
997
100
AcDbEntity
  8
LY_1
  6
CONTINUOUS
 62
    46
100
AcDbLine
 10
13250.930723
 20
10911.384862
 30
0.0
 11
13280.033103
 21
10988.364263
 31
0.0
  0
LINE
  5
998
100
AcDbEntity
  8
LY_1
  6
CONTINUOUS
 62
    46
100
AcDbLine
 10
13292.53255
 20
11511.496996
 30
0.0
 11
13299.53255
 21
11511.496996
 31
0.0
  0
LINE
  5
999
100
AcDbEntity
  8
LY_1
  6
CONTINUOUS
 62
    46
100
AcDbLine
 10
13299.53255
 20
11390.996996
 30
0.0
 11
13427.439222
 21
11390.996996
 31
0.0
  0
LINE
  5
99A
100
AcDbEntity
  8
LY_1
  6
CONTINUOUS
 62
    46
100
AcDbLine
 10
13299.53255
 20
11352.996996
 30
0.0
 11
13304.53255
 21
11352.996996
 31
0.0
  0
LINE
  5
99B
100
AcDbEntity
  8
LY_1
  6
CONTINUOUS
 62
    46
100
AcDbLine
 10
13304.53255
 20
11352.996996
 30
0.0
 11
13304.53255
 21
11390.996996
 31
0.0
  0
LINE
  5
99C
100
AcDbEntity
  8
LY_1
  6
CONTINUOUS
 62
    46
100
AcDbLine
 10
13292.53255
 20
11316.996996
 30
0.0
 11
13292.53255
 21
11374.996996
 31
0.0
  0
CIRCLE
  5
99D
100
AcDbEntity
  8
LY_1
  6
CONTINUOUS
 62
    46
100
AcDbCircle
 10
13252.53255
 20
11316.996996
 30
0.0
 40
17.5
  0
LINE
  5
99E
100
AcDbEntity
  8
LY_1
  6
CONTINUOUS
 62
    46
100
AcDbLine
 10
13292.53255
 20
11326.496996
 30
0.0
 11
13299.53255
 21
11326.496996
 31
0.0
  0
LINE
  5
99F
100
AcDbEntity
  8
LY_1
  6
CONTINUOUS
 62
    46
100
AcDbLine
 10
13191.53255
 20
11342.330332
 30
0.0
 11
13200.53255
 21
11342.330332
 31
0.0
  0
LINE
  5
9A0
100
AcDbEntity
  8
LY_1
  6
CONTINUOUS
 62
    46
100
AcDbLine
 10
13175.53255
 20
11352.996996
 30
0.0
 11
13175.53255
 21
11390.996996
 31
0.0
  0
LINE
  5
9A1
100
AcDbEntity
  8
LY_1
  6
CONTINUOUS
 62
    46
100
AcDbLine
 10
13175.53255
 20
11390.996996
 30
0.0
 11
13191.53255
 21
11390.996996
 31
0.0
  0
LINE
  5
9A2
100
AcDbEntity
  8
LY_1
  6
CONTINUOUS
 62
    46
100
AcDbLine
 10
13200.53255
 20
11326.496996
 30
0.0
 11
13212.53255
 21
11326.496996
 31
0.0
  0
LINE
  5
9A3
100
AcDbEntity
  8
LY_1
  6
CONTINUOUS
 62
    46
100
AcDbLine
 10
13212.53255
 20
11316.996996
 30
0.0
 11
13212.53255
 21
11374.996996
 31
0.0
  0
LINE
  5
9A4
100
AcDbEntity
  8
LY_1
  6
CONTINUOUS
 62
    46
100
AcDbLine
 10
13175.53255
 20
11352.996996
 30
0.0
 11
13191.53255
 21
11352.996996
 31
0.0
  0
ARC
  5
9A5
100
AcDbEntity
  8
LY_1
  6
CONTINUOUS
 62
    46
100
AcDbCircle
 10
13252.53255
 20
11316.996996
 30
0.0
 40
40.0
100
AcDbArc
 50
180.0
 51
0.0
  0
LINE
  5
9A6
100
AcDbEntity
  8
LY_1
  6
CONTINUOUS
 62
    46
100
AcDbLine
 10
13212.53255
 20
11374.996996
 30
0.0
 11
13292.53255
 21
11374.996996
 31
0.0
  0
LINE
  5
9A7
100
AcDbEntity
  8
LY_1
  6
CONTINUOUS
 62
    46
100
AcDbLine
 10
13212.53255
 20
11446.575466
 30
0.0
 11
13292.53255
 21
11446.575466
 31
0.0
  0
LINE
  5
9A8
100
AcDbEntity
  8
LY_1
  6
CONTINUOUS
 62
    46
100
AcDbLine
 10
13292.53255
 20
11326.496996
 30
0.0
 11
13292.53255
 21
11511.496996
 31
0.0
  0
LINE
  5
9A9
100
AcDbEntity
  8
LY_1
  6
CONTINUOUS
 62
    46
100
AcDbLine
 10
13299.53255
 20
11326.496996
 30
0.0
 11
13299.53255
 21
11511.496996
 31
0.0
  0
LINE
  5
9AA
100
AcDbEntity
  8
LY_1
  6
CONTINUOUS
 62
    46
100
AcDbLine
 10
13276.53255
 20
11961.996996
 30
0.0
 11
13276.53255
 21
12087.996996
 31
0.0
  0
LINE
  5
9AB
100
AcDbEntity
  8
LY_1
  6
CONTINUOUS
 62
    46
100
AcDbLine
 10
13205.53255
 20
11931.496996
 30
0.0
 11
13205.53255
 21
12185.996996
 31
0.0
  0
LINE
  5
9AC
100
AcDbEntity
  8
LY_1
  6
CONTINUOUS
 62
    46
100
AcDbLine
 10
13221.53255
 20
11931.496996
 30
0.0
 11
13221.53255
 21
12185.996996
 31
0.0
  0
LINE
  5
9AD
100
AcDbEntity
  8
LY_1
  6
CONTINUOUS
 62
    46
100
AcDbLine
 10
13276.53255
 20
11946.996996
 30
0.0
 11
13276.53255
 21
12148.496996
 31
0.0
  0
LINE
  5
9AE
100
AcDbEntity
  8
LY_1
  6
CONTINUOUS
 62
    46
100
AcDbLine
 10
13283.53255
 20
11947.996996
 30
0.0
 11
13283.53255
 21
12148.496996
 31
0.0
  0
LINE
  5
9AF
100
AcDbEntity
  8
LY_1
  6
CONTINUOUS
 62
    46
100
AcDbLine
 10
13196.53255
 20
11963.496996
 30
0.0
 11
13196.53255
 21
12138.496996
 31
0.0
  0
LINE
  5
9B0
100
AcDbEntity
  8
LY_1
  6
CONTINUOUS
 62
    46
100
AcDbLine
 10
13205.53255
 20
11963.496996
 30
0.0
 11
13205.53255
 21
12138.496996
 31
0.0
  0
LINE
  5
9B1
100
AcDbEntity
  8
LY_1
  6
CONTINUOUS
 62
    46
100
AcDbLine
 10
13412.53255
 20
11921.48968
 30
0.0
 11
13412.53255
 21
11741.496996
 31
0.0
  0
LINE
  5
9B2
100
AcDbEntity
  8
LY_1
  6
CONTINUOUS
 62
    46
100
AcDbLine
 10
13438.888068
 20
11902.627366
 30
0.0
 11
13438.826105
 21
11801.179272
 31
0.0
  0
LINE
  5
9B3
100
AcDbEntity
  8
LY_1
  6
CONTINUOUS
 62
    46
100
AcDbLine
 10
13276.53255
 20
11947.996996
 30
0.0
 11
13283.53255
 21
11947.996996
 31
0.0
  0
LINE
  5
9B4
100
AcDbEntity
  8
LY_1
  6
CONTINUOUS
 62
    46
100
AcDbLine
 10
13191.53255
 20
11691.496996
 30
0.0
 11
13200.53255
 21
11691.496996
 31
0.0
  0
LINE
  5
9B5
100
AcDbEntity
  8
LY_1
  6
CONTINUOUS
 62
    46
100
AcDbLine
 10
13212.53255
 20
11691.496996
 30
0.0
 11
13212.53255
 21
11931.496996
 31
0.0
  0
LINE
  5
9B6
100
AcDbEntity
  8
LY_1
  6
CONTINUOUS
 62
    46
100
AcDbLine
 10
13205.53255
 20
11691.496996
 30
0.0
 11
13210.53255
 21
11691.496996
 31
0.0
  0
LINE
  5
9B7
100
AcDbEntity
  8
LY_1
  6
CONTINUOUS
 62
    46
100
AcDbLine
 10
13205.53255
 20
11691.496996
 30
0.0
 11
13205.53255
 21
11961.996996
 31
0.0
  0
LINE
  5
9B8
100
AcDbEntity
  8
LY_1
  6
CONTINUOUS
 62
    46
100
AcDbLine
 10
13205.53255
 20
11931.496996
 30
0.0
 11
13221.53255
 21
11931.496996
 31
0.0
  0
LINE
  5
9B9
100
AcDbEntity
  8
LY_1
  6
CONTINUOUS
 62
    46
100
AcDbLine
 10
13196.53255
 20
11963.496996
 30
0.0
 11
13205.53255
 21
11963.496996
 31
0.0
  0
LINE
  5
9BA
100
AcDbEntity
  8
LY_1
  6
CONTINUOUS
 62
    46
100
AcDbLine
 10
13221.53255
 20
11946.996996
 30
0.0
 11
13276.53255
 21
11946.996996
 31
0.0
  0
LINE
  5
9BB
100
AcDbEntity
  8
LY_1
  6
CONTINUOUS
 62
    46
100
AcDbLine
 10
13153.533282
 20
12126.496264
 30
0.0
 11
13179.538897
 21
12126.496264
 31
0.0
  0
LINE
  5
9BC
100
AcDbEntity
  8
LY_1
  6
CONTINUOUS
 62
    46
100
AcDbLine
 10
13153.533282
 20
12110.496508
 30
0.0
 11
13179.538897
 21
12110.496508
 31
0.0
  0
LINE
  5
9BD
100
AcDbEntity
  8
LY_1
  6
CONTINUOUS
 62
    46
100
AcDbLine
 10
13151.53255
 20
12124.495532
 30
0.0
 11
13151.53255
 21
12112.49602
 31
0.0
  0
LINE
  5
9BE
100
AcDbEntity
  8
LY_1
  6
CONTINUOUS
 62
    46
100
AcDbLine
 10
13153.534266
 20
12126.492798
 30
0.0
 11
13151.534535
 21
12124.49261
 31
0.0
  0
LINE
  5
9BF
100
AcDbEntity
  8
LY_1
  6
CONTINUOUS
 62
    46
100
AcDbLine
 10
13151.535443
 20
12112.492979
 30
0.0
 11
13153.535449
 21
12110.493066
 31
0.0
  0
CIRCLE
  5
9C0
100
AcDbEntity
  8
LY_1
  6
CONTINUOUS
 62
    46
100
AcDbCircle
 10
13448.53255
 20
12597.496996
 30
0.0
 40
9.5
  0
LINE
  5
9C1
100
AcDbEntity
  8
LY_1
  6
CONTINUOUS
 62
    46
100
AcDbLine
 10
13335.534014
 20
12108.997485
 30
0.0
 11
13426.53255
 21
12108.997485
 31
0.0
  0
LINE
  5
9C2
100
AcDbEntity
  8
LY_1
  6
CONTINUOUS
 62
    46
100
AcDbLine
 10
13331.536337
 20
12110.498889
 30
0.0
 11
13335.53786
 21
12108.998165
 31
0.0
  0
LINE
  5
9C3
100
AcDbEntity
  8
LY_1
  6
CONTINUOUS
 62
    46
100
AcDbLine
 10
13331.531329
 20
12126.495043
 30
0.0
 11
13331.531329
 21
12110.497729
 31
0.0
  0
LINE
  5
9C4
100
AcDbEntity
  8
LY_1
  6
CONTINUOUS
 62
    46
100
AcDbLine
 10
13335.534014
 20
12127.996508
 30
0.0
 11
13426.53255
 21
12127.996508
 31
0.0
  0
LINE
  5
9C5
100
AcDbEntity
  8
LY_1
  6
CONTINUOUS
 62
    46
100
AcDbLine
 10
13331.536337
 20
12126.495104
 30
0.0
 11
13335.53786
 21
12127.995828
 31
0.0
  0
LINE
  5
9C6
100
AcDbEntity
  8
LY_1
  6
CONTINUOUS
 62
    46
100
AcDbLine
 10
13428.532061
 20
12125.995776
 30
0.0
 11
13428.532061
 21
12110.994555
 31
0.0
  0
LINE
  5
9C7
100
AcDbEntity
  8
LY_1
  6
CONTINUOUS
 62
    46
100
AcDbLine
 10
13426.534518
 20
12127.992189
 30
0.0
 11
13428.534527
 21
12125.99228
 31
0.0
  0
LINE
  5
9C8
100
AcDbEntity
  8
LY_1
  6
CONTINUOUS
 62
    46
100
AcDbLine
 10
13428.536719
 20
12110.988933
 30
0.0
 11
13426.538108
 21
12108.989353
 31
0.0
  0
LINE
  5
9C9
100
AcDbEntity
  8
LY_1
  6
CONTINUOUS
 62
    46
100
AcDbLine
 10
13283.53255
 20
12126.496264
 30
0.0
 11
13331.531329
 21
12126.496264
 31
0.0
  0
LINE
  5
9CA
100
AcDbEntity
  8
LY_1
  6
CONTINUOUS
 62
    46
100
AcDbLine
 10
13283.53255
 20
12110.497729
 30
0.0
 11
13331.531329
 21
12110.497729
 31
0.0
  0
LINE
  5
9CB
100
AcDbEntity
  8
LY_1
  6
CONTINUOUS
 62
    46
100
AcDbLine
 10
13243.847366
 20
12170.112753
 30
0.0
 11
13251.379113
 21
12198.084753
 31
0.0
  0
LINE
  5
9CC
100
AcDbEntity
  8
LY_1
  6
CONTINUOUS
 62
    46
100
AcDbLine
 10
13265.53255
 20
12142.996996
 30
0.0
 11
13265.53255
 21
12203.024753
 31
0.0
  0
ARC
  5
9CD
100
AcDbEntity
  8
LY_1
  6
CONTINUOUS
 62
    46
100
AcDbCircle
 10
13327.53255
 20
12151.996508
 30
0.0
 40
50.0
100
AcDbArc
 50
0.0
 51
120.547653
  0
CIRCLE
  5
9CE
100
AcDbEntity
  8
LY_1
  6
CONTINUOUS
 62
    46
100
AcDbCircle
 10
13327.53255
 20
12151.996508
 30
0.0
 40
17.0
  0
LINE
  5
9CF
100
AcDbEntity
  8
LY_1
  6
CONTINUOUS
 62
    46
100
AcDbLine
 10
13283.53255
 20
12087.996996
 30
0.0
 11
13382.53255
 21
12087.996996
 31
0.0
  0
LINE
  5
9D0
100
AcDbEntity
  8
LY_1
  6
CONTINUOUS
 62
    46
100
AcDbLine
 10
13254.03255
 20
12093.996996
 30
0.0
 11
13276.53255
 21
12093.996996
 31
0.0
  0
LINE
  5
9D1
100
AcDbEntity
  8
LY_1
  6
CONTINUOUS
 62
    46
100
AcDbLine
 10
13276.53255
 20
12103.996996
 30
0.0
 11
13276.53255
 21
12142.996996
 31
0.0
  0
ARC
  5
9D2
100
AcDbEntity
  8
LY_1
  6
CONTINUOUS
 62
    46
100
AcDbCircle
 10
13249.03255
 20
12093.996996
 30
0.0
 40
5.0
100
AcDbArc
 50
0.0
 51
180.0
  0
LINE
  5
9D3
100
AcDbEntity
  8
LY_1
  6
CONTINUOUS
 62
    46
100
AcDbLine
 10
13265.53255
 20
12173.464294
 30
0.0
 11
13302.119809
 21
12195.056845
 31
0.0
  0
LINE
  5
9D4
100
AcDbEntity
  8
LY_1
  6
CONTINUOUS
 62
    46
100
AcDbLine
 10
13276.53255
 20
12148.496996
 30
0.0
 11
13283.53255
 21
12148.496996
 31
0.0
  0
LINE
  5
9D5
100
AcDbEntity
  8
LY_1
  6
CONTINUOUS
 62
    46
100
AcDbLine
 10
13377.53255
 20
12108.997485
 30
0.0
 11
13377.53255
 21
12087.996996
 31
0.0
  0
LINE
  5
9D6
100
AcDbEntity
  8
LY_1
  6
CONTINUOUS
 62
    46
100
AcDbLine
 10
13377.53255
 20
12151.996508
 30
0.0
 11
13377.53255
 21
12127.996508
 31
0.0
  0
LINE
  5
9D7
100
AcDbEntity
  8
LY_1
  6
CONTINUOUS
 62
    46
100
AcDbLine
 10
13222.217733
 20
12170.112753
 30
0.0
 11
13221.53255
 21
12172.657442
 31
0.0
  0
LINE
  5
9D8
100
AcDbEntity
  8
LY_1
  6
CONTINUOUS
 62
    46
100
AcDbLine
 10
13194.111651
 20
12104.650561
 30
0.0
 11
13196.53255
 21
12104.650561
 31
0.0
  0
LINE
  5
9D9
100
AcDbEntity
  8
LY_1
  6
CONTINUOUS
 62
    46
100
AcDbLine
 10
13181.114825
 20
12104.650561
 30
0.0
 11
13192.538165
 21
12104.650561
 31
0.0
  0
LINE
  5
9DA
100
AcDbEntity
  8
LY_1
  6
CONTINUOUS
 62
    46
100
AcDbLine
 10
13205.53255
 20
12104.650561
 30
0.0
 11
13205.53255
 21
12132.343432
 31
0.0
  0
LINE
  5
9DB
100
AcDbEntity
  8
LY_1
  6
CONTINUOUS
 62
    46
100
AcDbLine
 10
13179.538897
 20
12108.368577
 30
0.0
 11
13179.538897
 21
12128.881518
 31
0.0
  0
LINE
  5
9DC
100
AcDbEntity
  8
LY_1
  6
CONTINUOUS
 62
    46
100
AcDbLine
 10
13181.114825
 20
12132.343432
 30
0.0
 11
13192.538165
 21
12132.343432
 31
0.0
  0
LINE
  5
9DD
100
AcDbEntity
  8
LY_1
  6
CONTINUOUS
 62
    46
100
AcDbLine
 10
13192.535723
 20
12104.650561
 30
0.0
 11
13192.535723
 21
12132.342211
 31
0.0
  0
LINE
  5
9DE
100
AcDbEntity
  8
LY_1
  6
CONTINUOUS
 62
    46
100
AcDbLine
 10
13194.111651
 20
12132.343432
 30
0.0
 11
13196.53255
 21
12132.343432
 31
0.0
  0
ARC
  5
9DF
100
AcDbEntity
  8
LY_1
  6
CONTINUOUS
 62
    46
100
AcDbCircle
 10
13184.122638
 20
12108.108813
 30
0.0
 40
4.591095
100
AcDbArc
 50
176.756473
 51
228.872878
  0
ARC
  5
9E0
100
AcDbEntity
  8
LY_1
  6
CONTINUOUS
 62
    46
100
AcDbCircle
 10
13184.123858
 20
12128.883959
 30
0.0
 40
4.591095
100
AcDbArc
 50
131.046414
 51
182.962079
  0
ARC
  5
9E1
100
AcDbEntity
  8
LY_1
  6
CONTINUOUS
 62
    46
100
AcDbCircle
 10
13197.119464
 20
12108.108813
 30
0.0
 40
4.591095
100
AcDbArc
 50
176.756473
 51
228.872878
  0
ARC
  5
9E2
100
AcDbEntity
  8
LY_1
  6
CONTINUOUS
 62
    46
100
AcDbCircle
 10
13197.120684
 20
12128.883959
 30
0.0
 40
4.591095
100
AcDbArc
 50
131.046414
 51
182.962079
  0
LINE
  5
9E3
100
AcDbEntity
  8
LY_1
  6
CONTINUOUS
 62
    46
100
AcDbLine
 10
13221.53255
 20
12144.996996
 30
0.0
 11
13223.53255
 21
12142.996996
 31
0.0
  0
LINE
  5
9E4
100
AcDbEntity
  8
LY_1
  6
CONTINUOUS
 62
    46
100
AcDbLine
 10
13200.53255
 20
12149.996996
 30
0.0
 11
13205.53255
 21
12149.996996
 31
0.0
  0
LINE
  5
9E5
100
AcDbEntity
  8
LY_1
  6
CONTINUOUS
 62
    46
100
AcDbLine
 10
13200.53255
 20
12149.996996
 30
0.0
 11
13200.53255
 21
12203.024753
 31
0.0
  0
LINE
  5
9E6
100
AcDbEntity
  8
LY_1
  6
CONTINUOUS
 62
    46
100
AcDbLine
 10
13214.685986
 20
12198.084753
 30
0.0
 11
13217.940738
 21
12185.996996
 31
0.0
  0
LINE
  5
9E7
100
AcDbEntity
  8
LY_1
  6
DASHED
 62
    46
100
AcDbLine
 10
13205.53255
 20
12083.496996
 30
0.0
 11
13205.53255
 21
12087.996996
 31
0.0
  0
LINE
  5
9E8
100
AcDbEntity
  8
LY_1
  6
CONTINUOUS
 62
    46
100
AcDbLine
 10
13205.53255
 20
12185.996996
 30
0.0
 11
13221.53255
 21
12185.996996
 31
0.0
  0
LINE
  5
9E9
100
AcDbEntity
  8
LY_1
  6
CONTINUOUS
 62
    46
100
AcDbLine
 10
13196.53255
 20
12138.496996
 30
0.0
 11
13205.53255
 21
12138.496996
 31
0.0
  0
ARC
  5
9EA
100
AcDbEntity
  8
LY_1
  6
CONTINUOUS
 62
    46
100
AcDbCircle
 10
13233.03255
 20
12203.024753
 30
0.0
 40
32.5
100
AcDbArc
 50
0.0
 51
180.0
  0
LINE
  5
9EB
100
AcDbEntity
  8
LY_1
  6
CONTINUOUS
 62
    46
100
AcDbLine
 10
13223.53255
 20
12142.996996
 30
0.0
 11
13265.53255
 21
12142.996996
 31
0.0
  0
ARC
  5
9EC
100
AcDbEntity
  8
LY_1
  6
CONTINUOUS
 62
    46
100
AcDbCircle
 10
13233.03255
 20
12173.024753
 30
0.0
 40
11.2
100
AcDbArc
 50
195.070062
 51
344.929938
  0
ARC
  5
9ED
100
AcDbEntity
  8
LY_1
  6
CONTINUOUS
 62
    46
100
AcDbCircle
 10
13233.03255
 20
12203.024753
 30
0.0
 40
19.0
100
AcDbArc
 50
344.929938
 51
195.070062
  0
ARC
  5
9EE
100
AcDbEntity
  8
LY_1
  6
CONTINUOUS
 62
    46
100
AcDbCircle
 10
13233.03255
 20
12203.024753
 30
0.0
 40
35.0
100
AcDbArc
 50
338.213211
 51
201.786789
  0
LINE
  5
9EF
100
AcDbEntity
  8
LY_1
  6
CONTINUOUS
 62
    46
100
AcDbLine
 10
13221.53255
 20
12093.996996
 30
0.0
 11
13244.03255
 21
12093.996996
 31
0.0
  0
LINE
  5
9F0
100
AcDbEntity
  8
LY_1
  6
CONTINUOUS
 62
    46
100
AcDbLine
 10
13221.53255
 20
12142.996996
 30
0.0
 11
13276.53255
 21
12142.996996
 31
0.0
  0
LINE
  5
9F1
100
AcDbEntity
  8
LY_1
  6
CONTINUOUS
 62
    46
100
AcDbLine
 10
13483.73225
 20
11527.173751
 30
0.0
 11
13529.590263
 21
11648.473877
 31
0.0
  0
LINE
  5
9F2
100
AcDbEntity
  8
LY_1
  6
CONTINUOUS
 62
    46
100
AcDbLine
 10
13505.621257
 20
10962.948026
 30
0.0
 11
13735.375317
 21
11570.67599
 31
0.0
  0
LINE
  5
9F3
100
AcDbEntity
  8
LY_1
  6
CONTINUOUS
 62
    46
100
AcDbLine
 10
13509.830496
 20
10961.356706
 30
0.0
 11
13739.584557
 21
11569.084669
 31
0.0
  0
LINE
  5
9F4
100
AcDbEntity
  8
LY_1
  6
CONTINUOUS
 62
    46
100
AcDbLine
 10
13672.257778
 20
11390.996996
 30
0.0
 11
14405.532794
 21
11390.996996
 31
0.0
  0
LINE
  5
9F5
100
AcDbEntity
  8
LY_1
  6
CONTINUOUS
 62
    46
100
AcDbLine
 10
13485.818158
 20
10910.566376
 30
0.0
 11
13494.236637
 21
10907.383735
 31
0.0
  0
LINE
  5
9F6
100
AcDbEntity
  8
LY_1
  6
CONTINUOUS
 62
    46
100
AcDbLine
 10
13494.236637
 20
10907.383735
 30
0.0
 11
13511.917975
 21
10954.153065
 31
0.0
  0
LINE
  5
9F7
100
AcDbEntity
  8
LY_1
  6
CONTINUOUS
 62
    46
100
AcDbLine
 10
13486.955103
 20
10871.156134
 30
0.0
 11
13519.652056
 21
10957.643625
 31
0.0
  0
LINE
  5
9F8
100
AcDbEntity
  8
LY_1
  6
CONTINUOUS
 62
    46
100
AcDbLine
 10
13479.52301
 20
11528.765072
 30
0.0
 11
13689.517305
 21
11449.375864
 31
0.0
  0
LINE
  5
9F9
100
AcDbEntity
  8
LY_1
  6
CONTINUOUS
 62
    46
100
AcDbLine
 10
13484.537867
 20
11529.304708
 30
0.0
 11
13690.322922
 21
11451.506821
 31
0.0
  0
LINE
  5
9FA
100
AcDbEntity
  8
LY_1
  6
CONTINUOUS
 62
    46
100
AcDbLine
 10
13770.944811
 20
11844.64388
 30
0.0
 11
13792.738502
 21
11844.630569
 31
0.0
  0
LINE
  5
9FB
100
AcDbEntity
  8
LY_1
  6
CONTINUOUS
 62
    46
100
AcDbLine
 10
13770.32091
 20
11902.424932
 30
0.0
 11
13793.433159
 21
11902.410815
 31
0.0
  0
LINE
  5
9FC
100
AcDbEntity
  8
LY_1
  6
CONTINUOUS
 62
    46
100
AcDbLine
 10
13714.708216
 20
11834.821526
 30
0.0
 11
13736.121059
 21
11834.808447
 31
0.0
  0
LINE
  5
9FD
100
AcDbEntity
  8
LY_1
  6
CONTINUOUS
 62
    46
100
AcDbLine
 10
13745.807801
 20
11834.802531
 30
0.0
 11
13767.900395
 21
11834.789037
 31
0.0
  0
LINE
  5
9FE
100
AcDbEntity
  8
LY_1
  6
CONTINUOUS
 62
    46
100
AcDbLine
 10
13775.354211
 20
11858.916408
 30
0.0
 11
13788.346549
 21
11858.908473
 31
0.0
  0
LINE
  5
9FF
100
AcDbEntity
  8
LY_1
  6
CONTINUOUS
 62
    46
100
AcDbLine
 10
13783.301444
 20
11875.309966
 30
0.0
 11
13788.346582
 21
11858.908449
 31
0.0
  0
LINE
  5
A00
100
AcDbEntity
  8
LY_1
  6
CONTINUOUS
 62
    46
100
AcDbLine
 10
13781.629144
 20
11880.665287
 30
0.0
 11
13782.098339
 21
11880.665001
 31
0.0
  0
ARC
  5
A01
100
AcDbEntity
  8
LY_1
  6
CONTINUOUS
 62
    46
100
AcDbCircle
 10
13817.21501
 20
11885.741853
 30
0.0
 40
35.481753
100
AcDbArc
 50
188.226313
 51
197.097998
  0
ARC
  5
A02
100
AcDbEntity
  8
LY_1
  6
CONTINUOUS
 62
    46
100
AcDbCircle
 10
13746.518714
 20
11885.785033
 30
0.0
 40
35.481753
100
AcDbArc
 50
342.668072
 51
351.703697
  0
LINE
  5
A03
100
AcDbEntity
  8
LY_1
  6
CONTINUOUS
 62
    46
100
AcDbLine
 10
13770.944853
 20
11844.643871
 30
0.0
 11
13767.900303
 21
11834.789032
 31
0.0
  0
LINE
  5
A04
100
AcDbEntity
  8
LY_1
  6
CONTINUOUS
 62
    46
100
AcDbLine
 10
13574.109602
 20
11834.912463
 30
0.0
 11
13628.213917
 21
11834.879417
 31
0.0
  0
LINE
  5
A05
100
AcDbEntity
  8
LY_1
  6
CONTINUOUS
 62
    46
100
AcDbLine
 10
13574.109602
 20
11834.912463
 30
0.0
 11
13574.068294
 21
11767.280268
 31
0.0
  0
LINE
  5
A06
100
AcDbEntity
  8
LY_1
  6
CONTINUOUS
 62
    46
100
AcDbLine
 10
13695.885847
 20
11902.470396
 30
0.0
 11
13755.026033
 21
11902.434274
 31
0.0
  0
LINE
  5
A07
100
AcDbEntity
  8
LY_1
  6
CONTINUOUS
 62
    46
100
AcDbLine
 10
13695.874637
 20
11884.116532
 30
0.0
 11
13714.738318
 21
11884.10501
 31
0.0
  0
LINE
  5
A08
100
AcDbEntity
  8
LY_1
  6
CONTINUOUS
 62
    46
100
AcDbLine
 10
13695.885847
 20
11902.470396
 30
0.0
 11
13695.874637
 21
11884.116532
 31
0.0
  0
LINE
  5
A09
100
AcDbEntity
  8
LY_1
  6
CONTINUOUS
 62
    46
100
AcDbLine
 10
13755.026033
 20
11902.434274
 30
0.0
 11
13755.014823
 21
11884.08041
 31
0.0
  0
LINE
  5
A0A
100
AcDbEntity
  8
LY_1
  6
CONTINUOUS
 62
    46
100
AcDbLine
 10
13736.15116
 20
11884.091932
 30
0.0
 11
13755.014823
 21
11884.08041
 31
0.0
  0
LINE
  5
A0B
100
AcDbEntity
  8
LY_1
  6
CONTINUOUS
 62
    46
100
AcDbLine
 10
13574.150989
 20
11902.544749
 30
0.0
 11
13628.255226
 21
11902.511703
 31
0.0
  0
LINE
  5
A0C
100
AcDbEntity
  8
LY_1
  6
CONTINUOUS
 62
    46
100
AcDbLine
 10
13628.255226
 20
11902.511703
 30
0.0
 11
13628.213917
 21
11834.879417
 31
0.0
  0
LINE
  5
A0D
100
AcDbEntity
  8
LY_1
  6
CONTINUOUS
 62
    46
100
AcDbLine
 10
13780.389415
 20
11875.214775
 30
0.0
 11
13775.354185
 21
11858.916345
 31
0.0
  0
LINE
  5
A0E
100
AcDbEntity
  8
LY_1
  6
CONTINUOUS
 62
    46
100
AcDbLine
 10
13770.320901
 20
11902.424907
 30
0.0
 11
13745.807781
 21
11834.802495
 31
0.0
  0
LINE
  5
A0F
100
AcDbEntity
  8
LY_1
  6
CONTINUOUS
 62
    46
100
AcDbLine
 10
13736.15116
 20
11884.091932
 30
0.0
 11
13736.121059
 21
11834.808447
 31
0.0
  0
LINE
  5
A10
100
AcDbEntity
  8
LY_1
  6
CONTINUOUS
 62
    46
100
AcDbLine
 10
13714.738318
 20
11884.10501
 30
0.0
 11
13714.708216
 21
11834.821526
 31
0.0
  0
LINE
  5
A11
100
AcDbEntity
  8
LY_1
  6
CONTINUOUS
 62
    46
100
AcDbLine
 10
13735.375317
 20
11570.67599
 30
0.0
 11
13739.584557
 21
11569.084669
 31
0.0
  0
LINE
  5
A12
100
AcDbEntity
  8
LY_1
  6
CONTINUOUS
 62
    46
100
AcDbLine
 10
13525.381023
 20
11650.065198
 30
0.0
 11
13529.590263
 21
11648.473877
 31
0.0
  0
LINE
  5
A13
100
AcDbEntity
  8
LY_1
  6
CONTINUOUS
 62
    46
100
AcDbLine
 10
13904.745891
 20
11902.342827
 30
0.0
 11
13927.85797
 21
11902.328711
 31
0.0
  0
LINE
  5
A14
100
AcDbEntity
  8
LY_1
  6
CONTINUOUS
 62
    46
100
AcDbLine
 10
13955.898772
 20
11902.311584
 30
0.0
 11
13975.951966
 21
11902.299336
 31
0.0
  0
LINE
  5
A15
100
AcDbEntity
  8
LY_1
  6
CONTINUOUS
 62
    46
100
AcDbLine
 10
13998.724381
 20
11902.285427
 30
0.0
 11
14018.097762
 21
11902.273594
 31
0.0
  0
ARC
  5
A16
100
AcDbEntity
  8
LY_1
  6
CONTINUOUS
 62
    46
100
AcDbCircle
 10
14060.559454
 20
11862.990781
 30
0.0
 40
40.786335
100
AcDbArc
 50
72.700859
 51
107.228112
  0
ARC
  5
A17
100
AcDbEntity
  8
LY_1
  6
CONTINUOUS
 62
    46
100
AcDbCircle
 10
14057.33814
 20
11873.37912
 30
0.0
 40
29.909988
100
AcDbArc
 50
107.228112
 51
152.903488
  0
ARC
  5
A18
100
AcDbEntity
  8
LY_1
  6
CONTINUOUS
 62
    46
100
AcDbCircle
 10
14063.793663
 20
11873.375177
 30
0.0
 40
29.909988
100
AcDbArc
 50
27.026521
 51
72.700859
  0
LINE
  5
A19
100
AcDbEntity
  8
LY_1
  6
CONTINUOUS
 62
    46
100
AcDbLine
 10
13880.23277
 20
11834.720426
 30
0.0
 11
13902.325154
 21
11834.706933
 31
0.0
  0
LINE
  5
A1A
100
AcDbEntity
  8
LY_1
  6
CONTINUOUS
 62
    46
100
AcDbLine
 10
13930.195884
 20
11834.68991
 30
0.0
 11
13952.288463
 21
11834.676416
 31
0.0
  0
LINE
  5
A1B
100
AcDbEntity
  8
LY_1
  6
CONTINUOUS
 62
    46
100
AcDbLine
 10
13955.857461
 20
11834.674236
 30
0.0
 11
13975.230958
 21
11834.662403
 31
0.0
  0
LINE
  5
A1C
100
AcDbEntity
  8
LY_1
  6
CONTINUOUS
 62
    46
100
AcDbLine
 10
13998.003192
 20
11834.648494
 30
0.0
 11
14018.05645
 21
11834.636246
 31
0.0
  0
ARC
  5
A1D
100
AcDbEntity
  8
LY_1
  6
CONTINUOUS
 62
    46
100
AcDbCircle
 10
14060.566098
 20
11873.867139
 30
0.0
 40
40.786335
100
AcDbArc
 50
252.701998
 51
287.22905
  0
LINE
  5
A1E
100
AcDbEntity
  8
LY_1
  6
CONTINUOUS
 62
    46
100
AcDbLine
 10
13909.779189
 20
11858.834304
 30
0.0
 11
13922.771531
 21
11858.826368
 31
0.0
  0
LINE
  5
A1F
100
AcDbEntity
  8
LY_1
  6
CONTINUOUS
 62
    46
100
AcDbLine
 10
13905.369797
 20
11844.561775
 30
0.0
 11
13927.163373
 21
11844.548464
 31
0.0
  0
LINE
  5
A20
100
AcDbEntity
  8
LY_1
  6
CONTINUOUS
 62
    46
100
AcDbLine
 10
13917.72634
 20
11875.227833
 30
0.0
 11
13922.77146
 21
11858.826376
 31
0.0
  0
LINE
  5
A21
100
AcDbEntity
  8
LY_1
  6
CONTINUOUS
 62
    46
100
AcDbLine
 10
13914.804202
 20
11875.100099
 30
0.0
 11
13909.779059
 21
11858.834319
 31
0.0
  0
LINE
  5
A22
100
AcDbEntity
  8
LY_1
  6
CONTINUOUS
 62
    46
100
AcDbLine
 10
13916.054113
 20
11880.583183
 30
0.0
 11
13916.523347
 21
11880.582896
 31
0.0
  0
LINE
  5
A23
100
AcDbEntity
  8
LY_1
  6
CONTINUOUS
 62
    46
100
AcDbLine
 10
13998.627035
 20
11864.897998
 30
0.0
 11
13999.000823
 21
11864.89777
 31
0.0
  0
LINE
  5
A24
100
AcDbEntity
  8
LY_1
  6
CONTINUOUS
 62
    46
100
AcDbLine
 10
13974.954013
 20
11872.050052
 30
0.0
 11
13975.328033
 21
11872.049824
 31
0.0
  0
ARC
  5
A25
100
AcDbEntity
  8
LY_1
  6
CONTINUOUS
 62
    46
100
AcDbCircle
 10
13951.640018
 20
11885.659748
 30
0.0
 40
35.481753
100
AcDbArc
 50
188.226346
 51
197.098002
  0
ARC
  5
A26
100
AcDbEntity
  8
LY_1
  6
CONTINUOUS
 62
    46
100
AcDbCircle
 10
13880.943683
 20
11885.702928
 30
0.0
 40
35.481753
100
AcDbArc
 50
342.612966
 51
351.7037
  0
ARC
  5
A27
100
AcDbEntity
  8
LY_1
  6
CONTINUOUS
 62
    46
100
AcDbCircle
 10
13837.427766
 20
11868.565241
 30
0.0
 40
25.831348
100
AcDbArc
 50
340.240297
 51
22.17799
  0
ARC
  5
A28
100
AcDbEntity
  8
LY_1
  6
CONTINUOUS
 62
    46
100
AcDbCircle
 10
13838.787312
 20
11868.56441
 30
0.0
 40
44.525088
100
AcDbArc
 50
341.591049
 51
23.897607
  0
ARC
  5
A29
100
AcDbEntity
  8
LY_1
  6
CONTINUOUS
 62
    46
100
AcDbCircle
 10
14042.209731
 20
11869.969653
 30
0.0
 40
43.505428
100
AcDbArc
 50
179.735738
 51
186.694793
  0
ARC
  5
A2A
100
AcDbEntity
  8
LY_1
  6
CONTINUOUS
 62
    46
100
AcDbCircle
 10
13931.745247
 20
11866.978156
 30
0.0
 40
43.505428
100
AcDbArc
 50
359.965005
 51
6.69481
  0
ARC
  5
A2B
100
AcDbEntity
  8
LY_1
  6
CONTINUOUS
 62
    46
100
AcDbCircle
 10
14035.431927
 20
11902.263006
 30
0.0
 40
67.270456
100
AcDbArc
 50
206.687881
 51
211.438701
  0
ARC
  5
A2C
100
AcDbEntity
  8
LY_1
  6
CONTINUOUS
 62
    46
100
AcDbCircle
 10
13938.523257
 20
11834.684823
 30
0.0
 40
67.270366
100
AcDbArc
 50
26.687913
 51
31.543171
  0
ARC
  5
A2D
100
AcDbEntity
  8
LY_1
  6
CONTINUOUS
 62
    46
100
AcDbCircle
 10
14082.145652
 20
11868.415771
 30
0.0
 40
34.328501
100
AcDbArc
 50
165.097357
 51
194.473202
  0
ARC
  5
A2E
100
AcDbEntity
  8
LY_1
  6
CONTINUOUS
 62
    46
100
AcDbCircle
 10
14060.566025
 20
11874.086489
 30
0.0
 40
12.016544
100
AcDbArc
 50
14.141234
 51
164.764484
  0
ARC
  5
A2F
100
AcDbEntity
  8
LY_1
  6
CONTINUOUS
 62
    46
100
AcDbCircle
 10
14060.559114
 20
11862.771405
 30
0.0
 40
12.016544
100
AcDbArc
 50
194.138588
 51
344.761774
  0
ARC
  5
A30
100
AcDbEntity
  8
LY_1
  6
CONTINUOUS
 62
    46
100
AcDbCircle
 10
14038.979487
 20
11868.442136
 30
0.0
 40
34.328501
100
AcDbArc
 50
345.096388
 51
14.474107
  0
ARC
  5
A31
100
AcDbEntity
  8
LY_1
  6
CONTINUOUS
 62
    46
100
AcDbCircle
 10
14063.787619
 20
11863.478734
 30
0.0
 40
29.909988
100
AcDbArc
 50
287.22905
 51
332.903246
  0
ARC
  5
A32
100
AcDbEntity
  8
LY_1
  6
CONTINUOUS
 62
    46
100
AcDbCircle
 10
14057.332095
 20
11863.482677
 30
0.0
 40
29.909988
100
AcDbArc
 50
207.026763
 51
252.701998
  0
ARC
  5
A33
100
AcDbEntity
  8
LY_1
  6
CONTINUOUS
 62
    46
100
AcDbCircle
 10
14054.104982
 20
11868.432898
 30
0.0
 40
40.786335
100
AcDbArc
 50
332.903246
 51
27.026521
  0
ARC
  5
A34
100
AcDbEntity
  8
LY_1
  6
CONTINUOUS
 62
    46
100
AcDbCircle
 10
14067.020776
 20
11868.425009
 30
0.0
 40
40.786335
100
AcDbArc
 50
152.903488
 51
207.026763
  0
ARC
  5
A35
100
AcDbEntity
  8
LY_1
  6
CONTINUOUS
 62
    46
100
AcDbCircle
 10
13855.256926
 20
11875.861915
 30
0.0
 40
26.511121
100
AcDbArc
 50
23.897607
 51
89.965005
  0
LINE
  5
A36
100
AcDbEntity
  8
LY_1
  6
CONTINUOUS
 62
    46
100
AcDbLine
 10
13880.232762
 20
11834.720426
 30
0.0
 11
13904.745883
 21
11902.342829
 31
0.0
  0
LINE
  5
A37
100
AcDbEntity
  8
LY_1
  6
CONTINUOUS
 62
    46
100
AcDbLine
 10
13978.036862
 20
11867.175674
 30
0.0
 11
13998.003225
 21
11834.648571
 31
0.0
  0
LINE
  5
A38
100
AcDbEntity
  8
LY_1
  6
CONTINUOUS
 62
    46
100
AcDbLine
 10
13975.951885
 20
11902.299419
 30
0.0
 11
13995.854172
 21
11869.8767
 31
0.0
  0
LINE
  5
A39
100
AcDbEntity
  8
LY_1
  6
CONTINUOUS
 62
    46
100
AcDbLine
 10
13998.724381
 20
11902.285427
 30
0.0
 11
13998.704765
 21
11870.17031
 31
0.0
  0
LINE
  5
A3A
100
AcDbEntity
  8
LY_1
  6
CONTINUOUS
 62
    46
100
AcDbLine
 10
13975.25068
 20
11866.951583
 30
0.0
 11
13975.230958
 21
11834.662403
 31
0.0
  0
LINE
  5
A3B
100
AcDbEntity
  8
LY_1
  6
CONTINUOUS
 62
    46
100
AcDbLine
 10
14018.097762
 20
11902.273594
 30
0.0
 11
14018.05645
 21
11834.636246
 31
0.0
  0
LINE
  5
A3C
100
AcDbEntity
  8
LY_1
  6
CONTINUOUS
 62
    46
100
AcDbLine
 10
13955.898772
 20
11902.311584
 30
0.0
 11
13955.857461
 21
11834.674236
 31
0.0
  0
LINE
  5
A3D
100
AcDbEntity
  8
LY_1
  6
CONTINUOUS
 62
    46
100
AcDbLine
 10
13927.163377
 20
11844.548453
 30
0.0
 11
13930.195863
 21
11834.689976
 31
0.0
  0
LINE
  5
A3E
100
AcDbEntity
  8
LY_1
  6
CONTINUOUS
 62
    46
100
AcDbLine
 10
13905.3697
 20
11844.561759
 30
0.0
 11
13902.325147
 21
11834.706907
 31
0.0
  0
LINE
  5
A3F
100
AcDbEntity
  8
LY_1
  6
CONTINUOUS
 62
    46
100
AcDbLine
 10
13927.857991
 20
11902.328654
 30
0.0
 11
13952.288431
 21
11834.676506
 31
0.0
  0
LINE
  5
A40
100
AcDbEntity
  8
LY_1
  6
CONTINUOUS
 62
    46
100
AcDbLine
 10
13821.432453
 20
11834.756341
 30
0.0
 11
13853.604316
 21
11834.736691
 31
0.0
  0
LINE
  5
A41
100
AcDbEntity
  8
LY_1
  6
CONTINUOUS
 62
    46
100
AcDbLine
 10
13795.771041
 20
11834.772014
 30
0.0
 11
13817.863657
 21
11834.75852
 31
0.0
  0
LINE
  5
A42
100
AcDbEntity
  8
LY_1
  6
CONTINUOUS
 62
    46
100
AcDbLine
 10
13841.516876
 20
11885.72701
 30
0.0
 11
13841.496116
 21
11851.738389
 31
0.0
  0
LINE
  5
A43
100
AcDbEntity
  8
LY_1
  6
CONTINUOUS
 62
    46
100
AcDbLine
 10
13841.496116
 20
11851.738389
 30
0.0
 11
13850.21516
 21
11851.733063
 31
0.0
  0
LINE
  5
A44
100
AcDbEntity
  8
LY_1
  6
CONTINUOUS
 62
    46
100
AcDbLine
 10
13841.516876
 20
11885.72701
 30
0.0
 11
13850.339325
 21
11885.721621
 31
0.0
  0
LINE
  5
A45
100
AcDbEntity
  8
LY_1
  6
CONTINUOUS
 62
    46
100
AcDbLine
 10
13792.738489
 20
11844.630559
 30
0.0
 11
13795.770983
 21
11834.772058
 31
0.0
  0
LINE
  5
A46
100
AcDbEntity
  8
LY_1
  6
CONTINUOUS
 62
    46
100
AcDbLine
 10
13793.433081
 20
11902.410763
 30
0.0
 11
13817.863539
 21
11834.758564
 31
0.0
  0
LINE
  5
A47
100
AcDbEntity
  8
LY_1
  6
CONTINUOUS
 62
    46
100
AcDbLine
 10
13821.473765
 20
11902.393688
 30
0.0
 11
13821.432453
 21
11834.756341
 31
0.0
  0
LINE
  5
A48
100
AcDbEntity
  8
LY_1
  6
CONTINUOUS
 62
    46
100
AcDbLine
 10
13821.473765
 20
11902.393688
 30
0.0
 11
13855.273119
 21
11902.373044
 31
0.0
  0
ARC
  5
A49
100
AcDbEntity
  8
LY_1
  6
CONTINUOUS
 62
    46
100
AcDbCircle
 10
13850.332059
 20
11873.825603
 30
0.0
 40
11.896019
100
AcDbArc
 50
22.17799
 51
89.965005
  0
ARC
  5
A4A
100
AcDbEntity
  8
LY_1
  6
CONTINUOUS
 62
    46
100
AcDbCircle
 10
13850.222633
 20
11863.968968
 30
0.0
 40
12.235904
100
AcDbArc
 50
269.965005
 51
340.240297
  0
ARC
  5
A4B
100
AcDbEntity
  8
LY_1
  6
CONTINUOUS
 62
    46
100
AcDbCircle
 10
13853.621962
 20
11863.627005
 30
0.0
 40
28.890315
100
AcDbArc
 50
269.965005
 51
341.591049
  0
CIRCLE
  5
A4C
100
AcDbEntity
  8
LY_1
  6
CONTINUOUS
 62
    46
100
AcDbCircle
 10
13570.53255
 20
12100.496996
 30
0.0
 40
12.5
  0
ARC
  5
A4D
100
AcDbEntity
  8
LY_1
  6
CONTINUOUS
 62
    46
100
AcDbCircle
 10
13498.53255
 20
12097.496996
 30
0.0
 40
9.5
100
AcDbArc
 50
185.710593
 51
354.289407
  0
LINE
  5
A4E
100
AcDbEntity
  8
LY_1
  6
CONTINUOUS
 62
    46
100
AcDbLine
 10
13489.079696
 20
12098.442282
 30
0.0
 11
13539.079696
 21
12598.442282
 31
0.0
  0
ARC
  5
A4F
100
AcDbEntity
  8
LY_1
  6
CONTINUOUS
 62
     7
100
AcDbCircle
 10
13548.53255
 20
12597.496996
 30
0.0
 40
9.5
100
AcDbArc
 50
354.289407
 51
174.289407
  0
LINE
  5
A50
100
AcDbEntity
  8
LY_1
  6
CONTINUOUS
 62
    46
100
AcDbLine
 10
13507.985403
 20
12096.551711
 30
0.0
 11
13557.985403
 21
12596.551711
 31
0.0
  0
LINE
  5
A51
100
AcDbEntity
  8
LY_1
  6
CONTINUOUS
 62
    46
100
AcDbLine
 10
14338.032794
 20
11678.997301
 30
0.0
 11
14473.032794
 21
11678.997301
 31
0.0
  0
LINE
  5
A52
100
AcDbEntity
  8
LY_1
  6
CONTINUOUS
 62
    46
100
AcDbLine
 10
14338.032794
 20
11583.997118
 30
0.0
 11
14473.032794
 21
11583.997118
 31
0.0
  0
LINE
  5
A53
100
AcDbEntity
  8
LY_1
  6
CONTINUOUS
 62
    46
100
AcDbLine
 10
14323.032794
 20
11663.997301
 30
0.0
 11
14323.032794
 21
11598.997118
 31
0.0
  0
LINE
  5
A54
100
AcDbEntity
  8
LY_1
  6
CONTINUOUS
 62
    46
100
AcDbLine
 10
14323.032794
 20
11663.997301
 30
0.0
 11
14338.032794
 21
11678.997301
 31
0.0
  0
LINE
  5
A55
100
AcDbEntity
  8
LY_1
  6
CONTINUOUS
 62
    46
100
AcDbLine
 10
14338.032794
 20
11583.997118
 30
0.0
 11
14323.032794
 21
11598.997118
 31
0.0
  0
LINE
  5
A56
100
AcDbEntity
  8
LY_1
  6
CONTINUOUS
 62
    46
100
AcDbLine
 10
14112.520375
 20
11921.48968
 30
0.0
 11
14112.520375
 21
11741.496996
 31
0.0
  0
LINE
  5
A57
100
AcDbEntity
  8
LY_1
  6
CONTINUOUS
 62
    46
100
AcDbLine
 10
14488.032794
 20
11663.997301
 30
0.0
 11
14488.032794
 21
11598.997118
 31
0.0
  0
LINE
  5
A58
100
AcDbEntity
  8
LY_1
  6
CONTINUOUS
 62
    46
100
AcDbLine
 10
14473.032794
 20
11678.997301
 30
0.0
 11
14488.032794
 21
11663.997301
 31
0.0
  0
LINE
  5
A59
100
AcDbEntity
  8
LY_1
  6
CONTINUOUS
 62
    46
100
AcDbLine
 10
14488.032794
 20
11598.997118
 30
0.0
 11
14473.032794
 21
11583.997118
 31
0.0
  0
MTEXT
  5
A5A
100
AcDbEntity
  8
LY_1
  6
CONTINUOUS
 62
     7
100
AcDbMText
 10
9528.271944
 20
22436.306442
 30
0.0
 40
850.0
 41
0.0
 71
     1
 72
     1
  1
スペック
  7
MX_NOTE_STANDARD
1001
ACAD
1000
MTEXTBEGIN
1070
    73
1070
     1
1070
    44
1040
0.78
1070
    74
1070
     0
1000
MTEXTEND
  0
LINE
  5
A5B
100
AcDbEntity
  8
LY_1
  6
CONTINUOUS
 62
     7
100
AcDbLine
 10
15241.370901
 20
24577.858313
 30
0.0
 11
15241.370901
 21
21577.858313
 31
0.0
  0
LINE
  5
A5C
100
AcDbEntity
  8
LY_1
  6
CONTINUOUS
 62
     7
100
AcDbLine
 10
8744.446096
 20
24577.858313
 30
0.0
 11
8744.446096
 21
21577.858313
 31
0.0
  0
LINE
  5
A5D
100
AcDbEntity
  8
LY_1
  6
CONTINUOUS
 62
    46
100
AcDbLine
 10
13205.53255
 20
17691.496996
 30
0.0
 11
13205.53255
 21
17961.996996
 31
0.0
  0
LINE
  5
A5E
100
AcDbEntity
  8
LY_1
  6
CONTINUOUS
 62
    46
100
AcDbLine
 10
13283.53255
 20
17947.996996
 30
0.0
 11
13283.53255
 21
18148.496996
 31
0.0
  0
LINE
  5
A5F
100
AcDbEntity
  8
LY_1
  6
CONTINUOUS
 62
    46
100
AcDbLine
 10
13276.53255
 20
17946.996996
 30
0.0
 11
13276.53255
 21
18148.496996
 31
0.0
  0
LINE
  5
A60
100
AcDbEntity
  8
LY_1
  6
CONTINUOUS
 62
    46
100
AcDbLine
 10
13221.53255
 20
17931.496996
 30
0.0
 11
13221.53255
 21
18185.996996
 31
0.0
  0
LINE
  5
A61
100
AcDbEntity
  8
LY_1
  6
CONTINUOUS
 62
    46
100
AcDbLine
 10
13205.53255
 20
17931.496996
 30
0.0
 11
13205.53255
 21
18185.996996
 31
0.0
  0
LINE
  5
A62
100
AcDbEntity
  8
LY_1
  6
CONTINUOUS
 62
    46
100
AcDbLine
 10
13183.53255
 20
17918.496996
 30
0.0
 11
13183.53255
 21
18068.496996
 31
0.0
  0
LINE
  5
A63
100
AcDbEntity
  8
LY_1
  6
CONTINUOUS
 62
    46
100
AcDbLine
 10
13176.53255
 20
17907.496996
 30
0.0
 11
13176.53255
 21
18068.496996
 31
0.0
  0
LINE
  5
A64
100
AcDbEntity
  8
LY_1
  6
CONTINUOUS
 62
    46
100
AcDbLine
 10
13110.53255
 20
17697.996996
 30
0.0
 11
13110.53255
 21
18110.496996
 31
0.0
  0
LINE
  5
A65
100
AcDbEntity
  8
LY_1
  6
CONTINUOUS
 62
    46
100
AcDbLine
 10
13176.53255
 20
17937.496996
 30
0.0
 11
13176.53255
 21
18068.496996
 31
0.0
  0
LINE
  5
A66
100
AcDbEntity
  8
LY_1
  6
CONTINUOUS
 62
    46
100
AcDbLine
 10
13122.53255
 20
17899.496996
 30
0.0
 11
13122.53255
 21
18110.496996
 31
0.0
  0
LINE
  5
A67
100
AcDbEntity
  8
LY_1
  6
CONTINUOUS
 62
    46
100
AcDbLine
 10
13101.53255
 20
17944.496996
 30
0.0
 11
13101.53255
 21
18098.496996
 31
0.0
  0
LINE
  5
A68
100
AcDbEntity
  8
LY_1
  6
CONTINUOUS
 62
    46
100
AcDbLine
 10
13110.53255
 20
17944.496996
 30
0.0
 11
13110.53255
 21
18098.496996
 31
0.0
  0
ARC
  5
A69
100
AcDbEntity
  8
LY_1
  6
CONTINUOUS
 62
    46
100
AcDbCircle
 10
12760.53255
 20
18007.996996
 30
0.0
 40
262.5
100
AcDbArc
 50
94.807571
 51
271.734822
  0
LINE
  5
A6A
100
AcDbEntity
  8
LY_1
  6
CONTINUOUS
 62
    46
100
AcDbLine
 10
13080.53255
 20
17707.496996
 30
0.0
 11
13080.53255
 21
18023.996996
 31
0.0
  0
LINE
  5
A6B
100
AcDbEntity
  8
LY_1
  6
CONTINUOUS
 62
    46
100
AcDbLine
 10
13071.53255
 20
17652.496996
 30
0.0
 11
13071.53255
 21
18029.496996
 31
0.0
  0
LINE
  5
A6C
100
AcDbEntity
  8
LY_1
  6
CONTINUOUS
 62
    46
100
AcDbLine
 10
13080.53255
 20
17652.496996
 30
0.0
 11
13080.53255
 21
18029.496996
 31
0.0
  0
CIRCLE
  5
A6D
100
AcDbEntity
  8
LY_1
  6
CONTINUOUS
 62
    46
100
AcDbCircle
 10
12760.53255
 20
18007.996996
 30
0.0
 40
60.0
  0
LINE
  5
A6E
100
AcDbEntity
  8
LY_1
  6
CONTINUOUS
 62
    46
100
AcDbLine
 10
12918.48653
 20
18031.171509
 30
0.0
 11
12861.272168
 21
17920.034131
 31
0.0
  0
LINE
  5
A6F
100
AcDbEntity
  8
LY_1
  6
CONTINUOUS
 62
    46
100
AcDbLine
 10
12921.53255
 20
18023.979725
 30
0.0
 11
12795.513638
 21
17779.191337
 31
0.0
  0
ARC
  5
A70
100
AcDbEntity
  8
LY_1
  6
CONTINUOUS
 62
    46
100
AcDbCircle
 10
12760.53255
 20
18007.996996
 30
0.0
 40
120.0
100
AcDbArc
 50
69.154181
 51
208.937716
  0
LINE
  5
A71
100
AcDbEntity
  8
LY_1
  6
CONTINUOUS
 62
    46
100
AcDbLine
 10
13285.805403
 20
17046.050315
 30
0.0
 11
13519.652056
 21
16957.643625
 31
0.0
  0
LINE
  5
A72
100
AcDbEntity
  8
LY_1
  6
CONTINUOUS
 62
    46
100
AcDbLine
 10
13283.683642
 20
17040.437995
 30
0.0
 11
13517.530295
 21
16952.031305
 31
0.0
  0
LINE
  5
A73
100
AcDbEntity
  8
LY_1
  6
CONTINUOUS
 62
    46
100
AcDbLine
 10
13295.626962
 20
17042.337234
 30
0.0
 11
13525.381023
 21
17650.065198
 31
0.0
  0
LINE
  5
A74
100
AcDbEntity
  8
LY_1
  6
CONTINUOUS
 62
    46
100
AcDbLine
 10
13456.715778
 20
16833.586974
 30
0.0
 11
13485.818158
 21
16910.566376
 31
0.0
  0
ARC
  5
A75
100
AcDbEntity
  8
LY_1
  6
CONTINUOUS
 62
    46
100
AcDbCircle
 10
13341.193168
 20
16839.077783
 30
0.0
 40
149.25
100
AcDbArc
 50
116.768741
 51
21.812648
  0
LINE
  5
A76
100
AcDbEntity
  8
LY_1
  6
CONTINUOUS
 62
    46
100
AcDbLine
 10
13412.53255
 20
17741.496996
 30
0.0
 11
14112.520375
 21
17741.496996
 31
0.0
  0
LINE
  5
A77
100
AcDbEntity
  8
LY_1
  6
CONTINUOUS
 62
    46
100
AcDbLine
 10
13472.621148
 20
17767.34223
 30
0.0
 11
13574.068294
 21
17767.280268
 31
0.0
  0
LINE
  5
A78
100
AcDbEntity
  8
LY_1
  6
CONTINUOUS
 62
    46
100
AcDbLine
 10
13438.888068
 20
17902.627366
 30
0.0
 11
13570.769396
 21
17902.546815
 31
0.0
  0
LINE
  5
A79
100
AcDbEntity
  8
LY_1
  6
CONTINUOUS
 62
    46
100
AcDbLine
 10
13412.53255
 20
17921.48968
 30
0.0
 11
14112.520375
 21
17921.48968
 31
0.0
  0
LINE
  5
A7A
100
AcDbEntity
  8
LY_1
  6
CONTINUOUS
 62
    46
100
AcDbLine
 10
13472.621092
 20
17767.342218
 30
0.0
 11
13574.150974
 21
17902.544689
 31
0.0
  0
LINE
  5
A7B
100
AcDbEntity
  8
LY_1
  6
CONTINUOUS
 62
    46
100
AcDbLine
 10
13438.826088
 20
17801.179258
 30
0.0
 11
13570.769485
 21
17902.546845
 31
0.0
  0
LINE
  5
A7C
100
AcDbEntity
  8
LY_1
  6
CONTINUOUS
 62
    46
100
AcDbLine
 10
13200.53255
 20
17691.496996
 30
0.0
 11
14405.532794
 21
17691.496996
 31
0.0
  0
ARC
  5
A7D
100
AcDbEntity
  8
LY_1
  6
CONTINUOUS
 62
    46
100
AcDbCircle
 10
12730.940162
 20
17093.933302
 30
0.0
 40
285.000004
100
AcDbArc
 50
226.359406
 51
18.717622
  0
ARC
  5
A7E
100
AcDbEntity
  8
LY_1
  6
CONTINUOUS
 62
    46
100
AcDbCircle
 10
12439.865016
 20
16855.011591
 30
0.0
 40
40.0
100
AcDbArc
 50
87.11798
 51
351.642021
  0
LINE
  5
A7F
100
AcDbEntity
  8
LY_1
  6
CONTINUOUS
 62
    46
100
AcDbLine
 10
12509.51616
 20
16880.486443
 30
0.0
 11
12478.427584
 21
16918.361242
 31
0.0
  0
LINE
  5
A80
100
AcDbEntity
  8
LY_1
  6
CONTINUOUS
 62
    46
100
AcDbLine
 10
12585.814612
 20
16923.887945
 30
0.0
 11
12455.667667
 21
16832.505454
 31
0.0
  0
LINE
  5
A81
100
AcDbEntity
  8
LY_1
  6
CONTINUOUS
 62
    46
100
AcDbLine
 10
12479.47273
 20
16930.870755
 30
0.0
 11
12420.870801
 21
16874.898014
 31
0.0
  0
LINE
  5
A82
100
AcDbEntity
  8
LY_1
  6
CONTINUOUS
 62
    46
100
AcDbLine
 10
13251.262848
 20
16896.416946
 30
0.0
 11
13286.071189
 21
16815.404458
 31
0.0
  0
LINE
  5
A83
100
AcDbEntity
  8
LY_1
  6
CONTINUOUS
 62
    46
100
AcDbLine
 10
12464.935276
 20
16862.33937
 30
0.0
 11
12444.230951
 21
16869.274131
 31
0.0
  0
LINE
  5
A84
100
AcDbEntity
  8
LY_1
  6
CONTINUOUS
 62
    46
100
AcDbLine
 10
12463.026087
 20
16842.937691
 30
0.0
 11
12441.367167
 21
16840.171612
 31
0.0
  0
ARC
  5
A85
100
AcDbEntity
  8
LY_1
  6
CONTINUOUS
 62
    46
100
AcDbCircle
 10
12461.759268
 20
16852.857125
 30
0.0
 40
10.0
100
AcDbArc
 50
277.277894
 51
71.482107
  0
ARC
  5
A86
100
AcDbEntity
  8
LY_1
  6
CONTINUOUS
 62
    46
100
AcDbCircle
 10
12439.466938
 20
16855.050763
 30
0.0
 40
15.0
100
AcDbArc
 50
71.482107
 51
277.277894
  0
ARC
  5
A87
100
AcDbEntity
  8
LY_1
  6
CONTINUOUS
 62
    46
100
AcDbCircle
 10
12417.775893
 20
16928.088694
 30
0.0
 40
100.0
100
AcDbArc
 50
305.074557
 51
309.38
  0
ARC
  5
A88
100
AcDbEntity
  8
LY_1
  6
CONTINUOUS
 62
    46
100
AcDbCircle
 10
12505.651385
 20
16877.314139
 30
0.0
 40
5.0
100
AcDbArc
 50
309.38
 51
39.38
  0
LINE
  5
A89
100
AcDbEntity
  8
LY_1
  6
CONTINUOUS
 62
    46
100
AcDbLine
 10
12508.823688
 20
16873.449364
 30
0.0
 11
12481.221967
 21
16850.793185
 31
0.0
  0
ARC
  5
A8A
100
AcDbEntity
  8
LY_1
  6
CONTINUOUS
 62
    46
100
AcDbCircle
 10
12439.865016
 20
16855.011591
 30
0.0
 40
27.5
100
AcDbArc
 50
133.685443
 51
305.074557
  0
CIRCLE
  5
A8B
100
AcDbEntity
  8
LY_1
  6
CONTINUOUS
 62
    46
100
AcDbCircle
 10
13341.202858
 20
16839.103417
 30
0.0
 40
24.999985
  0
ARC
  5
A8C
100
AcDbEntity
  8
LY_1
  6
CONTINUOUS
 62
    46
100
AcDbCircle
 10
13341.198013
 20
16839.0906
 30
0.0
 40
60.0
100
AcDbArc
 50
203.25157
 51
295.329819
  0
LINE
  5
A8D
100
AcDbEntity
  8
LY_1
  6
CONTINUOUS
 62
    46
100
AcDbLine
 10
13446.564612
 20
16822.582309
 30
0.0
 11
13366.867713
 21
16784.858999
 31
0.0
  0
ARC
  5
A8E
100
AcDbEntity
  8
LY_1
  6
CONTINUOUS
 62
    46
100
AcDbCircle
 10
13438.008046
 20
16840.65951
 30
0.0
 40
20.0
100
AcDbArc
 50
295.329819
 51
339.290695
  0
CIRCLE
  5
A8F
100
AcDbEntity
  8
LY_1
  6
CONTINUOUS
 62
    46
100
AcDbCircle
 10
12875.53255
 20
17737.996996
 30
0.0
 40
27.75
  0
ARC
  5
A90
100
AcDbEntity
  8
LY_1
  6
CONTINUOUS
 62
    46
100
AcDbCircle
 10
12875.53255
 20
17737.996996
 30
0.0
 40
90.0
100
AcDbArc
 50
151.875081
 51
270.0
  0
ARC
  5
A93
100
AcDbEntity
  8
LY_1
  6
CONTINUOUS
 62
    46
100
AcDbCircle
 10
12730.940162
 20
17093.933302
 30
0.0
 40
150.0
100
AcDbArc
 50
160.822841
 51
340.835781
  0
LINE
  5
A95
100
AcDbEntity
  8
LY_1
  6
CONTINUOUS
 62
    46
100
AcDbLine
 10
12580.763486
 20
17146.163236
 30
0.0
 11
12756.177226
 21
17650.530186
 31
0.0
  0
LINE
  5
A96
100
AcDbEntity
  8
LY_1
  6
CONTINUOUS
 62
    46
100
AcDbLine
 10
12589.264053
 20
17143.206825
 30
0.0
 11
12788.352316
 21
17715.645108
 31
0.0
  0
ARC
  5
A97
100
AcDbEntity
  8
LY_1
  6
CONTINUOUS
 62
    46
100
AcDbCircle
 10
12466.798774
 20
17057.05072
 30
0.0
 40
100.0
100
AcDbArc
 50
313.685443
 51
323.416243
  0
ARC
  5
A98
100
AcDbEntity
  8
LY_1
  6
CONTINUOUS
 62
    46
100
AcDbCircle
 10
12730.940162
 20
17093.933302
 30
0.0
 40
285.000004
100
AcDbArc
 50
104.73317
 51
188.405649
  0
ARC
  5
A99
100
AcDbEntity
  8
LY_1
  6
CONTINUOUS
 62
    46
100
AcDbCircle
 10
12507.234857
 20
16819.102027
 30
0.0
 40
100.0
100
AcDbArc
 50
129.38
 51
133.685443
  0
ARC
  5
A9A
100
AcDbEntity
  8
LY_1
  6
CONTINUOUS
 62
    46
100
AcDbCircle
 10
12474.562808
 20
16915.188939
 30
0.0
 40
5.0
100
AcDbArc
 50
39.38
 51
129.38
  0
LINE
  5
A9B
100
AcDbEntity
  8
LY_1
  6
CONTINUOUS
 62
    46
100
AcDbLine
 10
12471.390505
 20
16919.053714
 30
0.0
 11
12443.788783
 21
16896.397536
 31
0.0
  0
ARC
  5
A9C
100
AcDbEntity
  8
LY_1
  6
CONTINUOUS
 62
    46
100
AcDbCircle
 10
12443.776493
 20
17030.901351
 30
0.0
 40
22.0
100
AcDbArc
 50
39.38
 51
219.38
  0
LINE
  5
A9D
100
AcDbEntity
  8
LY_1
  6
CONTINUOUS
 62
    46
100
AcDbLine
 10
12511.181919
 20
16983.457333
 30
0.0
 11
12460.781505
 21
17044.859488
 31
0.0
  0
LINE
  5
A9E
100
AcDbEntity
  8
LY_1
  6
CONTINUOUS
 62
    46
100
AcDbLine
 10
12480.706576
 20
16951.234806
 30
0.0
 11
12426.771481
 21
17016.943215
 31
0.0
  0
LINE
  5
A9F
100
AcDbEntity
  8
LY_1
  6
CONTINUOUS
 62
    46
100
AcDbLine
 10
12535.868644
 20
16984.736454
 30
0.0
 11
12533.136726
 21
16982.127104
 31
0.0
  0
ARC
  5
AA0
100
AcDbEntity
  8
LY_1
  6
CONTINUOUS
 62
    46
100
AcDbCircle
 10
12522.776245
 20
16992.974244
 30
0.0
 40
15.0
100
AcDbArc
 50
219.38
 51
313.685443
  0
ARC
  5
AA1
100
AcDbEntity
  8
LY_1
  6
CONTINUOUS
 62
    46
100
AcDbCircle
 10
12469.112249
 20
16941.717894
 30
0.0
 40
15.0
100
AcDbArc
 50
313.685443
 51
39.38
  0
CIRCLE
  5
AA2
100
AcDbEntity
  8
LY_1
  6
CONTINUOUS
 62
    46
100
AcDbCircle
 10
12443.776493
 20
17030.901351
 30
0.0
 40
9.0
  0
POINT
  5
AA3
100
AcDbEntity
  8
LY_1
  6
CONTINUOUS
 62
    20
100
AcDbPoint
 10
12730.940162
 20
17093.933302
 30
0.0
  0
CIRCLE
  5
AA4
100
AcDbEntity
  8
LY_1
  6
CONTINUOUS
 62
    46
100
AcDbCircle
 10
12730.940162
 20
17093.933302
 30
0.0
 40
60.0
  0
ARC
  5
AA5
100
AcDbEntity
  8
LY_1
  6
CONTINUOUS
 62
    46
100
AcDbCircle
 10
12594.744689
 20
17040.358805
 30
0.0
 40
100.0
100
AcDbArc
 50
295.343757
 51
309.214345
  0
LINE
  5
AA6
100
AcDbEntity
  8
LY_1
  6
CONTINUOUS
 62
    46
100
AcDbLine
 10
12587.333289
 20
17165.053384
 30
0.0
 11
12595.833856
 21
17162.096973
 31
0.0
  0
LINE
  5
AA7
100
AcDbEntity
  8
LY_1
  6
CONTINUOUS
 62
    46
100
AcDbLine
 10
12580.763486
 20
17146.163236
 30
0.0
 11
12589.264053
 21
17143.206825
 31
0.0
  0
ARC
  5
AA8
100
AcDbEntity
  8
LY_1
  6
CONTINUOUS
 62
    46
100
AcDbCircle
 10
12651.846156
 20
16970.792847
 30
0.0
 40
100.0
100
AcDbArc
 50
129.545655
 51
143.416243
  0
LINE
  5
AA9
100
AcDbEntity
  8
LY_1
  6
CONTINUOUS
 62
    46
100
AcDbLine
 10
12547.097421
 20
16997.450994
 30
0.0
 11
12571.547509
 21
17030.392572
 31
0.0
  0
ARC
  5
AAA
100
AcDbEntity
  8
LY_1
  6
CONTINUOUS
 62
    46
100
AcDbCircle
 10
12643.2788
 20
16842.047448
 30
0.0
 40
100.0
100
AcDbArc
 50
115.343757
 51
125.074557
  0
LINE
  5
AAB
100
AcDbEntity
  8
LY_1
  6
CONTINUOUS
 62
    46
100
AcDbLine
 10
12637.549508
 20
16949.983214
 30
0.0
 11
12600.473982
 21
16932.423039
 31
0.0
  0
LINE
  5
AAC
100
AcDbEntity
  8
LY_1
  6
CONTINUOUS
 62
    46
100
AcDbLine
 10
12760.653199
 20
17654.267252
 30
0.0
 11
12763.733286
 21
17647.902265
 31
0.0
  0
LINE
  5
AAD
100
AcDbEntity
  8
LY_1
  6
CONTINUOUS
 62
    46
100
AcDbLine
 10
12764.677793
 20
17647.573774
 30
0.0
 11
12756.177226
 21
17650.530186
 31
0.0
  0
LINE
  5
AAE
100
AcDbEntity
  8
LY_1
  6
CONTINUOUS
 62
    46
100
AcDbLine
 10
12760.653199
 20
17654.267252
 30
0.0
 11
12786.140752
 21
17727.551588
 31
0.0
  0
LINE
  5
AAF
100
AcDbEntity
  8
LY_1
  6
CONTINUOUS
 62
    46
100
AcDbLine
 10
12655.515005
 20
17949.933968
 30
0.0
 11
12784.616798
 21
17716.429898
 31
0.0
  0
LINE
  5
AB0
100
AcDbEntity
  8
LY_1
  6
CONTINUOUS
 62
    46
100
AcDbLine
 10
12973.322867
 20
17381.153818
 30
0.0
 11
12976.522686
 21
17451.080645
 31
0.0
  0
LINE
  5
AB1
100
AcDbEntity
  8
LY_1
  6
CONTINUOUS
 62
    46
100
AcDbLine
 10
12989.306142
 20
17380.422431
 30
0.0
 11
12992.50596
 21
17450.349258
 31
0.0
  0
LINE
  5
AB2
100
AcDbEntity
  8
LY_1
  6
CONTINUOUS
 62
    46
100
AcDbLine
 10
12989.53255
 20
17382.996996
 30
0.0
 11
12992.735717
 21
17452.996996
 31
0.0
  0
LINE
  5
AB3
100
AcDbEntity
  8
LY_1
  6
CONTINUOUS
 62
    46
100
AcDbLine
 10
13299.53255
 20
17326.496996
 30
0.0
 11
13299.53255
 21
17511.496996
 31
0.0
  0
LINE
  5
AB4
100
AcDbEntity
  8
LY_1
  6
CONTINUOUS
 62
    46
100
AcDbLine
 10
13292.53255
 20
17326.496996
 30
0.0
 11
13292.53255
 21
17511.496996
 31
0.0
  0
LINE
  5
AB5
100
AcDbEntity
  8
LY_1
  6
CONTINUOUS
 62
    46
100
AcDbLine
 10
13200.53255
 20
17326.496996
 30
0.0
 11
13200.53255
 21
17690.996996
 31
0.0
  0
LINE
  5
AB6
100
AcDbEntity
  8
LY_1
  6
CONTINUOUS
 62
    46
100
AcDbLine
 10
13212.53255
 20
17326.496996
 30
0.0
 11
13212.53255
 21
17691.496996
 31
0.0
  0
LINE
  5
AB7
100
AcDbEntity
  8
LY_1
  6
CONTINUOUS
 62
    46
100
AcDbLine
 10
13200.53255
 20
17342.330332
 30
0.0
 11
13200.53255
 21
17681.496996
 31
0.0
  0
LINE
  5
AB8
100
AcDbEntity
  8
LY_1
  6
CONTINUOUS
 62
    46
100
AcDbLine
 10
13200.53255
 20
17342.330332
 30
0.0
 11
13200.53255
 21
17691.496996
 31
0.0
  0
LINE
  5
AB9
100
AcDbEntity
  8
LY_1
  6
CONTINUOUS
 62
    46
100
AcDbLine
 10
13191.53255
 20
17342.330332
 30
0.0
 11
13191.53255
 21
17691.496996
 31
0.0
  0
LINE
  5
ABA
100
AcDbEntity
  8
LY_1
  6
CONTINUOUS
 62
    46
100
AcDbLine
 10
13170.53255
 20
17361.496996
 30
0.0
 11
13170.53255
 21
17591.496996
 31
0.0
  0
LINE
  5
ABB
100
AcDbEntity
  8
LY_1
  6
CONTINUOUS
 62
    46
100
AcDbLine
 10
13163.53255
 20
17361.496996
 30
0.0
 11
13163.53255
 21
17591.496996
 31
0.0
  0
LINE
  5
ABC
100
AcDbEntity
  8
LY_1
  6
CONTINUOUS
 62
    46
100
AcDbLine
 10
13110.53255
 20
17361.496996
 30
0.0
 11
13110.53255
 21
17697.996996
 31
0.0
  0
LINE
  5
ABD
100
AcDbEntity
  8
LY_1
  6
CONTINUOUS
 62
    46
100
AcDbLine
 10
13120.53255
 20
17361.496996
 30
0.0
 11
13120.53255
 21
17697.996996
 31
0.0
  0
LINE
  5
ABE
100
AcDbEntity
  8
LY_1
  6
CONTINUOUS
 62
    46
100
AcDbLine
 10
13110.53255
 20
17377.427076
 30
0.0
 11
13110.53255
 21
17671.494822
 31
0.0
  0
LINE
  5
ABF
100
AcDbEntity
  8
LY_1
  6
CONTINUOUS
 62
    46
100
AcDbLine
 10
13101.53255
 20
17377.427076
 30
0.0
 11
13101.53255
 21
17681.494822
 31
0.0
  0
LINE
  5
AC0
100
AcDbEntity
  8
LY_1
  6
CONTINUOUS
 62
    46
100
AcDbLine
 10
13110.53255
 20
17377.427076
 30
0.0
 11
13110.53255
 21
17681.494822
 31
0.0
  0
LINE
  5
AC1
100
AcDbEntity
  8
LY_1
  6
CONTINUOUS
 62
    46
100
AcDbLine
 10
13071.53255
 20
17387.496996
 30
0.0
 11
13071.53255
 21
17652.496996
 31
0.0
  0
LINE
  5
AC2
100
AcDbEntity
  8
LY_1
  6
CONTINUOUS
 62
    46
100
AcDbLine
 10
13020.53255
 20
17387.496996
 30
0.0
 11
13020.53255
 21
17654.496996
 31
0.0
  0
LINE
  5
AC3
100
AcDbEntity
  8
LY_1
  6
CONTINUOUS
 62
    46
100
AcDbLine
 10
13014.53255
 20
17387.496996
 30
0.0
 11
13014.53255
 21
17654.496996
 31
0.0
  0
LINE
  5
AC4
100
AcDbEntity
  8
LY_1
  6
CONTINUOUS
 62
    46
100
AcDbLine
 10
13080.53255
 20
17387.496996
 30
0.0
 11
13080.53255
 21
17652.496996
 31
0.0
  0
LINE
  5
AC5
100
AcDbEntity
  8
LY_1
  6
CONTINUOUS
 62
    46
100
AcDbLine
 10
13163.53255
 20
17361.496996
 30
0.0
 11
13170.53255
 21
17361.496996
 31
0.0
  0
LINE
  5
AC6
100
AcDbEntity
  8
LY_1
  6
CONTINUOUS
 62
    46
100
AcDbLine
 10
12973.322867
 20
17381.153818
 30
0.0
 11
12989.306142
 21
17380.422431
 31
0.0
  0
ARC
  5
AC7
100
AcDbEntity
  8
LY_1
  6
CONTINUOUS
 62
    46
100
AcDbCircle
 10
12951.817198
 20
17348.707231
 30
0.0
 40
25.0
100
AcDbArc
 50
340.835781
 51
357.38
  0
LINE
  5
AC8
100
AcDbEntity
  8
LY_1
  6
CONTINUOUS
 62
    46
100
AcDbLine
 10
12989.578309
 20
17382.996996
 30
0.0
 11
13027.53255
 21
17382.996996
 31
0.0
  0
LINE
  5
AC9
100
AcDbEntity
  8
LY_1
  6
CONTINUOUS
 62
    46
100
AcDbLine
 10
13063.270662
 20
17288.626495
 30
0.0
 11
13060.31617
 21
17280.125261
 31
0.0
  0
LINE
  5
ACA
100
AcDbEntity
  8
LY_1
  6
CONTINUOUS
 62
    46
100
AcDbLine
 10
13027.488488
 20
17185.667104
 30
0.0
 11
13024.533997
 21
17177.16587
 31
0.0
  0
LINE
  5
ACB
100
AcDbEntity
  8
LY_1
  6
CONTINUOUS
 62
    46
100
AcDbLine
 10
13046.38012
 20
17179.101568
 30
0.0
 11
13043.425628
 21
17170.600334
 31
0.0
  0
LINE
  5
ACC
100
AcDbEntity
  8
LY_1
  6
CONTINUOUS
 62
    46
100
AcDbLine
 10
13082.162293
 20
17282.060958
 30
0.0
 11
13079.207802
 21
17273.559724
 31
0.0
  0
LINE
  5
ACD
100
AcDbEntity
  8
LY_1
  6
CONTINUOUS
 62
    46
100
AcDbLine
 10
12975.272535
 20
17330.854447
 30
0.0
 11
12972.423551
 21
17331.844574
 31
0.0
  0
ARC
  5
ACE
100
AcDbEntity
  8
LY_1
  6
CONTINUOUS
 62
    46
100
AcDbCircle
 10
13009.135199
 20
17333.907304
 30
0.0
 40
34.0
100
AcDbArc
 50
185.15152
 51
250.835781
  0
LINE
  5
ACF
100
AcDbEntity
  8
LY_1
  6
CONTINUOUS
 62
    46
100
AcDbLine
 10
12929.313779
 20
17198.613029
 30
0.0
 11
12926.464796
 21
17199.603155
 31
0.0
  0
ARC
  5
AD0
100
AcDbEntity
  8
LY_1
  6
CONTINUOUS
 62
    46
100
AcDbCircle
 10
12953.984693
 20
17175.217602
 30
0.0
 40
34.0
100
AcDbArc
 50
70.835781
 51
160.835781
  0
ARC
  5
AD1
100
AcDbEntity
  8
LY_1
  6
CONTINUOUS
 62
    46
100
AcDbCircle
 10
12953.984693
 20
17175.217602
 30
0.0
 40
25.0
100
AcDbArc
 50
70.835781
 51
160.835781
  0
LINE
  5
AD2
100
AcDbEntity
  8
LY_1
  6
CONTINUOUS
 62
    46
100
AcDbLine
 10
12962.191614
 20
17198.832141
 30
0.0
 11
13043.425628
 21
17170.600334
 31
0.0
  0
ARC
  5
AD3
100
AcDbEntity
  8
LY_1
  6
CONTINUOUS
 62
    46
100
AcDbCircle
 10
13010.185004
 20
17333.542458
 30
0.0
 40
34.0
100
AcDbArc
 50
177.38
 51
250.835781
  0
ARC
  5
AD4
100
AcDbEntity
  8
LY_1
  6
CONTINUOUS
 62
    46
100
AcDbCircle
 10
13010.185004
 20
17333.542458
 30
0.0
 40
25.0
100
AcDbArc
 50
177.38
 51
250.835781
  0
LINE
  5
AD5
100
AcDbEntity
  8
LY_1
  6
CONTINUOUS
 62
    46
100
AcDbLine
 10
13001.978084
 20
17309.927919
 30
0.0
 11
13082.162293
 21
17282.060958
 31
0.0
  0
ARC
  5
AD6
100
AcDbEntity
  8
LY_1
  6
CONTINUOUS
 62
    46
100
AcDbCircle
 10
13062.793961
 20
17226.330646
 30
0.0
 40
50.0
100
AcDbArc
 50
250.835781
 51
70.835781
  0
CIRCLE
  5
AD7
100
AcDbEntity
  8
LY_1
  6
CONTINUOUS
 62
    46
100
AcDbCircle
 10
13062.793961
 20
17226.330646
 30
0.0
 40
17.0
  0
LINE
  5
AD8
100
AcDbEntity
  8
LY_1
  6
CONTINUOUS
 62
    46
100
AcDbLine
 10
12999.023592
 20
17301.426685
 30
0.0
 11
13079.207802
 21
17273.559724
 31
0.0
  0
LINE
  5
AD9
100
AcDbEntity
  8
LY_1
  6
CONTINUOUS
 62
    46
100
AcDbLine
 10
12965.146105
 20
17207.333375
 30
0.0
 11
13046.38012
 21
17179.101568
 31
0.0
  0
CIRCLE
  5
ADA
100
AcDbEntity
  8
LY_1
  6
CONTINUOUS
 62
    46
100
AcDbCircle
 10
13062.793961
 20
17226.330646
 30
0.0
 40
17.0
  0
LINE
  5
ADB
100
AcDbEntity
  8
LY_1
  6
CONTINUOUS
 62
    46
100
AcDbLine
 10
13082.162293
 20
17282.060958
 30
0.0
 11
13079.207802
 21
17273.559724
 31
0.0
  0
LINE
  5
ADC
100
AcDbEntity
  8
LY_1
  6
CONTINUOUS
 62
    46
100
AcDbLine
 10
12985.211137
 20
17334.685251
 30
0.0
 11
12987.308233
 21
17380.513854
 31
0.0
  0
LINE
  5
ADD
100
AcDbEntity
  8
LY_1
  6
CONTINUOUS
 62
    46
100
AcDbLine
 10
12978.31764
 20
17380.925259
 30
0.0
 11
12976.220545
 21
17335.096656
 31
0.0
  0
LINE
  5
ADE
100
AcDbEntity
  8
LY_1
  6
CONTINUOUS
 62
    46
100
AcDbLine
 10
13080.53255
 20
17392.496996
 30
0.0
 11
13110.53255
 21
17372.496996
 31
0.0
  0
LINE
  5
ADF
100
AcDbEntity
  8
LY_1
  6
CONTINUOUS
 62
    46
100
AcDbLine
 10
13080.53255
 20
17392.496996
 30
0.0
 11
13080.53255
 21
17422.496996
 31
0.0
  0
LINE
  5
AE0
100
AcDbEntity
  8
LY_1
  6
CONTINUOUS
 62
    46
100
AcDbLine
 10
13080.53255
 20
17422.496996
 30
0.0
 11
13101.53255
 21
17422.496996
 31
0.0
  0
LINE
  5
AE1
100
AcDbEntity
  8
LY_1
  6
CONTINUOUS
 62
    46
100
AcDbLine
 10
13120.53255
 20
17371.496996
 30
0.0
 11
13163.53255
 21
17371.496996
 31
0.0
  0
LINE
  5
AE2
100
AcDbEntity
  8
LY_1
  6
CONTINUOUS
 62
    46
100
AcDbLine
 10
13120.53255
 20
17361.496996
 30
0.0
 11
13110.53255
 21
17361.496996
 31
0.0
  0
LINE
  5
AE3
100
AcDbEntity
  8
LY_1
  6
CONTINUOUS
 62
    46
100
AcDbLine
 10
13163.53255
 20
17377.496996
 30
0.0
 11
13163.53255
 21
17417.496996
 31
0.0
  0
LINE
  5
AE4
100
AcDbEntity
  8
LY_1
  6
CONTINUOUS
 62
    46
100
AcDbLine
 10
13101.53255
 20
17378.496996
 30
0.0
 11
13103.13743
 21
17377.427076
 31
0.0
  0
LINE
  5
AE5
100
AcDbEntity
  8
LY_1
  6
CONTINUOUS
 62
    46
100
AcDbLine
 10
13101.53255
 20
17377.427076
 30
0.0
 11
13110.53255
 21
17377.427076
 31
0.0
  0
LINE
  5
AE6
100
AcDbEntity
  8
LY_1
  6
CONTINUOUS
 62
    46
100
AcDbLine
 10
13027.53255
 20
17395.496996
 30
0.0
 11
13027.53255
 21
17382.996996
 31
0.0
  0
LINE
  5
AE7
100
AcDbEntity
  8
LY_1
  6
CONTINUOUS
 62
    46
100
AcDbLine
 10
13020.53255
 20
17395.496996
 30
0.0
 11
13071.53255
 21
17395.496996
 31
0.0
  0
LINE
  5
AE8
100
AcDbEntity
  8
LY_1
  6
CONTINUOUS
 62
    46
100
AcDbLine
 10
13020.53255
 20
17387.496996
 30
0.0
 11
13014.53255
 21
17387.496996
 31
0.0
  0
LINE
  5
AE9
100
AcDbEntity
  8
LY_1
  6
CONTINUOUS
 62
    46
100
AcDbLine
 10
13080.53255
 20
17387.496996
 30
0.0
 11
13071.53255
 21
17387.496996
 31
0.0
  0
LINE
  5
AEA
100
AcDbEntity
  8
LY_1
  6
CONTINUOUS
 62
    46
100
AcDbLine
 10
13031.53255
 20
17382.996996
 30
0.0
 11
13067.53255
 21
17382.996996
 31
0.0
  0
LINE
  5
AEB
100
AcDbEntity
  8
LY_1
  6
CONTINUOUS
 62
    46
100
AcDbLine
 10
13067.53255
 20
17382.996996
 30
0.0
 11
13071.53255
 21
17386.996996
 31
0.0
  0
LINE
  5
AEC
100
AcDbEntity
  8
LY_1
  6
CONTINUOUS
 62
    46
100
AcDbLine
 10
13031.53255
 20
17382.996996
 30
0.0
 11
13027.53255
 21
17386.996996
 31
0.0
  0
LINE
  5
AED
100
AcDbEntity
  8
LY_1
  6
CONTINUOUS
 62
    46
100
AcDbLine
 10
12887.694167
 20
17060.628919
 30
0.0
 11
12879.192933
 21
17063.58341
 31
0.0
  0
LINE
  5
AEE
100
AcDbEntity
  8
LY_1
  6
CONTINUOUS
 62
    46
100
AcDbLine
 10
12881.128631
 20
17041.737288
 30
0.0
 11
12872.627397
 21
17044.691779
 31
0.0
  0
LINE
  5
AEF
100
AcDbEntity
  8
LY_1
  6
CONTINUOUS
 62
    46
100
AcDbLine
 10
12930.370154
 20
17183.424522
 30
0.0
 11
12881.128631
 21
17041.737288
 31
0.0
  0
LINE
  5
AF0
100
AcDbEntity
  8
LY_1
  6
CONTINUOUS
 62
    46
100
AcDbLine
 10
12975.431737
 20
17340.500311
 30
0.0
 11
12872.627397
 21
17044.691779
 31
0.0
  0
LINE
  5
AF1
100
AcDbEntity
  8
LY_1
  6
CONTINUOUS
 62
    46
100
AcDbLine
 10
13292.53255
 20
17326.496996
 30
0.0
 11
13299.53255
 21
17326.496996
 31
0.0
  0
CIRCLE
  5
AF2
100
AcDbEntity
  8
LY_1
  6
CONTINUOUS
 62
    46
100
AcDbCircle
 10
13252.53255
 20
17316.996996
 30
0.0
 40
17.5
  0
LINE
  5
AF3
100
AcDbEntity
  8
LY_1
  6
CONTINUOUS
 62
    46
100
AcDbLine
 10
13292.53255
 20
17316.996996
 30
0.0
 11
13292.53255
 21
17374.996996
 31
0.0
  0
LINE
  5
AF4
100
AcDbEntity
  8
LY_1
  6
CONTINUOUS
 62
    46
100
AcDbLine
 10
13304.53255
 20
17352.996996
 30
0.0
 11
13304.53255
 21
17390.996996
 31
0.0
  0
LINE
  5
AF5
100
AcDbEntity
  8
LY_1
  6
CONTINUOUS
 62
    46
100
AcDbLine
 10
13299.53255
 20
17352.996996
 30
0.0
 11
13304.53255
 21
17352.996996
 31
0.0
  0
LINE
  5
AF6
100
AcDbEntity
  8
LY_1
  6
CONTINUOUS
 62
    46
100
AcDbLine
 10
13299.53255
 20
17390.996996
 30
0.0
 11
13427.439222
 21
17390.996996
 31
0.0
  0
LINE
  5
AF7
100
AcDbEntity
  8
LY_1
  6
CONTINUOUS
 62
    46
100
AcDbLine
 10
13250.930723
 20
16911.384862
 30
0.0
 11
13280.033103
 21
16988.364263
 31
0.0
  0
LINE
  5
AF8
100
AcDbEntity
  8
LY_1
  6
CONTINUOUS
 62
    46
100
AcDbLine
 10
13253.108451
 20
16959.562824
 30
0.0
 11
13285.805403
 21
17046.050315
 31
0.0
  0
LINE
  5
AF9
100
AcDbEntity
  8
LY_1
  6
CONTINUOUS
 62
    46
100
AcDbLine
 10
13271.614624
 20
16991.546904
 30
0.0
 11
13289.295962
 21
17038.316235
 31
0.0
  0
LINE
  5
AFA
100
AcDbEntity
  8
LY_1
  6
CONTINUOUS
 62
    46
100
AcDbLine
 10
13271.614624
 20
16991.546904
 30
0.0
 11
13280.033103
 21
16988.364263
 31
0.0
  0
ARC
  5
AFB
100
AcDbEntity
  8
LY_1
  6
CONTINUOUS
 62
    46
100
AcDbCircle
 10
13269.638456
 20
16904.312327
 30
0.0
 40
20.0
100
AcDbArc
 50
159.290695
 51
203.25157
  0
LINE
  5
AFC
100
AcDbEntity
  8
LY_1
  6
CONTINUOUS
 62
    46
100
AcDbLine
 10
13175.53255
 20
17352.996996
 30
0.0
 11
13191.53255
 21
17352.996996
 31
0.0
  0
LINE
  5
AFD
100
AcDbEntity
  8
LY_1
  6
CONTINUOUS
 62
    46
100
AcDbLine
 10
13212.53255
 20
17316.996996
 30
0.0
 11
13212.53255
 21
17374.996996
 31
0.0
  0
LINE
  5
AFE
100
AcDbEntity
  8
LY_1
  6
CONTINUOUS
 62
    46
100
AcDbLine
 10
13200.53255
 20
17326.496996
 30
0.0
 11
13212.53255
 21
17326.496996
 31
0.0
  0
LINE
  5
AFF
100
AcDbEntity
  8
LY_1
  6
CONTINUOUS
 62
    46
100
AcDbLine
 10
13175.53255
 20
17390.996996
 30
0.0
 11
13191.53255
 21
17390.996996
 31
0.0
  0
LINE
  5
B00
100
AcDbEntity
  8
LY_1
  6
CONTINUOUS
 62
    46
100
AcDbLine
 10
13175.53255
 20
17352.996996
 30
0.0
 11
13175.53255
 21
17390.996996
 31
0.0
  0
LINE
  5
B01
100
AcDbEntity
  8
LY_1
  6
CONTINUOUS
 62
    46
100
AcDbLine
 10
13191.53255
 20
17342.330332
 30
0.0
 11
13200.53255
 21
17342.330332
 31
0.0
  0
LINE
  5
B02
100
AcDbEntity
  8
LY_1
  6
CONTINUOUS
 62
    46
100
AcDbLine
 10
13170.53255
 20
17422.496996
 30
0.0
 11
13191.53255
 21
17422.496996
 31
0.0
  0
LINE
  5
B03
100
AcDbEntity
  8
LY_1
  6
CONTINUOUS
 62
    46
100
AcDbLine
 10
13175.53255
 20
17372.496996
 30
0.0
 11
13175.53255
 21
17422.496996
 31
0.0
  0
LINE
  5
B04
100
AcDbEntity
  8
LY_1
  6
CONTINUOUS
 62
    46
100
AcDbLine
 10
13170.53255
 20
17372.496996
 30
0.0
 11
13175.53255
 21
17372.496996
 31
0.0
  0
LINE
  5
B05
100
AcDbEntity
  8
LY_1
  6
CONTINUOUS
 62
    46
100
AcDbLine
 10
13212.53255
 20
17374.996996
 30
0.0
 11
13292.53255
 21
17374.996996
 31
0.0
  0
ARC
  5
B06
100
AcDbEntity
  8
LY_1
  6
CONTINUOUS
 62
    46
100
AcDbCircle
 10
13252.53255
 20
17316.996996
 30
0.0
 40
40.0
100
AcDbArc
 50
180.0
 51
0.0
  0
LINE
  5
B07
100
AcDbEntity
  8
LY_1
  6
CONTINUOUS
 62
    46
100
AcDbLine
 10
13123.310822
 20
17697.996996
 30
0.0
 11
13205.53255
 21
17697.996996
 31
0.0
  0
LINE
  5
B08
100
AcDbEntity
  8
LY_1
  6
CONTINUOUS
 62
    46
100
AcDbLine
 10
13164.53255
 20
17447.070544
 30
0.0
 11
13169.53255
 21
17447.070544
 31
0.0
  0
LINE
  5
B09
100
AcDbEntity
  8
LY_1
  6
CONTINUOUS
 62
    46
100
AcDbLine
 10
13163.53255
 20
17586.496996
 30
0.0
 11
13170.53255
 21
17586.496996
 31
0.0
  0
LINE
  5
B0A
100
AcDbEntity
  8
LY_1
  6
CONTINUOUS
 62
    46
100
AcDbLine
 10
13163.53255
 20
17591.496996
 30
0.0
 11
13170.53255
 21
17591.496996
 31
0.0
  0
LINE
  5
B0B
100
AcDbEntity
  8
LY_1
  6
CONTINUOUS
 62
    46
100
AcDbLine
 10
13122.53255
 20
17907.496996
 30
0.0
 11
13176.53255
 21
17907.496996
 31
0.0
  0
LINE
  5
B0C
100
AcDbEntity
  8
LY_1
  6
CONTINUOUS
 62
    46
100
AcDbLine
 10
12970.500524
 20
17619.255759
 30
0.0
 11
12961.536386
 21
17618.453122
 31
0.0
  0
LINE
  5
B0D
100
AcDbEntity
  8
LY_1
  6
CONTINUOUS
 62
    46
100
AcDbLine
 10
12966.62066
 20
17628.948367
 30
0.0
 11
12962.086492
 21
17623.522381
 31
0.0
  0
LINE
  5
B0E
100
AcDbEntity
  8
LY_1
  6
CONTINUOUS
 62
    46
100
AcDbLine
 10
12970.054615
 20
17624.235836
 30
0.0
 11
12961.090477
 21
17623.433199
 31
0.0
  0
LINE
  5
B0F
100
AcDbEntity
  8
LY_1
  6
CONTINUOUS
 62
    46
100
AcDbLine
 10
12966.62066
 20
17628.948367
 30
0.0
 11
12964.915072
 21
17647.996996
 31
0.0
  0
LINE
  5
B10
100
AcDbEntity
  8
LY_1
  6
CONTINUOUS
 62
    46
100
AcDbLine
 10
12975.83701
 20
17436.096325
 30
0.0
 11
12991.820285
 21
17435.364938
 31
0.0
  0
LINE
  5
B11
100
AcDbEntity
  8
LY_1
  6
CONTINUOUS
 62
    46
100
AcDbLine
 10
12985.486824
 20
17451.883282
 30
0.0
 11
12976.522686
 21
17451.080645
 31
0.0
  0
LINE
  5
B12
100
AcDbEntity
  8
LY_1
  6
CONTINUOUS
 62
    46
100
AcDbLine
 10
12976.522686
 20
17451.080645
 30
0.0
 11
12992.50596
 21
17450.349258
 31
0.0
  0
LINE
  5
B13
100
AcDbEntity
  8
LY_1
  6
CONTINUOUS
 62
    46
100
AcDbLine
 10
12985.486824
 20
17451.883282
 30
0.0
 11
12970.054615
 21
17624.235836
 31
0.0
  0
LINE
  5
B14
100
AcDbEntity
  8
LY_1
  6
CONTINUOUS
 62
    46
100
AcDbLine
 10
12976.522686
 20
17451.080645
 30
0.0
 11
12958.891068
 21
17647.996996
 31
0.0
  0
LINE
  5
B15
100
AcDbEntity
  8
LY_1
  6
CONTINUOUS
 62
    46
100
AcDbLine
 10
12992.735717
 20
17452.996996
 30
0.0
 11
13014.53255
 21
17452.996996
 31
0.0
  0
LINE
  5
B16
100
AcDbEntity
  8
LY_1
  6
CONTINUOUS
 62
    46
100
AcDbLine
 10
13158.53255
 20
17546.865169
 30
0.0
 11
13163.53255
 21
17531.865169
 31
0.0
  0
LINE
  5
B17
100
AcDbEntity
  8
LY_1
  6
CONTINUOUS
 62
    46
100
AcDbLine
 10
13120.53255
 20
17531.865169
 30
0.0
 11
13125.53255
 21
17546.865169
 31
0.0
  0
LINE
  5
B18
100
AcDbEntity
  8
LY_1
  6
CONTINUOUS
 62
    46
100
AcDbLine
 10
13110.53255
 20
17899.496996
 30
0.0
 11
13122.53255
 21
17899.496996
 31
0.0
  0
LINE
  5
B19
100
AcDbEntity
  8
LY_1
  6
CONTINUOUS
 62
    46
100
AcDbLine
 10
13127.53255
 20
17450.646011
 30
0.0
 11
13156.958816
 21
17450.646011
 31
0.0
  0
LINE
  5
B1A
100
AcDbEntity
  8
LY_1
  6
CONTINUOUS
 62
    46
100
AcDbLine
 10
13125.53255
 20
17546.865169
 30
0.0
 11
13158.53255
 21
17546.865169
 31
0.0
  0
LINE
  5
B1B
100
AcDbEntity
  8
LY_1
  6
CONTINUOUS
 62
    46
100
AcDbLine
 10
13117.53255
 20
17697.996996
 30
0.0
 11
13117.53255
 21
17899.496996
 31
0.0
  0
LINE
  5
B1C
100
AcDbEntity
  8
LY_1
  6
CONTINUOUS
 62
    46
100
AcDbLine
 10
13101.53255
 20
17944.496996
 30
0.0
 11
13110.53255
 21
17944.496996
 31
0.0
  0
LINE
  5
B1D
100
AcDbEntity
  8
LY_1
  6
CONTINUOUS
 62
    46
100
AcDbLine
 10
13101.53255
 20
17681.494822
 30
0.0
 11
13110.53255
 21
17681.494822
 31
0.0
  0
LINE
  5
B1E
100
AcDbEntity
  8
LY_1
  6
CONTINUOUS
 62
    46
100
AcDbLine
 10
13080.53255
 20
17452.496996
 30
0.0
 11
13101.53255
 21
17452.496996
 31
0.0
  0
LINE
  5
B1F
100
AcDbEntity
  8
LY_1
  6
CONTINUOUS
 62
    46
100
AcDbLine
 10
13080.53255
 20
17706.996996
 30
0.0
 11
13110.53255
 21
17706.996996
 31
0.0
  0
LINE
  5
B20
100
AcDbEntity
  8
LY_1
  6
CONTINUOUS
 62
    46
100
AcDbLine
 10
12971.53255
 20
17913.979725
 30
0.0
 11
12971.53255
 21
17891.979725
 31
0.0
  0
LINE
  5
B21
100
AcDbEntity
  8
LY_1
  6
CONTINUOUS
 62
    46
100
AcDbLine
 10
13020.53255
 20
17652.496996
 30
0.0
 11
13080.53255
 21
17652.496996
 31
0.0
  0
LINE
  5
B22
100
AcDbEntity
  8
LY_1
  6
CONTINUOUS
 62
    46
100
AcDbLine
 10
13080.53255
 20
17652.496996
 30
0.0
 11
13080.53255
 21
17707.496996
 31
0.0
  0
LINE
  5
B23
100
AcDbEntity
  8
LY_1
  6
CONTINUOUS
 62
    46
100
AcDbLine
 10
13080.53255
 20
17839.496996
 30
0.0
 11
13071.53255
 21
17839.496996
 31
0.0
  0
LINE
  5
B24
100
AcDbEntity
  8
LY_1
  6
CONTINUOUS
 62
    46
100
AcDbLine
 10
13071.53255
 20
17661.496996
 30
0.0
 11
13031.53255
 21
17661.496996
 31
0.0
  0
LINE
  5
B25
100
AcDbEntity
  8
LY_1
  6
CONTINUOUS
 62
    46
100
AcDbLine
 10
13080.53255
 20
17652.496996
 30
0.0
 11
13030.53255
 21
17652.496996
 31
0.0
  0
ARC
  5
B26
100
AcDbEntity
  8
LY_1
  6
CONTINUOUS
 62
    46
100
AcDbCircle
 10
13031.53255
 20
17681.496996
 30
0.0
 40
20.0
100
AcDbArc
 50
180.0
 51
270.0
  0
LINE
  5
B27
100
AcDbEntity
  8
LY_1
  6
CONTINUOUS
 62
    46
100
AcDbLine
 10
13012.53255
 20
17657.996996
 30
0.0
 11
13012.53255
 21
17647.996996
 31
0.0
  0
LINE
  5
B28
100
AcDbEntity
  8
LY_1
  6
CONTINUOUS
 62
    46
100
AcDbLine
 10
13002.53255
 20
17667.996996
 30
0.0
 11
13012.53255
 21
17657.996996
 31
0.0
  0
ARC
  5
B29
100
AcDbEntity
  8
LY_1
  6
CONTINUOUS
 62
    46
100
AcDbCircle
 10
13031.53255
 20
17681.496996
 30
0.0
 40
29.0
100
AcDbArc
 50
180.0
 51
270.0
  0
LINE
  5
B2A
100
AcDbEntity
  8
LY_1
  6
CONTINUOUS
 62
    46
100
AcDbLine
 10
13071.53255
 20
17836.496996
 30
0.0
 11
13031.53255
 21
17836.496996
 31
0.0
  0
LINE
  5
B2B
100
AcDbEntity
  8
LY_1
  6
CONTINUOUS
 62
    46
100
AcDbLine
 10
13071.53255
 20
17827.496996
 30
0.0
 11
13031.53255
 21
17827.496996
 31
0.0
  0
ARC
  5
B2C
100
AcDbEntity
  8
LY_1
  6
CONTINUOUS
 62
    46
100
AcDbCircle
 10
13031.53255
 20
17807.496996
 30
0.0
 40
20.0
100
AcDbArc
 50
90.0
 51
180.0
  0
ARC
  5
B2D
100
AcDbEntity
  8
LY_1
  6
CONTINUOUS
 62
    46
100
AcDbCircle
 10
13031.53255
 20
17807.496996
 30
0.0
 40
29.0
100
AcDbArc
 50
90.0
 51
180.0
  0
LINE
  5
B2E
100
AcDbEntity
  8
LY_1
  6
CONTINUOUS
 62
    46
100
AcDbLine
 10
13002.53255
 20
17667.996996
 30
0.0
 11
13002.53255
 21
17807.496996
 31
0.0
  0
LINE
  5
B2F
100
AcDbEntity
  8
LY_1
  6
CONTINUOUS
 62
    46
100
AcDbLine
 10
13011.53255
 20
17681.496996
 30
0.0
 11
13011.53255
 21
17807.496996
 31
0.0
  0
LINE
  5
B30
100
AcDbEntity
  8
LY_1
  6
CONTINUOUS
 62
    46
100
AcDbLine
 10
13020.53255
 20
17654.496996
 30
0.0
 11
13014.53255
 21
17654.496996
 31
0.0
  0
LINE
  5
B31
100
AcDbEntity
  8
LY_1
  6
CONTINUOUS
 62
    46
100
AcDbLine
 10
13080.53255
 20
17652.496996
 30
0.0
 11
13071.53255
 21
17652.496996
 31
0.0
  0
LINE
  5
B32
100
AcDbEntity
  8
LY_1
  6
CONTINUOUS
 62
    46
100
AcDbLine
 10
13061.53255
 20
17652.496996
 30
0.0
 11
13030.53255
 21
17652.496996
 31
0.0
  0
LINE
  5
B33
100
AcDbEntity
  8
LY_1
  6
CONTINUOUS
 62
    46
100
AcDbLine
 10
13014.53255
 20
17453.996996
 30
0.0
 11
13020.53255
 21
17453.996996
 31
0.0
  0
LINE
  5
B34
100
AcDbEntity
  8
LY_1
  6
CONTINUOUS
 62
    46
100
AcDbLine
 10
13025.53255
 20
17472.83782
 30
0.0
 11
13066.53255
 21
17472.83782
 31
0.0
  0
LINE
  5
B35
100
AcDbEntity
  8
LY_1
  6
CONTINUOUS
 62
    46
100
AcDbLine
 10
12891.53255
 20
17913.979725
 30
0.0
 11
12891.53255
 21
17891.979725
 31
0.0
  0
LINE
  5
B36
100
AcDbEntity
  8
LY_1
  6
CONTINUOUS
 62
    46
100
AcDbLine
 10
12866.606762
 20
17917.287842
 30
0.0
 11
12861.272168
 21
17920.034131
 31
0.0
  0
ARC
  5
B37
100
AcDbEntity
  8
LY_1
  6
CONTINUOUS
 62
    46
100
AcDbCircle
 10
12879.943248
 20
17910.422119
 30
0.0
 40
21.0
100
AcDbArc
 50
152.760248
 51
197.175557
  0
LINE
  5
B38
100
AcDbEntity
  8
LY_1
  6
CONTINUOUS
 62
    46
100
AcDbLine
 10
12891.53255
 20
17891.979725
 30
0.0
 11
12971.53255
 21
17891.979725
 31
0.0
  0
LINE
  5
B39
100
AcDbEntity
  8
LY_1
  6
CONTINUOUS
 62
    46
100
AcDbLine
 10
12891.53255
 20
17913.979725
 30
0.0
 11
12971.53255
 21
17913.979725
 31
0.0
  0
LINE
  5
B3A
100
AcDbEntity
  8
LY_1
  6
CONTINUOUS
 62
    46
100
AcDbLine
 10
12875.53255
 20
17647.996996
 30
0.0
 11
13012.53255
 21
17647.996996
 31
0.0
  0
LINE
  5
B3B
100
AcDbEntity
  8
LY_1
  6
CONTINUOUS
 62
    46
100
AcDbLine
 10
13412.53255
 20
17921.48968
 30
0.0
 11
13412.53255
 21
17741.496996
 31
0.0
  0
LINE
  5
B3C
100
AcDbEntity
  8
LY_1
  6
CONTINUOUS
 62
    46
100
AcDbLine
 10
13438.888068
 20
17902.627366
 30
0.0
 11
13438.826105
 21
17801.179272
 31
0.0
  0
LINE
  5
B3D
100
AcDbEntity
  8
LY_1
  6
CONTINUOUS
 62
    46
100
AcDbLine
 10
13276.53255
 20
17947.996996
 30
0.0
 11
13283.53255
 21
17947.996996
 31
0.0
  0
LINE
  5
B3E
100
AcDbEntity
  8
LY_1
  6
CONTINUOUS
 62
    46
100
AcDbLine
 10
13292.53255
 20
17511.496996
 30
0.0
 11
13299.53255
 21
17511.496996
 31
0.0
  0
LINE
  5
B3F
100
AcDbEntity
  8
LY_1
  6
CONTINUOUS
 62
    46
100
AcDbLine
 10
13205.53255
 20
17931.496996
 30
0.0
 11
13221.53255
 21
17931.496996
 31
0.0
  0
LINE
  5
B40
100
AcDbEntity
  8
LY_1
  6
CONTINUOUS
 62
    46
100
AcDbLine
 10
13205.53255
 20
17691.496996
 30
0.0
 11
13210.53255
 21
17691.496996
 31
0.0
  0
LINE
  5
B41
100
AcDbEntity
  8
LY_1
  6
CONTINUOUS
 62
    46
100
AcDbLine
 10
13212.53255
 20
17691.496996
 30
0.0
 11
13212.53255
 21
17931.496996
 31
0.0
  0
LINE
  5
B42
100
AcDbEntity
  8
LY_1
  6
CONTINUOUS
 62
    46
100
AcDbLine
 10
13191.53255
 20
17691.496996
 30
0.0
 11
13200.53255
 21
17691.496996
 31
0.0
  0
LINE
  5
B43
100
AcDbEntity
  8
LY_1
  6
CONTINUOUS
 62
    46
100
AcDbLine
 10
13176.53255
 20
17918.496996
 30
0.0
 11
13183.53255
 21
17918.496996
 31
0.0
  0
LINE
  5
B44
100
AcDbEntity
  8
LY_1
  6
CONTINUOUS
 62
    46
100
AcDbLine
 10
13176.53255
 20
17928.496996
 30
0.0
 11
13183.53255
 21
17928.496996
 31
0.0
  0
LINE
  5
B45
100
AcDbEntity
  8
LY_1
  6
CONTINUOUS
 62
    46
100
AcDbLine
 10
13212.53255
 20
17446.575466
 30
0.0
 11
13292.53255
 21
17446.575466
 31
0.0
  0
LINE
  5
B46
100
AcDbEntity
  8
LY_1
  6
CONTINUOUS
 62
    46
100
AcDbLine
 10
13221.53255
 20
17946.996996
 30
0.0
 11
13276.53255
 21
17946.996996
 31
0.0
  0
LINE
  5
B47
100
AcDbEntity
  8
LY_1
  6
CONTINUOUS
 62
    46
100
AcDbLine
 10
13486.955103
 20
16871.156134
 30
0.0
 11
13519.652056
 21
16957.643625
 31
0.0
  0
LINE
  5
B48
100
AcDbEntity
  8
LY_1
  6
CONTINUOUS
 62
    46
100
AcDbLine
 10
13672.257778
 20
17390.996996
 30
0.0
 11
14405.532794
 21
17390.996996
 31
0.0
  0
LINE
  5
B49
100
AcDbEntity
  8
LY_1
  6
CONTINUOUS
 62
    46
100
AcDbLine
 10
13509.830496
 20
16961.356706
 30
0.0
 11
13739.584557
 21
17569.084669
 31
0.0
  0
LINE
  5
B4A
100
AcDbEntity
  8
LY_1
  6
CONTINUOUS
 62
    46
100
AcDbLine
 10
13505.621257
 20
16962.948026
 30
0.0
 11
13735.375317
 21
17570.67599
 31
0.0
  0
LINE
  5
B4B
100
AcDbEntity
  8
LY_1
  6
CONTINUOUS
 62
    46
100
AcDbLine
 10
13494.236637
 20
16907.383735
 30
0.0
 11
13511.917975
 21
16954.153065
 31
0.0
  0
LINE
  5
B4C
100
AcDbEntity
  8
LY_1
  6
CONTINUOUS
 62
    46
100
AcDbLine
 10
13485.818158
 20
16910.566376
 30
0.0
 11
13494.236637
 21
16907.383735
 31
0.0
  0
LINE
  5
B4D
100
AcDbEntity
  8
LY_1
  6
CONTINUOUS
 62
    46
100
AcDbLine
 10
13770.944811
 20
17844.64388
 30
0.0
 11
13792.738502
 21
17844.630569
 31
0.0
  0
LINE
  5
B4E
100
AcDbEntity
  8
LY_1
  6
CONTINUOUS
 62
    46
100
AcDbLine
 10
13770.32091
 20
17902.424932
 30
0.0
 11
13793.433159
 21
17902.410815
 31
0.0
  0
LINE
  5
B4F
100
AcDbEntity
  8
LY_1
  6
CONTINUOUS
 62
    46
100
AcDbLine
 10
13714.708216
 20
17834.821526
 30
0.0
 11
13736.121059
 21
17834.808447
 31
0.0
  0
LINE
  5
B50
100
AcDbEntity
  8
LY_1
  6
CONTINUOUS
 62
    46
100
AcDbLine
 10
13745.807801
 20
17834.802531
 30
0.0
 11
13767.900395
 21
17834.789037
 31
0.0
  0
LINE
  5
B51
100
AcDbEntity
  8
LY_1
  6
CONTINUOUS
 62
    46
100
AcDbLine
 10
13775.354211
 20
17858.916408
 30
0.0
 11
13788.346549
 21
17858.908473
 31
0.0
  0
LINE
  5
B52
100
AcDbEntity
  8
LY_1
  6
CONTINUOUS
 62
    46
100
AcDbLine
 10
13783.301444
 20
17875.309966
 30
0.0
 11
13788.346582
 21
17858.908449
 31
0.0
  0
LINE
  5
B53
100
AcDbEntity
  8
LY_1
  6
CONTINUOUS
 62
    46
100
AcDbLine
 10
13781.629144
 20
17880.665287
 30
0.0
 11
13782.098339
 21
17880.665001
 31
0.0
  0
ARC
  5
B54
100
AcDbEntity
  8
LY_1
  6
CONTINUOUS
 62
    46
100
AcDbCircle
 10
13817.21501
 20
17885.741853
 30
0.0
 40
35.481753
100
AcDbArc
 50
188.226313
 51
197.097998
  0
ARC
  5
B55
100
AcDbEntity
  8
LY_1
  6
CONTINUOUS
 62
    46
100
AcDbCircle
 10
13746.518714
 20
17885.785033
 30
0.0
 40
35.481753
100
AcDbArc
 50
342.668072
 51
351.703697
  0
LINE
  5
B56
100
AcDbEntity
  8
LY_1
  6
CONTINUOUS
 62
    46
100
AcDbLine
 10
13770.944853
 20
17844.643871
 30
0.0
 11
13767.900303
 21
17834.789032
 31
0.0
  0
LINE
  5
B57
100
AcDbEntity
  8
LY_1
  6
CONTINUOUS
 62
    46
100
AcDbLine
 10
13574.109602
 20
17834.912463
 30
0.0
 11
13628.213917
 21
17834.879417
 31
0.0
  0
LINE
  5
B58
100
AcDbEntity
  8
LY_1
  6
CONTINUOUS
 62
    46
100
AcDbLine
 10
13574.109602
 20
17834.912463
 30
0.0
 11
13574.068294
 21
17767.280268
 31
0.0
  0
LINE
  5
B59
100
AcDbEntity
  8
LY_1
  6
CONTINUOUS
 62
    46
100
AcDbLine
 10
13695.885847
 20
17902.470396
 30
0.0
 11
13755.026033
 21
17902.434274
 31
0.0
  0
LINE
  5
B5A
100
AcDbEntity
  8
LY_1
  6
CONTINUOUS
 62
    46
100
AcDbLine
 10
13695.874637
 20
17884.116532
 30
0.0
 11
13714.738318
 21
17884.10501
 31
0.0
  0
LINE
  5
B5B
100
AcDbEntity
  8
LY_1
  6
CONTINUOUS
 62
    46
100
AcDbLine
 10
13695.885847
 20
17902.470396
 30
0.0
 11
13695.874637
 21
17884.116532
 31
0.0
  0
LINE
  5
B5C
100
AcDbEntity
  8
LY_1
  6
CONTINUOUS
 62
    46
100
AcDbLine
 10
13755.026033
 20
17902.434274
 30
0.0
 11
13755.014823
 21
17884.08041
 31
0.0
  0
LINE
  5
B5D
100
AcDbEntity
  8
LY_1
  6
CONTINUOUS
 62
    46
100
AcDbLine
 10
13736.15116
 20
17884.091932
 30
0.0
 11
13755.014823
 21
17884.08041
 31
0.0
  0
LINE
  5
B5E
100
AcDbEntity
  8
LY_1
  6
CONTINUOUS
 62
    46
100
AcDbLine
 10
13574.150989
 20
17902.544749
 30
0.0
 11
13628.255226
 21
17902.511703
 31
0.0
  0
LINE
  5
B5F
100
AcDbEntity
  8
LY_1
  6
CONTINUOUS
 62
    46
100
AcDbLine
 10
13628.255226
 20
17902.511703
 30
0.0
 11
13628.213917
 21
17834.879417
 31
0.0
  0
LINE
  5
B60
100
AcDbEntity
  8
LY_1
  6
CONTINUOUS
 62
    46
100
AcDbLine
 10
13780.389415
 20
17875.214775
 30
0.0
 11
13775.354185
 21
17858.916345
 31
0.0
  0
LINE
  5
B61
100
AcDbEntity
  8
LY_1
  6
CONTINUOUS
 62
    46
100
AcDbLine
 10
13770.320901
 20
17902.424907
 30
0.0
 11
13745.807781
 21
17834.802495
 31
0.0
  0
LINE
  5
B62
100
AcDbEntity
  8
LY_1
  6
CONTINUOUS
 62
    46
100
AcDbLine
 10
13736.15116
 20
17884.091932
 30
0.0
 11
13736.121059
 21
17834.808447
 31
0.0
  0
LINE
  5
B63
100
AcDbEntity
  8
LY_1
  6
CONTINUOUS
 62
    46
100
AcDbLine
 10
13714.738318
 20
17884.10501
 30
0.0
 11
13714.708216
 21
17834.821526
 31
0.0
  0
LINE
  5
B64
100
AcDbEntity
  8
LY_1
  6
CONTINUOUS
 62
    46
100
AcDbLine
 10
13735.375317
 20
17570.67599
 30
0.0
 11
13739.584557
 21
17569.084669
 31
0.0
  0
LINE
  5
B65
100
AcDbEntity
  8
LY_1
  6
CONTINUOUS
 62
    46
100
AcDbLine
 10
13525.381023
 20
17650.065198
 30
0.0
 11
13529.590263
 21
17648.473877
 31
0.0
  0
LINE
  5
B66
100
AcDbEntity
  8
LY_1
  6
CONTINUOUS
 62
    46
100
AcDbLine
 10
13483.73225
 20
17527.173751
 30
0.0
 11
13529.590263
 21
17648.473877
 31
0.0
  0
LINE
  5
B67
100
AcDbEntity
  8
LY_1
  6
CONTINUOUS
 62
    46
100
AcDbLine
 10
13479.52301
 20
17528.765072
 30
0.0
 11
13689.517305
 21
17449.375864
 31
0.0
  0
LINE
  5
B68
100
AcDbEntity
  8
LY_1
  6
CONTINUOUS
 62
    46
100
AcDbLine
 10
13904.745891
 20
17902.342827
 30
0.0
 11
13927.85797
 21
17902.328711
 31
0.0
  0
LINE
  5
B69
100
AcDbEntity
  8
LY_1
  6
CONTINUOUS
 62
    46
100
AcDbLine
 10
13955.898772
 20
17902.311584
 30
0.0
 11
13975.951966
 21
17902.299336
 31
0.0
  0
LINE
  5
B6A
100
AcDbEntity
  8
LY_1
  6
CONTINUOUS
 62
    46
100
AcDbLine
 10
13998.724381
 20
17902.285427
 30
0.0
 11
14018.097762
 21
17902.273594
 31
0.0
  0
ARC
  5
B6B
100
AcDbEntity
  8
LY_1
  6
CONTINUOUS
 62
    46
100
AcDbCircle
 10
14060.559454
 20
17862.990781
 30
0.0
 40
40.786335
100
AcDbArc
 50
72.700859
 51
107.228112
  0
ARC
  5
B6C
100
AcDbEntity
  8
LY_1
  6
CONTINUOUS
 62
    46
100
AcDbCircle
 10
14057.33814
 20
17873.37912
 30
0.0
 40
29.909988
100
AcDbArc
 50
107.228112
 51
152.903488
  0
ARC
  5
B6D
100
AcDbEntity
  8
LY_1
  6
CONTINUOUS
 62
    46
100
AcDbCircle
 10
14063.793663
 20
17873.375177
 30
0.0
 40
29.909988
100
AcDbArc
 50
27.026521
 51
72.700859
  0
LINE
  5
B6E
100
AcDbEntity
  8
LY_1
  6
CONTINUOUS
 62
    46
100
AcDbLine
 10
13880.23277
 20
17834.720426
 30
0.0
 11
13902.325154
 21
17834.706933
 31
0.0
  0
LINE
  5
B6F
100
AcDbEntity
  8
LY_1
  6
CONTINUOUS
 62
    46
100
AcDbLine
 10
13930.195884
 20
17834.68991
 30
0.0
 11
13952.288463
 21
17834.676416
 31
0.0
  0
LINE
  5
B70
100
AcDbEntity
  8
LY_1
  6
CONTINUOUS
 62
    46
100
AcDbLine
 10
13955.857461
 20
17834.674236
 30
0.0
 11
13975.230958
 21
17834.662403
 31
0.0
  0
LINE
  5
B71
100
AcDbEntity
  8
LY_1
  6
CONTINUOUS
 62
    46
100
AcDbLine
 10
13998.003192
 20
17834.648494
 30
0.0
 11
14018.05645
 21
17834.636246
 31
0.0
  0
ARC
  5
B72
100
AcDbEntity
  8
LY_1
  6
CONTINUOUS
 62
    46
100
AcDbCircle
 10
14060.566098
 20
17873.867139
 30
0.0
 40
40.786335
100
AcDbArc
 50
252.701998
 51
287.22905
  0
LINE
  5
B73
100
AcDbEntity
  8
LY_1
  6
CONTINUOUS
 62
    46
100
AcDbLine
 10
13909.779189
 20
17858.834304
 30
0.0
 11
13922.771531
 21
17858.826368
 31
0.0
  0
LINE
  5
B74
100
AcDbEntity
  8
LY_1
  6
CONTINUOUS
 62
    46
100
AcDbLine
 10
13905.369797
 20
17844.561775
 30
0.0
 11
13927.163373
 21
17844.548464
 31
0.0
  0
LINE
  5
B75
100
AcDbEntity
  8
LY_1
  6
CONTINUOUS
 62
    46
100
AcDbLine
 10
13917.72634
 20
17875.227833
 30
0.0
 11
13922.77146
 21
17858.826376
 31
0.0
  0
LINE
  5
B76
100
AcDbEntity
  8
LY_1
  6
CONTINUOUS
 62
    46
100
AcDbLine
 10
13914.804202
 20
17875.100099
 30
0.0
 11
13909.779059
 21
17858.834319
 31
0.0
  0
LINE
  5
B77
100
AcDbEntity
  8
LY_1
  6
CONTINUOUS
 62
    46
100
AcDbLine
 10
13916.054113
 20
17880.583183
 30
0.0
 11
13916.523347
 21
17880.582896
 31
0.0
  0
LINE
  5
B78
100
AcDbEntity
  8
LY_1
  6
CONTINUOUS
 62
    46
100
AcDbLine
 10
13998.627035
 20
17864.897998
 30
0.0
 11
13999.000823
 21
17864.89777
 31
0.0
  0
LINE
  5
B79
100
AcDbEntity
  8
LY_1
  6
CONTINUOUS
 62
    46
100
AcDbLine
 10
13974.954013
 20
17872.050052
 30
0.0
 11
13975.328033
 21
17872.049824
 31
0.0
  0
ARC
  5
B7A
100
AcDbEntity
  8
LY_1
  6
CONTINUOUS
 62
    46
100
AcDbCircle
 10
13951.640018
 20
17885.659748
 30
0.0
 40
35.481753
100
AcDbArc
 50
188.226346
 51
197.098002
  0
ARC
  5
B7B
100
AcDbEntity
  8
LY_1
  6
CONTINUOUS
 62
    46
100
AcDbCircle
 10
13880.943683
 20
17885.702928
 30
0.0
 40
35.481753
100
AcDbArc
 50
342.612966
 51
351.7037
  0
ARC
  5
B7C
100
AcDbEntity
  8
LY_1
  6
CONTINUOUS
 62
    46
100
AcDbCircle
 10
13837.427766
 20
17868.565241
 30
0.0
 40
25.831348
100
AcDbArc
 50
340.240297
 51
22.17799
  0
ARC
  5
B7D
100
AcDbEntity
  8
LY_1
  6
CONTINUOUS
 62
    46
100
AcDbCircle
 10
13838.787312
 20
17868.56441
 30
0.0
 40
44.525088
100
AcDbArc
 50
341.591049
 51
23.897607
  0
ARC
  5
B7E
100
AcDbEntity
  8
LY_1
  6
CONTINUOUS
 62
    46
100
AcDbCircle
 10
14042.209731
 20
17869.969653
 30
0.0
 40
43.505428
100
AcDbArc
 50
179.735738
 51
186.694793
  0
ARC
  5
B7F
100
AcDbEntity
  8
LY_1
  6
CONTINUOUS
 62
    46
100
AcDbCircle
 10
13931.745247
 20
17866.978156
 30
0.0
 40
43.505428
100
AcDbArc
 50
359.965005
 51
6.69481
  0
ARC
  5
B80
100
AcDbEntity
  8
LY_1
  6
CONTINUOUS
 62
    46
100
AcDbCircle
 10
14035.431927
 20
17902.263006
 30
0.0
 40
67.270456
100
AcDbArc
 50
206.687881
 51
211.438701
  0
ARC
  5
B81
100
AcDbEntity
  8
LY_1
  6
CONTINUOUS
 62
    46
100
AcDbCircle
 10
13938.523257
 20
17834.684823
 30
0.0
 40
67.270366
100
AcDbArc
 50
26.687913
 51
31.543171
  0
ARC
  5
B82
100
AcDbEntity
  8
LY_1
  6
CONTINUOUS
 62
    46
100
AcDbCircle
 10
14082.145652
 20
17868.415771
 30
0.0
 40
34.328501
100
AcDbArc
 50
165.097357
 51
194.473202
  0
ARC
  5
B83
100
AcDbEntity
  8
LY_1
  6
CONTINUOUS
 62
    46
100
AcDbCircle
 10
14060.566025
 20
17874.086489
 30
0.0
 40
12.016544
100
AcDbArc
 50
14.141234
 51
164.764484
  0
ARC
  5
B84
100
AcDbEntity
  8
LY_1
  6
CONTINUOUS
 62
    46
100
AcDbCircle
 10
14060.559114
 20
17862.771405
 30
0.0
 40
12.016544
100
AcDbArc
 50
194.138588
 51
344.761774
  0
ARC
  5
B85
100
AcDbEntity
  8
LY_1
  6
CONTINUOUS
 62
    46
100
AcDbCircle
 10
14038.979487
 20
17868.442136
 30
0.0
 40
34.328501
100
AcDbArc
 50
345.096388
 51
14.474107
  0
ARC
  5
B86
100
AcDbEntity
  8
LY_1
  6
CONTINUOUS
 62
    46
100
AcDbCircle
 10
14063.787619
 20
17863.478734
 30
0.0
 40
29.909988
100
AcDbArc
 50
287.22905
 51
332.903246
  0
ARC
  5
B87
100
AcDbEntity
  8
LY_1
  6
CONTINUOUS
 62
    46
100
AcDbCircle
 10
14057.332095
 20
17863.482677
 30
0.0
 40
29.909988
100
AcDbArc
 50
207.026763
 51
252.701998
  0
ARC
  5
B88
100
AcDbEntity
  8
LY_1
  6
CONTINUOUS
 62
    46
100
AcDbCircle
 10
14054.104982
 20
17868.432898
 30
0.0
 40
40.786335
100
AcDbArc
 50
332.903246
 51
27.026521
  0
ARC
  5
B89
100
AcDbEntity
  8
LY_1
  6
CONTINUOUS
 62
    46
100
AcDbCircle
 10
14067.020776
 20
17868.425009
 30
0.0
 40
40.786335
100
AcDbArc
 50
152.903488
 51
207.026763
  0
ARC
  5
B8A
100
AcDbEntity
  8
LY_1
  6
CONTINUOUS
 62
    46
100
AcDbCircle
 10
13855.256926
 20
17875.861915
 30
0.0
 40
26.511121
100
AcDbArc
 50
23.897607
 51
89.965005
  0
LINE
  5
B8B
100
AcDbEntity
  8
LY_1
  6
CONTINUOUS
 62
    46
100
AcDbLine
 10
13880.232762
 20
17834.720426
 30
0.0
 11
13904.745883
 21
17902.342829
 31
0.0
  0
LINE
  5
B8C
100
AcDbEntity
  8
LY_1
  6
CONTINUOUS
 62
    46
100
AcDbLine
 10
13978.036862
 20
17867.175674
 30
0.0
 11
13998.003225
 21
17834.648571
 31
0.0
  0
LINE
  5
B8D
100
AcDbEntity
  8
LY_1
  6
CONTINUOUS
 62
    46
100
AcDbLine
 10
13975.951885
 20
17902.299419
 30
0.0
 11
13995.854172
 21
17869.8767
 31
0.0
  0
LINE
  5
B8E
100
AcDbEntity
  8
LY_1
  6
CONTINUOUS
 62
    46
100
AcDbLine
 10
13998.724381
 20
17902.285427
 30
0.0
 11
13998.704765
 21
17870.17031
 31
0.0
  0
LINE
  5
B8F
100
AcDbEntity
  8
LY_1
  6
CONTINUOUS
 62
    46
100
AcDbLine
 10
13975.25068
 20
17866.951583
 30
0.0
 11
13975.230958
 21
17834.662403
 31
0.0
  0
LINE
  5
B90
100
AcDbEntity
  8
LY_1
  6
CONTINUOUS
 62
    46
100
AcDbLine
 10
14018.097762
 20
17902.273594
 30
0.0
 11
14018.05645
 21
17834.636246
 31
0.0
  0
LINE
  5
B91
100
AcDbEntity
  8
LY_1
  6
CONTINUOUS
 62
    46
100
AcDbLine
 10
13955.898772
 20
17902.311584
 30
0.0
 11
13955.857461
 21
17834.674236
 31
0.0
  0
LINE
  5
B92
100
AcDbEntity
  8
LY_1
  6
CONTINUOUS
 62
    46
100
AcDbLine
 10
13927.163377
 20
17844.548453
 30
0.0
 11
13930.195863
 21
17834.689976
 31
0.0
  0
LINE
  5
B93
100
AcDbEntity
  8
LY_1
  6
CONTINUOUS
 62
    46
100
AcDbLine
 10
13905.3697
 20
17844.561759
 30
0.0
 11
13902.325147
 21
17834.706907
 31
0.0
  0
LINE
  5
B94
100
AcDbEntity
  8
LY_1
  6
CONTINUOUS
 62
    46
100
AcDbLine
 10
13927.857991
 20
17902.328654
 30
0.0
 11
13952.288431
 21
17834.676506
 31
0.0
  0
LINE
  5
B95
100
AcDbEntity
  8
LY_1
  6
CONTINUOUS
 62
    46
100
AcDbLine
 10
13821.432453
 20
17834.756341
 30
0.0
 11
13853.604316
 21
17834.736691
 31
0.0
  0
LINE
  5
B96
100
AcDbEntity
  8
LY_1
  6
CONTINUOUS
 62
    46
100
AcDbLine
 10
13795.771041
 20
17834.772014
 30
0.0
 11
13817.863657
 21
17834.75852
 31
0.0
  0
LINE
  5
B97
100
AcDbEntity
  8
LY_1
  6
CONTINUOUS
 62
    46
100
AcDbLine
 10
13841.516876
 20
17885.72701
 30
0.0
 11
13841.496116
 21
17851.738389
 31
0.0
  0
LINE
  5
B98
100
AcDbEntity
  8
LY_1
  6
CONTINUOUS
 62
    46
100
AcDbLine
 10
13841.496116
 20
17851.738389
 30
0.0
 11
13850.21516
 21
17851.733063
 31
0.0
  0
LINE
  5
B99
100
AcDbEntity
  8
LY_1
  6
CONTINUOUS
 62
    46
100
AcDbLine
 10
13841.516876
 20
17885.72701
 30
0.0
 11
13850.339325
 21
17885.721621
 31
0.0
  0
LINE
  5
B9A
100
AcDbEntity
  8
LY_1
  6
CONTINUOUS
 62
    46
100
AcDbLine
 10
13792.738489
 20
17844.630559
 30
0.0
 11
13795.770983
 21
17834.772058
 31
0.0
  0
LINE
  5
B9B
100
AcDbEntity
  8
LY_1
  6
CONTINUOUS
 62
    46
100
AcDbLine
 10
13793.433081
 20
17902.410763
 30
0.0
 11
13817.863539
 21
17834.758564
 31
0.0
  0
LINE
  5
B9C
100
AcDbEntity
  8
LY_1
  6
CONTINUOUS
 62
    46
100
AcDbLine
 10
13821.473765
 20
17902.393688
 30
0.0
 11
13821.432453
 21
17834.756341
 31
0.0
  0
LINE
  5
B9D
100
AcDbEntity
  8
LY_1
  6
CONTINUOUS
 62
    46
100
AcDbLine
 10
13821.473765
 20
17902.393688
 30
0.0
 11
13855.273119
 21
17902.373044
 31
0.0
  0
ARC
  5
B9E
100
AcDbEntity
  8
LY_1
  6
CONTINUOUS
 62
    46
100
AcDbCircle
 10
13850.332059
 20
17873.825603
 30
0.0
 40
11.896019
100
AcDbArc
 50
22.17799
 51
89.965005
  0
ARC
  5
B9F
100
AcDbEntity
  8
LY_1
  6
CONTINUOUS
 62
    46
100
AcDbCircle
 10
13850.222633
 20
17863.968968
 30
0.0
 40
12.235904
100
AcDbArc
 50
269.965005
 51
340.240297
  0
ARC
  5
BA0
100
AcDbEntity
  8
LY_1
  6
CONTINUOUS
 62
    46
100
AcDbCircle
 10
13853.621962
 20
17863.627005
 30
0.0
 40
28.890315
100
AcDbArc
 50
269.965005
 51
341.591049
  0
LINE
  5
BA1
100
AcDbEntity
  8
LY_1
  6
CONTINUOUS
 62
    46
100
AcDbLine
 10
14338.032794
 20
17583.997118
 30
0.0
 11
14473.032794
 21
17583.997118
 31
0.0
  0
LINE
  5
BA2
100
AcDbEntity
  8
LY_1
  6
CONTINUOUS
 62
    46
100
AcDbLine
 10
14338.032794
 20
17678.997301
 30
0.0
 11
14473.032794
 21
17678.997301
 31
0.0
  0
LINE
  5
BA3
100
AcDbEntity
  8
LY_1
  6
CONTINUOUS
 62
    46
100
AcDbLine
 10
14338.032794
 20
17583.997118
 30
0.0
 11
14323.032794
 21
17598.997118
 31
0.0
  0
LINE
  5
BA4
100
AcDbEntity
  8
LY_1
  6
CONTINUOUS
 62
    46
100
AcDbLine
 10
14323.032794
 20
17663.997301
 30
0.0
 11
14338.032794
 21
17678.997301
 31
0.0
  0
LINE
  5
BA5
100
AcDbEntity
  8
LY_1
  6
CONTINUOUS
 62
    46
100
AcDbLine
 10
14323.032794
 20
17663.997301
 30
0.0
 11
14323.032794
 21
17598.997118
 31
0.0
  0
LINE
  5
BA6
100
AcDbEntity
  8
LY_1
  6
CONTINUOUS
 62
    46
100
AcDbLine
 10
14112.520375
 20
17921.48968
 30
0.0
 11
14112.520375
 21
17741.496996
 31
0.0
  0
LINE
  5
BA7
100
AcDbEntity
  8
LY_1
  6
CONTINUOUS
 62
    46
100
AcDbLine
 10
14488.032794
 20
17663.997301
 30
0.0
 11
14488.032794
 21
17598.997118
 31
0.0
  0
LINE
  5
BA8
100
AcDbEntity
  8
LY_1
  6
CONTINUOUS
 62
    46
100
AcDbLine
 10
14488.032794
 20
17598.997118
 30
0.0
 11
14473.032794
 21
17583.997118
 31
0.0
  0
LINE
  5
BA9
100
AcDbEntity
  8
LY_1
  6
CONTINUOUS
 62
    46
100
AcDbLine
 10
14473.032794
 20
17678.997301
 30
0.0
 11
14488.032794
 21
17663.997301
 31
0.0
  0
LINE
  5
BAA
100
AcDbEntity
  8
LY_1
  6
CONTINUOUS
 62
    46
100
AcDbLine
 10
13457.985403
 20
18598.442282
 30
0.0
 11
13498.53255
 21
18192.970815
 31
0.0
  0
LINE
  5
BAB
100
AcDbEntity
  8
LY_1
  6
CONTINUOUS
 62
    46
100
AcDbLine
 10
13439.079696
 20
18596.551711
 30
0.0
 11
13489.079696
 21
18096.551711
 31
0.0
  0
ARC
  5
BAC
100
AcDbEntity
  8
LY_1
  6
CONTINUOUS
 62
    46
100
AcDbCircle
 10
12760.53255
 20
18007.996996
 30
0.0
 40
262.5
100
AcDbArc
 50
7.839583
 51
85.192429
  0
LINE
  5
BAD
100
AcDbEntity
  8
LY_1
  6
CONTINUOUS
 62
    46
100
AcDbLine
 10
13055.775409
 20
18023.979725
 30
0.0
 11
12803.235081
 21
18120.141964
 31
0.0
  0
LINE
  5
BAE
100
AcDbEntity
  8
LY_1
  6
CONTINUOUS
 62
    46
100
AcDbLine
 10
13070.779965
 20
18024.686555
 30
0.0
 11
12805.370208
 21
18125.749212
 31
0.0
  0
LINE
  5
BAF
100
AcDbEntity
  8
LY_1
  6
CONTINUOUS
 62
    46
100
AcDbLine
 10
12782.53255
 20
18125.963093
 30
0.0
 11
12782.53255
 21
18283.996996
 31
0.0
  0
LINE
  5
BB0
100
AcDbEntity
  8
LY_1
  6
CONTINUOUS
 62
    46
100
AcDbLine
 10
12738.53255
 20
18125.963093
 30
0.0
 11
12738.53255
 21
18283.996996
 31
0.0
  0
ARC
  5
BB1
100
AcDbEntity
  8
LY_1
  6
CONTINUOUS
 62
    46
100
AcDbCircle
 10
12760.53255
 20
18283.996996
 30
0.0
 40
22.0
100
AcDbArc
 50
0.0
 51
180.0
  0
CIRCLE
  5
BB2
100
AcDbEntity
  8
LY_1
  6
CONTINUOUS
 62
    46
100
AcDbCircle
 10
12760.53255
 20
18283.996996
 30
0.0
 40
8.0
  0
LINE
  5
BB3
100
AcDbEntity
  8
LY_1
  6
CONTINUOUS
 62
    46
100
AcDbLine
 10
12805.370208
 20
18125.749212
 30
0.0
 11
12803.235081
 21
18120.141964
 31
0.0
  0
ARC
  5
BB4
100
AcDbEntity
  8
LY_1
  6
CONTINUOUS
 62
    46
100
AcDbCircle
 10
13051.03255
 20
18487.496996
 30
0.0
 40
9.5
100
AcDbArc
 50
0.0
 51
180.0
  0
CIRCLE
  5
BB5
100
AcDbEntity
  8
LY_1
  6
CONTINUOUS
 62
    46
100
AcDbCircle
 10
12951.032548
 20
18487.496998
 30
0.0
 40
9.5
  0
LINE
  5
BB6
100
AcDbEntity
  8
LY_1
  6
CONTINUOUS
 62
    46
100
AcDbLine
 10
13153.533282
 20
18110.496508
 30
0.0
 11
13179.538897
 21
18110.496508
 31
0.0
  0
LINE
  5
BB7
100
AcDbEntity
  8
LY_1
  6
CONTINUOUS
 62
    46
100
AcDbLine
 10
13153.533282
 20
18126.496264
 30
0.0
 11
13179.538897
 21
18126.496264
 31
0.0
  0
LINE
  5
BB8
100
AcDbEntity
  8
LY_1
  6
CONTINUOUS
 62
    46
100
AcDbLine
 10
13122.53255
 20
18057.496996
 30
0.0
 11
13176.53255
 21
18057.496996
 31
0.0
  0
LINE
  5
BB9
100
AcDbEntity
  8
LY_1
  6
CONTINUOUS
 62
    46
100
AcDbLine
 10
13151.535443
 20
18112.492979
 30
0.0
 11
13153.535449
 21
18110.493066
 31
0.0
  0
LINE
  5
BBA
100
AcDbEntity
  8
LY_1
  6
CONTINUOUS
 62
    46
100
AcDbLine
 10
13153.534266
 20
18126.492798
 30
0.0
 11
13151.534535
 21
18124.49261
 31
0.0
  0
LINE
  5
BBB
100
AcDbEntity
  8
LY_1
  6
CONTINUOUS
 62
    46
100
AcDbLine
 10
13151.53255
 20
18124.495532
 30
0.0
 11
13151.53255
 21
18112.49602
 31
0.0
  0
LINE
  5
BBC
100
AcDbEntity
  8
LY_1
  6
CONTINUOUS
 62
    46
100
AcDbLine
 10
13110.53255
 20
18110.496996
 30
0.0
 11
13122.53255
 21
18110.496996
 31
0.0
  0
LINE
  5
BBD
100
AcDbEntity
  8
LY_1
  6
CONTINUOUS
 62
    46
100
AcDbLine
 10
13075.53255
 20
18110.496996
 30
0.0
 11
13115.53255
 21
18110.496996
 31
0.0
  0
ARC
  5
BBE
100
AcDbEntity
  8
LY_1
  6
CONTINUOUS
 62
    46
100
AcDbCircle
 10
13100.53255
 20
18180.524753
 30
0.0
 40
30.0
100
AcDbArc
 50
339.755824
 51
90.0
  0
ARC
  5
BBF
100
AcDbEntity
  8
LY_1
  6
CONTINUOUS
 62
    46
100
AcDbCircle
 10
13100.53255
 20
18180.524753
 30
0.0
 40
35.0
100
AcDbArc
 50
308.753105
 51
121.002719
  0
LINE
  5
BC0
100
AcDbEntity
  8
LY_1
  6
CONTINUOUS
 62
    46
100
AcDbLine
 10
13060.53255
 20
18157.496996
 30
0.0
 11
13060.53255
 21
18487.496996
 31
0.0
  0
LINE
  5
BC1
100
AcDbEntity
  8
LY_1
  6
CONTINUOUS
 62
    46
100
AcDbLine
 10
13041.53255
 20
18144.461755
 30
0.0
 11
13041.53255
 21
18487.496996
 31
0.0
  0
LINE
  5
BC2
100
AcDbEntity
  8
LY_1
  6
CONTINUOUS
 62
    46
100
AcDbLine
 10
13060.53255
 20
18210.524753
 30
0.0
 11
13100.53255
 21
18210.524753
 31
0.0
  0
LINE
  5
BC3
100
AcDbEntity
  8
LY_1
  6
CONTINUOUS
 62
    46
100
AcDbLine
 10
13041.53255
 20
18266.626431
 30
0.0
 11
12959.959628
 21
18490.74619
 31
0.0
  0
LINE
  5
BC4
100
AcDbEntity
  8
LY_1
  6
CONTINUOUS
 62
    46
100
AcDbLine
 10
13039.723329
 20
18216.044942
 30
0.0
 11
12942.105469
 21
18484.247807
 31
0.0
  0
LINE
  5
BC5
100
AcDbEntity
  8
LY_1
  6
CONTINUOUS
 62
    46
100
AcDbLine
 10
13041.53255
 20
18157.496996
 30
0.0
 11
13060.53255
 21
18157.496996
 31
0.0
  0
ARC
  5
BC6
100
AcDbEntity
  8
LY_1
  6
CONTINUOUS
 62
    46
100
AcDbCircle
 10
13011.53255
 20
18205.784338
 30
0.0
 40
30.0
100
AcDbArc
 50
0.0
 51
20.0
  0
LINE
  5
BC7
100
AcDbEntity
  8
LY_1
  6
CONTINUOUS
 62
    46
100
AcDbLine
 10
13115.53255
 20
18110.496996
 30
0.0
 11
13115.53255
 21
18129.141249
 31
0.0
  0
LINE
  5
BC8
100
AcDbEntity
  8
LY_1
  6
CONTINUOUS
 62
    46
100
AcDbLine
 10
13075.53255
 20
18110.496996
 30
0.0
 11
13075.53255
 21
18119.496996
 31
0.0
  0
LINE
  5
BC9
100
AcDbEntity
  8
LY_1
  6
CONTINUOUS
 62
    46
100
AcDbLine
 10
13117.385755
 20
18139.5219
 30
0.0
 11
13128.679345
 21
18170.144102
 31
0.0
  0
ARC
  5
BCA
100
AcDbEntity
  8
LY_1
  6
CONTINUOUS
 62
    46
100
AcDbCircle
 10
13145.53255
 20
18129.141249
 30
0.0
 40
30.0
100
AcDbArc
 50
159.755824
 51
180.0
  0
LINE
  5
BCB
100
AcDbEntity
  8
LY_1
  6
CONTINUOUS
 62
    46
100
AcDbLine
 10
13075.53255
 20
18119.496996
 30
0.0
 11
13055.889223
 21
18125.274445
 31
0.0
  0
ARC
  5
BCC
100
AcDbEntity
  8
LY_1
  6
CONTINUOUS
 62
    46
100
AcDbCircle
 10
13061.53255
 20
18144.461755
 30
0.0
 40
20.0
100
AcDbArc
 50
180.0
 51
253.61046
  0
ARC
  5
BCD
100
AcDbEntity
  8
LY_1
  6
CONTINUOUS
 62
    46
100
AcDbCircle
 10
13088.390834
 20
18147.165665
 30
0.0
 40
11.2
100
AcDbArc
 50
172.692489
 51
327.307511
  0
LINE
  5
BCE
100
AcDbEntity
  8
LY_1
  6
CONTINUOUS
 62
    46
100
AcDbLine
 10
13081.686872
 20
18182.941451
 30
0.0
 11
13077.281803
 21
18148.590245
 31
0.0
  0
LINE
  5
BCF
100
AcDbEntity
  8
LY_1
  6
CONTINUOUS
 62
    46
100
AcDbLine
 10
13097.816548
 20
18141.116209
 30
0.0
 11
13116.5226
 21
18170.262283
 31
0.0
  0
ARC
  5
BD0
100
AcDbEntity
  8
LY_1
  6
CONTINUOUS
 62
    46
100
AcDbCircle
 10
13100.53255
 20
18180.524753
 30
0.0
 40
19.0
100
AcDbArc
 50
327.307511
 51
172.692489
  0
LINE
  5
BD1
100
AcDbEntity
  8
LY_1
  6
CONTINUOUS
 62
    46
100
AcDbLine
 10
13101.53255
 20
18098.496996
 30
0.0
 11
13110.53255
 21
18098.496996
 31
0.0
  0
LINE
  5
BD2
100
AcDbEntity
  8
LY_1
  6
CONTINUOUS
 62
    46
100
AcDbLine
 10
13080.53255
 20
18023.496996
 30
0.0
 11
13101.53255
 21
18023.496996
 31
0.0
  0
LINE
  5
BD3
100
AcDbEntity
  8
LY_1
  6
CONTINUOUS
 62
    46
100
AcDbLine
 10
13071.53255
 20
18029.496996
 30
0.0
 11
13080.53255
 21
18029.496996
 31
0.0
  0
LINE
  5
BD4
100
AcDbEntity
  8
LY_1
  6
CONTINUOUS
 62
    46
100
AcDbLine
 10
12923.821124
 20
18028.42522
 30
0.0
 11
12921.53255
 21
18023.979725
 31
0.0
  0
LINE
  5
BD5
100
AcDbEntity
  8
LY_1
  6
CONTINUOUS
 62
    46
100
AcDbLine
 10
13070.510818
 20
18023.979725
 30
0.0
 11
13070.779965
 21
18024.686555
 31
0.0
  0
LINE
  5
BD6
100
AcDbEntity
  8
LY_1
  6
CONTINUOUS
 62
    46
100
AcDbLine
 10
13055.022824
 20
18024.266294
 30
0.0
 11
13057.15795
 21
18029.873542
 31
0.0
  0
LINE
  5
BD7
100
AcDbEntity
  8
LY_1
  6
CONTINUOUS
 62
    46
100
AcDbLine
 10
12923.821124
 20
18028.42522
 30
0.0
 11
12918.48653
 21
18031.171509
 31
0.0
  0
LINE
  5
BD8
100
AcDbEntity
  8
LY_1
  6
CONTINUOUS
 62
    46
100
AcDbLine
 10
12921.53255
 20
18023.979725
 30
0.0
 11
13071.53255
 21
18023.979725
 31
0.0
  0
LINE
  5
BD9
100
AcDbEntity
  8
LY_1
  6
CONTINUOUS
 62
    46
100
AcDbLine
 10
13377.53255
 20
18151.996508
 30
0.0
 11
13377.53255
 21
18127.996508
 31
0.0
  0
LINE
  5
BDA
100
AcDbEntity
  8
LY_1
  6
CONTINUOUS
 62
    46
100
AcDbLine
 10
13377.53255
 20
18108.997485
 30
0.0
 11
13377.53255
 21
18087.996996
 31
0.0
  0
LINE
  5
BDB
100
AcDbEntity
  8
LY_1
  6
CONTINUOUS
 62
    46
100
AcDbLine
 10
13276.53255
 20
18148.496996
 30
0.0
 11
13283.53255
 21
18148.496996
 31
0.0
  0
LINE
  5
BDC
100
AcDbEntity
  8
LY_1
  6
CONTINUOUS
 62
    46
100
AcDbLine
 10
13265.53255
 20
18173.464294
 30
0.0
 11
13302.119809
 21
18195.056845
 31
0.0
  0
ARC
  5
BDD
100
AcDbEntity
  8
LY_1
  6
CONTINUOUS
 62
    46
100
AcDbCircle
 10
13249.03255
 20
18093.996996
 30
0.0
 40
5.0
100
AcDbArc
 50
0.0
 51
180.0
  0
LINE
  5
BDE
100
AcDbEntity
  8
LY_1
  6
CONTINUOUS
 62
    46
100
AcDbLine
 10
13276.53255
 20
18103.996996
 30
0.0
 11
13276.53255
 21
18142.996996
 31
0.0
  0
LINE
  5
BDF
100
AcDbEntity
  8
LY_1
  6
CONTINUOUS
 62
    46
100
AcDbLine
 10
13254.03255
 20
18093.996996
 30
0.0
 11
13276.53255
 21
18093.996996
 31
0.0
  0
LINE
  5
BE0
100
AcDbEntity
  8
LY_1
  6
CONTINUOUS
 62
    46
100
AcDbLine
 10
13283.53255
 20
18087.996996
 30
0.0
 11
13382.53255
 21
18087.996996
 31
0.0
  0
CIRCLE
  5
BE1
100
AcDbEntity
  8
LY_1
  6
CONTINUOUS
 62
    46
100
AcDbCircle
 10
13327.53255
 20
18151.996508
 30
0.0
 40
17.0
  0
ARC
  5
BE2
100
AcDbEntity
  8
LY_1
  6
CONTINUOUS
 62
    46
100
AcDbCircle
 10
13327.53255
 20
18151.996508
 30
0.0
 40
50.0
100
AcDbArc
 50
0.0
 51
120.547653
  0
LINE
  5
BE3
100
AcDbEntity
  8
LY_1
  6
CONTINUOUS
 62
    46
100
AcDbLine
 10
13265.53255
 20
18142.996996
 30
0.0
 11
13265.53255
 21
18203.024753
 31
0.0
  0
LINE
  5
BE4
100
AcDbEntity
  8
LY_1
  6
CONTINUOUS
 62
    46
100
AcDbLine
 10
13243.847366
 20
18170.112753
 30
0.0
 11
13251.379113
 21
18198.084753
 31
0.0
  0
LINE
  5
BE5
100
AcDbEntity
  8
LY_1
  6
CONTINUOUS
 62
    46
100
AcDbLine
 10
13283.53255
 20
18110.497729
 30
0.0
 11
13331.531329
 21
18110.497729
 31
0.0
  0
LINE
  5
BE6
100
AcDbEntity
  8
LY_1
  6
CONTINUOUS
 62
    46
100
AcDbLine
 10
13283.53255
 20
18126.496264
 30
0.0
 11
13331.531329
 21
18126.496264
 31
0.0
  0
LINE
  5
BE7
100
AcDbEntity
  8
LY_1
  6
CONTINUOUS
 62
    46
100
AcDbLine
 10
13428.536719
 20
18110.988933
 30
0.0
 11
13426.538108
 21
18108.989353
 31
0.0
  0
LINE
  5
BE8
100
AcDbEntity
  8
LY_1
  6
CONTINUOUS
 62
    46
100
AcDbLine
 10
13426.534518
 20
18127.992189
 30
0.0
 11
13428.534527
 21
18125.99228
 31
0.0
  0
LINE
  5
BE9
100
AcDbEntity
  8
LY_1
  6
CONTINUOUS
 62
    46
100
AcDbLine
 10
13428.532061
 20
18125.995776
 30
0.0
 11
13428.532061
 21
18110.994555
 31
0.0
  0
LINE
  5
BEA
100
AcDbEntity
  8
LY_1
  6
CONTINUOUS
 62
    46
100
AcDbLine
 10
13331.536337
 20
18126.495104
 30
0.0
 11
13335.53786
 21
18127.995828
 31
0.0
  0
LINE
  5
BEB
100
AcDbEntity
  8
LY_1
  6
CONTINUOUS
 62
    46
100
AcDbLine
 10
13335.534014
 20
18127.996508
 30
0.0
 11
13426.53255
 21
18127.996508
 31
0.0
  0
LINE
  5
BEC
100
AcDbEntity
  8
LY_1
  6
CONTINUOUS
 62
    46
100
AcDbLine
 10
13331.531329
 20
18126.495043
 30
0.0
 11
13331.531329
 21
18110.497729
 31
0.0
  0
LINE
  5
BED
100
AcDbEntity
  8
LY_1
  6
CONTINUOUS
 62
    46
100
AcDbLine
 10
13331.536337
 20
18110.498889
 30
0.0
 11
13335.53786
 21
18108.998165
 31
0.0
  0
LINE
  5
BEE
100
AcDbEntity
  8
LY_1
  6
CONTINUOUS
 62
    46
100
AcDbLine
 10
13335.534014
 20
18108.997485
 30
0.0
 11
13426.53255
 21
18108.997485
 31
0.0
  0
LINE
  5
BEF
100
AcDbEntity
  8
LY_1
  6
CONTINUOUS
 62
    46
100
AcDbLine
 10
13196.53255
 20
18138.496996
 30
0.0
 11
13205.53255
 21
18138.496996
 31
0.0
  0
LINE
  5
BF0
100
AcDbEntity
  8
LY_1
  6
CONTINUOUS
 62
    46
100
AcDbLine
 10
13205.53255
 20
18185.996996
 30
0.0
 11
13221.53255
 21
18185.996996
 31
0.0
  0
LINE
  5
BF1
100
AcDbEntity
  8
LY_1
  6
DASHED
 62
    46
100
AcDbLine
 10
13205.53255
 20
18083.496996
 30
0.0
 11
13205.53255
 21
18087.996996
 31
0.0
  0
LINE
  5
BF2
100
AcDbEntity
  8
LY_1
  6
CONTINUOUS
 62
    46
100
AcDbLine
 10
13214.685986
 20
18198.084753
 30
0.0
 11
13217.940738
 21
18185.996996
 31
0.0
  0
LINE
  5
BF3
100
AcDbEntity
  8
LY_1
  6
CONTINUOUS
 62
    46
100
AcDbLine
 10
13200.53255
 20
18149.996996
 30
0.0
 11
13200.53255
 21
18203.024753
 31
0.0
  0
LINE
  5
BF4
100
AcDbEntity
  8
LY_1
  6
CONTINUOUS
 62
    46
100
AcDbLine
 10
13200.53255
 20
18149.996996
 30
0.0
 11
13205.53255
 21
18149.996996
 31
0.0
  0
LINE
  5
BF5
100
AcDbEntity
  8
LY_1
  6
CONTINUOUS
 62
    46
100
AcDbLine
 10
13221.53255
 20
18144.996996
 30
0.0
 11
13223.53255
 21
18142.996996
 31
0.0
  0
ARC
  5
BF6
100
AcDbEntity
  8
LY_1
  6
CONTINUOUS
 62
    46
100
AcDbCircle
 10
13197.120684
 20
18128.883959
 30
0.0
 40
4.591095
100
AcDbArc
 50
131.046414
 51
182.962079
  0
ARC
  5
BF7
100
AcDbEntity
  8
LY_1
  6
CONTINUOUS
 62
    46
100
AcDbCircle
 10
13197.119464
 20
18108.108813
 30
0.0
 40
4.591095
100
AcDbArc
 50
176.756473
 51
228.872878
  0
ARC
  5
BF8
100
AcDbEntity
  8
LY_1
  6
CONTINUOUS
 62
    46
100
AcDbCircle
 10
13184.123858
 20
18128.883959
 30
0.0
 40
4.591095
100
AcDbArc
 50
131.046414
 51
182.962079
  0
ARC
  5
BF9
100
AcDbEntity
  8
LY_1
  6
CONTINUOUS
 62
    46
100
AcDbCircle
 10
13184.122638
 20
18108.108813
 30
0.0
 40
4.591095
100
AcDbArc
 50
176.756473
 51
228.872878
  0
LINE
  5
BFA
100
AcDbEntity
  8
LY_1
  6
CONTINUOUS
 62
    46
100
AcDbLine
 10
13194.111651
 20
18132.343432
 30
0.0
 11
13196.53255
 21
18132.343432
 31
0.0
  0
LINE
  5
BFB
100
AcDbEntity
  8
LY_1
  6
CONTINUOUS
 62
    46
100
AcDbLine
 10
13192.535723
 20
18104.650561
 30
0.0
 11
13192.535723
 21
18132.342211
 31
0.0
  0
LINE
  5
BFC
100
AcDbEntity
  8
LY_1
  6
CONTINUOUS
 62
    46
100
AcDbLine
 10
13181.114825
 20
18132.343432
 30
0.0
 11
13192.538165
 21
18132.343432
 31
0.0
  0
LINE
  5
BFD
100
AcDbEntity
  8
LY_1
  6
CONTINUOUS
 62
    46
100
AcDbLine
 10
13179.538897
 20
18108.368577
 30
0.0
 11
13179.538897
 21
18128.881518
 31
0.0
  0
LINE
  5
BFE
100
AcDbEntity
  8
LY_1
  6
CONTINUOUS
 62
    46
100
AcDbLine
 10
13205.53255
 20
18104.650561
 30
0.0
 11
13205.53255
 21
18132.343432
 31
0.0
  0
LINE
  5
BFF
100
AcDbEntity
  8
LY_1
  6
CONTINUOUS
 62
    46
100
AcDbLine
 10
13181.114825
 20
18104.650561
 30
0.0
 11
13192.538165
 21
18104.650561
 31
0.0
  0
LINE
  5
C00
100
AcDbEntity
  8
LY_1
  6
CONTINUOUS
 62
    46
100
AcDbLine
 10
13194.111651
 20
18104.650561
 30
0.0
 11
13196.53255
 21
18104.650561
 31
0.0
  0
LINE
  5
C01
100
AcDbEntity
  8
LY_1
  6
CONTINUOUS
 62
    46
100
AcDbLine
 10
13222.217733
 20
18170.112753
 30
0.0
 11
13221.53255
 21
18172.657442
 31
0.0
  0
LINE
  5
C02
100
AcDbEntity
  8
LY_1
  6
CONTINUOUS
 62
    46
100
AcDbLine
 10
13183.53255
 20
18048.496996
 30
0.0
 11
13196.53255
 21
18048.496996
 31
0.0
  0
LINE
  5
C03
100
AcDbEntity
  8
LY_1
  6
CONTINUOUS
 62
    46
100
AcDbLine
 10
13176.53255
 20
18068.496996
 30
0.0
 11
13183.53255
 21
18068.496996
 31
0.0
  0
LINE
  5
C04
100
AcDbEntity
  8
LY_1
  6
CONTINUOUS
 62
    46
100
AcDbLine
 10
13221.53255
 20
18142.996996
 30
0.0
 11
13276.53255
 21
18142.996996
 31
0.0
  0
LINE
  5
C05
100
AcDbEntity
  8
LY_1
  6
CONTINUOUS
 62
    46
100
AcDbLine
 10
13221.53255
 20
18093.996996
 30
0.0
 11
13244.03255
 21
18093.996996
 31
0.0
  0
ARC
  5
C06
100
AcDbEntity
  8
LY_1
  6
CONTINUOUS
 62
    46
100
AcDbCircle
 10
13233.03255
 20
18203.024753
 30
0.0
 40
35.0
100
AcDbArc
 50
338.213211
 51
201.786789
  0
ARC
  5
C07
100
AcDbEntity
  8
LY_1
  6
CONTINUOUS
 62
    46
100
AcDbCircle
 10
13233.03255
 20
18203.024753
 30
0.0
 40
19.0
100
AcDbArc
 50
344.929938
 51
195.070062
  0
ARC
  5
C08
100
AcDbEntity
  8
LY_1
  6
CONTINUOUS
 62
    46
100
AcDbCircle
 10
13233.03255
 20
18173.024753
 30
0.0
 40
11.2
100
AcDbArc
 50
195.070062
 51
344.929938
  0
LINE
  5
C09
100
AcDbEntity
  8
LY_1
  6
CONTINUOUS
 62
    46
100
AcDbLine
 10
13223.53255
 20
18142.996996
 30
0.0
 11
13265.53255
 21
18142.996996
 31
0.0
  0
ARC
  5
C0A
100
AcDbEntity
  8
LY_1
  6
CONTINUOUS
 62
    46
100
AcDbCircle
 10
13233.03255
 20
18203.024753
 30
0.0
 40
32.5
100
AcDbArc
 50
0.0
 51
180.0
  0
LINE
  5
C0B
100
AcDbEntity
  8
LY_1
  6
CONTINUOUS
 62
    46
100
AcDbLine
 10
13196.53255
 20
17963.496996
 30
0.0
 11
13205.53255
 21
17963.496996
 31
0.0
  0
LINE
  5
C0C
100
AcDbEntity
  8
LY_1
  6
CONTINUOUS
 62
    46
100
AcDbLine
 10
13205.53255
 20
17963.496996
 30
0.0
 11
13205.53255
 21
18138.496996
 31
0.0
  0
LINE
  5
C0D
100
AcDbEntity
  8
LY_1
  6
CONTINUOUS
 62
    46
100
AcDbLine
 10
13196.53255
 20
17963.496996
 30
0.0
 11
13196.53255
 21
18138.496996
 31
0.0
  0
LINE
  5
C0E
100
AcDbEntity
  8
LY_1
  6
CONTINUOUS
 62
    46
100
AcDbLine
 10
13276.53255
 20
17961.996996
 30
0.0
 11
13276.53255
 21
18087.996996
 31
0.0
  0
CIRCLE
  5
C0F
100
AcDbEntity
  8
LY_1
  6
CONTINUOUS
 62
    46
100
AcDbCircle
 10
13448.53255
 20
18597.496996
 30
0.0
 40
9.5
  0
LINE
  5
C10
100
AcDbEntity
  8
LY_1
  6
CONTINUOUS
 62
    46
100
AcDbLine
 10
13489.079696
 20
18098.442282
 30
0.0
 11
13539.079696
 21
18598.442282
 31
0.0
  0
LINE
  5
C11
100
AcDbEntity
  8
LY_1
  6
CONTINUOUS
 62
    46
100
AcDbLine
 10
13507.985403
 20
18096.551711
 30
0.0
 11
13557.985403
 21
18596.551711
 31
0.0
  0
CIRCLE
  5
C12
100
AcDbEntity
  8
LY_1
  6
CONTINUOUS
 62
    46
100
AcDbCircle
 10
13570.53255
 20
18100.496996
 30
0.0
 40
12.5
  0
ARC
  5
C13
100
AcDbEntity
  8
LY_1
  6
CONTINUOUS
 62
    46
100
AcDbCircle
 10
13498.53255
 20
18097.496996
 30
0.0
 40
9.5
100
AcDbArc
 50
185.710593
 51
354.289407
  0
ARC
  5
C14
100
AcDbEntity
  8
LY_1
  6
CONTINUOUS
 62
    46
100
AcDbCircle
 10
13548.53255
 20
18597.496996
 30
0.0
 40
9.5
100
AcDbArc
 50
354.289407
 51
174.289407
  0
MTEXT
  5
C15
100
AcDbEntity
  8
LY_1
  6
CONTINUOUS
 62
     7
100
AcDbMText
 10
9517.68632
 20
23523.34819
 30
0.0
 40
850.0
 41
0.0
 71
     1
 72
     1
  1
機　   種
  7
MX_NOTE_STANDARD
1001
ACAD
1000
MTEXTBEGIN
1070
    73
1070
     1
1070
    44
1040
0.78
1070
    74
1070
     0
1000
MTEXTEND
  0
MTEXT
  5
C16
100
AcDbEntity
  8
LY_1
  6
CONTINUOUS
 62
     7
100
AcDbMText
 10
9580.513387
 20
24541.00444
 30
0.0
 40
850.0
 41
0.0
 71
     1
 72
     1
  1
ファイル名
  7
MX_NOTE_STANDARD
1001
ACAD
1000
MTEXTBEGIN
1070
    73
1070
     1
1070
    44
1040
0.78
1070
    74
1070
     0
1000
MTEXTEND
  0
LINE
  5
C17
100
AcDbEntity
  8
LY_1
  6
CONTINUOUS
 62
     7
100
AcDbLine
 10
10417.378216
 20
26524.166127
 30
0.0
 11
10417.378216
 21
25936.166127
 31
0.0
  0
LINE
  5
C18
100
AcDbEntity
  8
LY_1
  6
CONTINUOUS
 62
     7
100
AcDbLine
 10
8770.978216
 20
26524.166127
 30
0.0
 11
8770.978216
 21
25642.166127
 31
0.0
  0
LINE
  5
C19
100
AcDbEntity
  8
LY_1
  6
CONTINUOUS
 62
     7
100
AcDbLine
 10
8770.978216
 20
25642.166127
 30
0.0
 11
9917.578216
 21
26524.166127
 31
0.0
  0
LINE
  5
C1A
100
AcDbEntity
  8
LY_1
  6
CONTINUOUS
 62
     7
100
AcDbLine
 10
9064.978216
 20
25348.166127
 30
0.0
 11
9946.978216
 21
26524.166127
 31
0.0
  0
LINE
  5
C1B
100
AcDbEntity
  8
LY_1
  6
CONTINUOUS
 62
     7
100
AcDbLine
 10
9064.978216
 20
25348.166127
 30
0.0
 11
9946.978216
 21
25348.166127
 31
0.0
  0
LINE
  5
C1C
100
AcDbEntity
  8
LY_1
  6
CONTINUOUS
 62
     7
100
AcDbLine
 10
9946.978216
 20
25936.166127
 30
0.0
 11
9946.978216
 21
25348.166127
 31
0.0
  0
LINE
  5
C1D
100
AcDbEntity
  8
LY_1
  6
CONTINUOUS
 62
     7
100
AcDbLine
 10
9946.978216
 20
25936.166127
 30
0.0
 11
10417.378216
 21
25936.166127
 31
0.0
  0
LINE
  5
C1E
100
AcDbEntity
  8
LY_1
  6
CONTINUOUS
 62
     7
100
AcDbLine
 10
8770.978216
 20
26524.166127
 30
0.0
 11
9917.578216
 21
26524.166127
 31
0.0
  0
LINE
  5
C1F
100
AcDbEntity
  8
LY_1
  6
CONTINUOUS
 62
     7
100
AcDbLine
 10
9946.978216
 20
26524.166127
 30
0.0
 11
10417.378216
 21
26524.166127
 31
0.0
  0
ARC
  5
C20
100
AcDbEntity
  8
LY_1
  6
CONTINUOUS
 62
     7
100
AcDbCircle
 10
14204.098216
 20
26273.174127
 30
0.0
 40
260.03796
100
AcDbArc
 50
27.0618
 51
72.7366
  0
ARC
  5
C21
100
AcDbEntity
  8
LY_1
  6
CONTINUOUS
 62
     7
100
AcDbCircle
 10
14147.986216
 20
26273.174127
 30
0.0
 40
260.03964
100
AcDbArc
 50
107.346
 51
153.043
  0
LINE
  5
C22
100
AcDbEntity
  8
LY_1
  6
CONTINUOUS
 62
     7
100
AcDbLine
 10
13638.190216
 20
26524.166127
 30
0.0
 11
13638.190216
 21
26243.438127
 31
0.0
  0
LINE
  5
C23
100
AcDbEntity
  8
LY_1
  6
CONTINUOUS
 62
     7
100
AcDbLine
 10
13806.694216
 20
26524.166127
 30
0.0
 11
13806.694216
 21
25936.166127
 31
0.0
  0
LINE
  5
C24
100
AcDbEntity
  8
LY_1
  6
CONTINUOUS
 62
     7
100
AcDbLine
 10
13265.818216
 20
26524.166127
 30
0.0
 11
13265.818216
 21
25936.166127
 31
0.0
  0
LINE
  5
C25
100
AcDbEntity
  8
LY_1
  6
CONTINUOUS
 62
     7
100
AcDbLine
 10
13022.050216
 20
26524.166127
 30
0.0
 11
13234.906216
 21
25936.166127
 31
0.0
  0
ARC
  5
C26
100
AcDbEntity
  8
LY_1
  6
CONTINUOUS
 62
     7
100
AcDbCircle
 10
12391.042216
 20
26293.670127
 30
0.0
 40
230.48928
100
AcDbArc
 50
23.9328
 51
90.0
  0
LINE
  5
C27
100
AcDbEntity
  8
LY_1
  6
CONTINUOUS
 62
     7
100
AcDbLine
 10
12608.434216
 20
25936.166127
 30
0.0
 11
12821.206216
 21
26524.166127
 31
0.0
  0
LINE
  5
C28
100
AcDbEntity
  8
LY_1
  6
CONTINUOUS
 62
     7
100
AcDbLine
 10
11853.442216
 20
26524.166127
 30
0.0
 11
12066.214216
 21
25936.166127
 31
0.0
  0
LINE
  5
C29
100
AcDbEntity
  8
LY_1
  6
CONTINUOUS
 62
     7
100
AcDbLine
 10
12097.294216
 20
26524.166127
 30
0.0
 11
12097.294216
 21
25936.166127
 31
0.0
  0
LINE
  5
C2A
100
AcDbEntity
  8
LY_1
  6
CONTINUOUS
 62
     7
100
AcDbLine
 10
11519.458216
 20
26524.166127
 30
0.0
 11
11519.458216
 21
26364.566127
 31
0.0
  0
LINE
  5
C2B
100
AcDbEntity
  8
LY_1
  6
CONTINUOUS
 62
     7
100
AcDbLine
 10
11652.514216
 20
26524.166127
 30
0.0
 11
11439.742216
 21
25936.166127
 31
0.0
  0
LINE
  5
C2C
100
AcDbEntity
  8
LY_1
  6
CONTINUOUS
 62
     7
100
AcDbLine
 10
13440.286216
 20
26524.166127
 30
0.0
 11
13613.494216
 21
26242.346127
 31
0.0
  0
LINE
  5
C2D
100
AcDbEntity
  8
LY_1
  6
CONTINUOUS
 62
     7
100
AcDbLine
 10
11005.378216
 20
26524.166127
 30
0.0
 11
11005.378216
 21
26364.566127
 31
0.0
  0
LINE
  5
C2E
100
AcDbEntity
  8
LY_1
  6
CONTINUOUS
 62
     7
100
AcDbLine
 10
13459.102216
 20
26217.902127
 30
0.0
 11
13632.310216
 21
25936.166127
 31
0.0
  0
LINE
  5
C2F
100
AcDbEntity
  8
LY_1
  6
CONTINUOUS
 62
     7
100
AcDbLine
 10
12097.294216
 20
25936.166127
 30
0.0
 11
12376.930216
 21
25936.166127
 31
0.0
  0
LINE
  5
C30
100
AcDbEntity
  8
LY_1
  6
CONTINUOUS
 62
     7
100
AcDbLine
 10
11439.742216
 20
25936.166127
 30
0.0
 11
11631.766216
 21
25936.166127
 31
0.0
  0
LINE
  5
C31
100
AcDbEntity
  8
LY_1
  6
CONTINUOUS
 62
     7
100
AcDbLine
 10
11355.574216
 20
26364.566127
 30
0.0
 11
11355.574216
 21
25936.166127
 31
0.0
  0
LINE
  5
C32
100
AcDbEntity
  8
LY_1
  6
CONTINUOUS
 62
     7
100
AcDbLine
 10
11169.430216
 20
26364.566127
 30
0.0
 11
11169.430216
 21
25936.166127
 31
0.0
  0
LINE
  5
C33
100
AcDbEntity
  8
LY_1
  6
CONTINUOUS
 62
     7
100
AcDbLine
 10
11169.430216
 20
25936.166127
 30
0.0
 11
11355.574216
 21
25936.166127
 31
0.0
  0
LINE
  5
C34
100
AcDbEntity
  8
LY_1
  6
CONTINUOUS
 62
     7
100
AcDbLine
 10
11005.378216
 20
26364.566127
 30
0.0
 11
11169.430216
 21
26364.566127
 31
0.0
  0
LINE
  5
C35
100
AcDbEntity
  8
LY_1
  6
CONTINUOUS
 62
     7
100
AcDbLine
 10
11355.574216
 20
26364.566127
 30
0.0
 11
11519.458216
 21
26364.566127
 31
0.0
  0
LINE
  5
C36
100
AcDbEntity
  8
LY_1
  6
CONTINUOUS
 62
     7
100
AcDbLine
 10
11847.730216
 20
26021.846127
 30
0.0
 11
11874.022216
 21
25936.166127
 31
0.0
  0
LINE
  5
C37
100
AcDbEntity
  8
LY_1
  6
CONTINUOUS
 62
     7
100
AcDbLine
 10
11658.226216
 20
26021.846127
 30
0.0
 11
11631.766216
 21
25936.166127
 31
0.0
  0
LINE
  5
C38
100
AcDbEntity
  8
LY_1
  6
CONTINUOUS
 62
     7
100
AcDbLine
 10
11874.022216
 20
25936.166127
 30
0.0
 11
12066.214216
 21
25936.166127
 31
0.0
  0
LINE
  5
C39
100
AcDbEntity
  8
LY_1
  6
CONTINUOUS
 62
     7
100
AcDbLine
 10
11750.962216
 20
26335.082127
 30
0.0
 11
11755.078216
 21
26335.082127
 31
0.0
  0
ARC
  5
C3A
100
AcDbEntity
  8
LY_1
  6
CONTINUOUS
 62
     7
100
AcDbCircle
 10
11445.622216
 20
26379.350127
 30
0.0
 40
308.47992
100
AcDbArc
 50
342.867
 51
351.73902
  0
ARC
  5
C3B
100
AcDbEntity
  8
LY_1
  6
CONTINUOUS
 62
     7
100
AcDbCircle
 10
12060.250216
 20
26379.350127
 30
0.0
 40
308.47908
100
AcDbArc
 50
188.261
 51
197.133
  0
LINE
  5
C3C
100
AcDbEntity
  8
LY_1
  6
CONTINUOUS
 62
     7
100
AcDbLine
 10
11765.494216
 20
26288.462127
 30
0.0
 11
11809.342216
 21
26145.914127
 31
0.0
  0
LINE
  5
C3D
100
AcDbEntity
  8
LY_1
  6
CONTINUOUS
 62
     7
100
AcDbLine
 10
11696.446216
 20
26145.914127
 30
0.0
 11
11809.342216
 21
26145.914127
 31
0.0
  0
LINE
  5
C3E
100
AcDbEntity
  8
LY_1
  6
CONTINUOUS
 62
     7
100
AcDbLine
 10
11740.462216
 20
26288.462127
 30
0.0
 11
11696.446216
 21
26145.914127
 31
0.0
  0
LINE
  5
C3F
100
AcDbEntity
  8
LY_1
  6
CONTINUOUS
 62
     7
100
AcDbLine
 10
11658.226216
 20
26021.846127
 30
0.0
 11
11847.730216
 21
26021.846127
 31
0.0
  0
LINE
  5
C40
100
AcDbEntity
  8
LY_1
  6
CONTINUOUS
 62
     7
100
AcDbLine
 10
12826.834216
 20
26021.846127
 30
0.0
 11
13016.422216
 21
26021.846127
 31
0.0
  0
LINE
  5
C41
100
AcDbEntity
  8
LY_1
  6
CONTINUOUS
 62
     7
100
AcDbLine
 10
12826.834216
 20
26021.846127
 30
0.0
 11
12800.542216
 21
25936.166127
 31
0.0
  0
ARC
  5
C42
100
AcDbEntity
  8
LY_1
  6
CONTINUOUS
 62
     7
100
AcDbCircle
 10
12376.930216
 20
26187.326127
 30
0.0
 40
251.1726
100
AcDbArc
 50
270.0
 51
341.626
  0
LINE
  5
C43
100
AcDbEntity
  8
LY_1
  6
CONTINUOUS
 62
     7
100
AcDbLine
 10
12608.434216
 20
25936.166127
 30
0.0
 11
12800.542216
 21
25936.166127
 31
0.0
  0
ARC
  5
C44
100
AcDbEntity
  8
LY_1
  6
CONTINUOUS
 62
     7
100
AcDbCircle
 10
12348.202216
 20
26275.862127
 30
0.0
 40
103.42332
100
AcDbArc
 50
22.2133
 51
90.0
  0
ARC
  5
C45
100
AcDbEntity
  8
LY_1
  6
CONTINUOUS
 62
     7
100
AcDbCircle
 10
12236.062216
 20
26230.166127
 30
0.0
 40
224.5782
100
AcDbArc
 50
340.276
 51
22.213
  0
ARC
  5
C46
100
AcDbEntity
  8
LY_1
  6
CONTINUOUS
 62
     7
100
AcDbCircle
 10
12347.362216
 20
26190.266127
 30
0.0
 40
106.38012
100
AcDbArc
 50
270.0
 51
340.276
  0
LINE
  5
C47
100
AcDbEntity
  8
LY_1
  6
CONTINUOUS
 62
     7
100
AcDbLine
 10
12271.510216
 20
26379.350127
 30
0.0
 11
12271.510216
 21
26083.838127
 31
0.0
  0
LINE
  5
C48
100
AcDbEntity
  8
LY_1
  6
CONTINUOUS
 62
     7
100
AcDbLine
 10
12271.510216
 20
26083.838127
 30
0.0
 11
12347.362216
 21
26083.838127
 31
0.0
  0
LINE
  5
C49
100
AcDbEntity
  8
LY_1
  6
CONTINUOUS
 62
     7
100
AcDbLine
 10
12271.510216
 20
26379.350127
 30
0.0
 11
12348.202216
 21
26379.350127
 31
0.0
  0
ARC
  5
C4A
100
AcDbEntity
  8
LY_1
  6
CONTINUOUS
 62
     7
100
AcDbCircle
 10
12247.906216
 20
26230.166127
 30
0.0
 40
387.1014
100
AcDbArc
 50
341.626
 51
23.9327
  0
LINE
  5
C4B
100
AcDbEntity
  8
LY_1
  6
CONTINUOUS
 62
     7
100
AcDbLine
 10
13016.422216
 20
26021.846127
 30
0.0
 11
13042.798216
 21
25936.166127
 31
0.0
  0
LINE
  5
C4C
100
AcDbEntity
  8
LY_1
  6
CONTINUOUS
 62
     7
100
AcDbLine
 10
13434.406216
 20
26216.894127
 30
0.0
 11
13434.406216
 21
25936.166127
 31
0.0
  0
LINE
  5
C4D
100
AcDbEntity
  8
LY_1
  6
CONTINUOUS
 62
     7
100
AcDbLine
 10
13042.798216
 20
25936.166127
 30
0.0
 11
13234.906216
 21
25936.166127
 31
0.0
  0
LINE
  5
C4E
100
AcDbEntity
  8
LY_1
  6
CONTINUOUS
 62
     7
100
AcDbLine
 10
13265.818216
 20
25936.166127
 30
0.0
 11
13434.406216
 21
25936.166127
 31
0.0
  0
LINE
  5
C4F
100
AcDbEntity
  8
LY_1
  6
CONTINUOUS
 62
     7
100
AcDbLine
 10
12934.186216
 20
26288.462127
 30
0.0
 11
12978.118216
 21
26145.914127
 31
0.0
  0
LINE
  5
C50
100
AcDbEntity
  8
LY_1
  6
CONTINUOUS
 62
     7
100
AcDbLine
 10
12919.654216
 20
26335.082127
 30
0.0
 11
12923.602216
 21
26335.082127
 31
0.0
  0
ARC
  5
C51
100
AcDbEntity
  8
LY_1
  6
CONTINUOUS
 62
     7
100
AcDbCircle
 10
13228.942216
 20
26379.350127
 30
0.0
 40
308.47908
100
AcDbArc
 50
188.261
 51
197.133
  0
LINE
  5
C52
100
AcDbEntity
  8
LY_1
  6
CONTINUOUS
 62
     7
100
AcDbLine
 10
12909.154216
 20
26288.462127
 30
0.0
 11
12865.222216
 21
26145.914127
 31
0.0
  0
LINE
  5
C53
100
AcDbEntity
  8
LY_1
  6
CONTINUOUS
 62
     7
100
AcDbLine
 10
12865.222216
 20
26145.914127
 30
0.0
 11
12978.118216
 21
26145.914127
 31
0.0
  0
ARC
  5
C54
100
AcDbEntity
  8
LY_1
  6
CONTINUOUS
 62
     7
100
AcDbCircle
 10
12614.314216
 20
26379.350127
 30
0.0
 40
308.47992
100
AcDbArc
 50
342.867
 51
351.73902
  0
LINE
  5
C55
100
AcDbEntity
  8
LY_1
  6
CONTINUOUS
 62
     7
100
AcDbLine
 10
13431.634216
 20
26261.162127
 30
0.0
 11
13434.994216
 21
26261.162127
 31
0.0
  0
ARC
  5
C56
100
AcDbEntity
  8
LY_1
  6
CONTINUOUS
 62
     7
100
AcDbCircle
 10
13957.306216
 20
26524.166127
 30
0.0
 40
584.85168
100
AcDbArc
 50
206.723
 51
211.578
  0
ARC
  5
C57
100
AcDbEntity
  8
LY_1
  6
CONTINUOUS
 62
     7
100
AcDbCircle
 10
13056.070216
 20
26216.894127
 30
0.0
 40
378.23772
100
AcDbArc
 50
0.0
 51
6.7299
  0
ARC
  5
C58
100
AcDbEntity
  8
LY_1
  6
CONTINUOUS
 62
     7
100
AcDbCircle
 10
14176.042216
 20
26181.026127
 30
0.0
 40
104.47332
100
AcDbArc
 50
195.203
 51
345.311
  0
ARC
  5
C59
100
AcDbEntity
  8
LY_1
  6
CONTINUOUS
 62
     7
100
AcDbCircle
 10
14176.042216
 20
26277.374127
 30
0.0
 40
354.59844
100
AcDbArc
 50
252.699
 51
287.263
  0
ARC
  5
C5A
100
AcDbEntity
  8
LY_1
  6
CONTINUOUS
 62
     7
100
AcDbCircle
 10
14176.042216
 20
26279.306127
 30
0.0
 40
104.47248
100
AcDbArc
 50
14.6894
 51
164.799
  0
ARC
  5
C5B
100
AcDbEntity
  8
LY_1
  6
CONTINUOUS
 62
     7
100
AcDbCircle
 10
14147.986216
 20
26187.074127
 30
0.0
 40
260.03712
100
AcDbArc
 50
206.967
 51
252.685
  0
LINE
  5
C5C
100
AcDbEntity
  8
LY_1
  6
CONTINUOUS
 62
     7
100
AcDbLine
 10
13632.310216
 20
25936.166127
 30
0.0
 11
13806.694216
 21
25936.166127
 31
0.0
  0
ARC
  5
C5D
100
AcDbEntity
  8
LY_1
  6
CONTINUOUS
 62
     7
100
AcDbCircle
 10
13115.206216
 20
25936.166127
 30
0.0
 40
584.84916
100
AcDbArc
 50
26.7228
 51
31.5781
  0
LINE
  5
C5E
100
AcDbEntity
  8
LY_1
  6
CONTINUOUS
 62
     7
100
AcDbLine
 10
13637.602216
 20
26199.086127
 30
0.0
 11
13640.878216
 21
26199.086127
 31
0.0
  0
ARC
  5
C5F
100
AcDbEntity
  8
LY_1
  6
CONTINUOUS
 62
     7
100
AcDbCircle
 10
14016.526216
 20
26243.438127
 30
0.0
 40
378.23772
100
AcDbArc
 50
180.0
 51
186.73
  0
ARC
  5
C60
100
AcDbEntity
  8
LY_1
  6
CONTINUOUS
 62
     7
100
AcDbCircle
 10
14363.614216
 20
26230.166127
 30
0.0
 40
298.452
100
AcDbArc
 50
165.132
 51
194.869
  0
ARC
  5
C61
100
AcDbEntity
  8
LY_1
  6
CONTINUOUS
 62
     7
100
AcDbCircle
 10
14232.154216
 20
26230.166127
 30
0.0
 40
354.59844
100
AcDbArc
 50
152.861
 51
207.131
  0
ARC
  5
C62
100
AcDbEntity
  8
LY_1
  6
CONTINUOUS
 62
     7
100
AcDbCircle
 10
14204.098216
 20
26187.074127
 30
0.0
 40
260.03964
100
AcDbArc
 50
287.263
 51
332.938
  0
ARC
  5
C63
100
AcDbEntity
  8
LY_1
  6
CONTINUOUS
 62
     7
100
AcDbCircle
 10
13988.386216
 20
26230.166127
 30
0.0
 40
298.452
100
AcDbArc
 50
345.311
 51
14.6886
  0
ARC
  5
C64
100
AcDbEntity
  8
LY_1
  6
CONTINUOUS
 62
     7
100
AcDbCircle
 10
14119.846216
 20
26230.166127
 30
0.0
 40
354.59844
100
AcDbArc
 50
332.938
 51
27.062
  0
LINE
  5
C65
100
AcDbEntity
  8
LY_1
  6
CONTINUOUS
 62
     7
100
AcDbLine
 10
12097.294216
 20
26524.166127
 30
0.0
 11
12391.042216
 21
26524.166127
 31
0.0
  0
LINE
  5
C66
100
AcDbEntity
  8
LY_1
  6
CONTINUOUS
 62
     7
100
AcDbLine
 10
11005.378216
 20
26524.166127
 30
0.0
 11
11519.458216
 21
26524.166127
 31
0.0
  0
LINE
  5
C67
100
AcDbEntity
  8
LY_1
  6
CONTINUOUS
 62
     7
100
AcDbLine
 10
11652.514216
 20
26524.166127
 30
0.0
 11
11853.442216
 21
26524.166127
 31
0.0
  0
LINE
  5
C68
100
AcDbEntity
  8
LY_1
  6
CONTINUOUS
 62
     7
100
AcDbLine
 10
12821.206216
 20
26524.166127
 30
0.0
 11
13022.050216
 21
26524.166127
 31
0.0
  0
LINE
  5
C69
100
AcDbEntity
  8
LY_1
  6
CONTINUOUS
 62
     7
100
AcDbLine
 10
13265.818216
 20
26524.166127
 30
0.0
 11
13440.286216
 21
26524.166127
 31
0.0
  0
ARC
  5
C6A
100
AcDbEntity
  8
LY_1
  6
CONTINUOUS
 62
     7
100
AcDbCircle
 10
14176.042216
 20
26182.874127
 30
0.0
 40
354.59844
100
AcDbArc
 50
72.7367
 51
107.323
  0
LINE
  5
C6B
100
AcDbEntity
  8
LY_1
  6
CONTINUOUS
 62
     7
100
AcDbLine
 10
13638.190216
 20
26524.166127
 30
0.0
 11
13806.694216
 21
26524.166127
 31
0.0
  0
MTEXT
  5
C6C
100
AcDbEntity
  8
LY_1
  6
CONTINUOUS
 62
     7
100
AcDbMText
 10
18750.73654
 20
2624.419472
 30
0.0
 40
1000.0
 41
0.0
 71
     7
 72
     1
  1
\W0.888;\A1;FLJ0007
  7
MX_NOTE_STANDARD
1001
ACAD
1000
MTEXTBEGIN
1070
    73
1070
     1
1070
    44
1040
0.66
1070
    74
1070
     0
1000
MTEXTEND
  0
MTEXT
  5
C6D
100
AcDbEntity
  8
LY_1
  6
CONTINUOUS
 62
   234
100
AcDbMText
 10
21307.672384
 20
5091.567924
 30
0.0
 40
350.0
 41
0.0
 71
     1
 72
     1
  1
\A1;25t
  7
MX_NOTE_STANDARD
1001
ACAD
1000
MTEXTBEGIN
1070
    73
1070
     1
1070
    44
1040
0.66
1070
    74
1070
     0
1000
MTEXTEND
  0
LINE
  5
C6E
100
AcDbEntity
  8
LY_1
  6
CONTINUOUS
 62
    46
100
AcDbLine
 10
18944.53255
 20
11390.996996
 30
0.0
 11
21019.53255
 21
11390.996996
 31
0.0
  0
ARC
  5
C6F
100
AcDbEntity
  8
LY_1
  6
CONTINUOUS
 62
   224
100
AcDbCircle
 10
20920.714678
 20
5843.093631
 30
0.0
 40
39.035725
100
AcDbArc
 50
296.589219
 51
108.472609
  0
ARC
  5
C70
100
AcDbEntity
  8
LY_1
  6
CONTINUOUS
 62
   224
100
AcDbCircle
 10
20919.85946
 20
5654.181557
 30
0.0
 40
59.06511
100
AcDbArc
 50
311.676968
 51
0.0
  0
ARC
  5
C71
100
AcDbEntity
  8
LY_1
  6
CONTINUOUS
 62
   224
100
AcDbCircle
 10
20996.64444
 20
5445.181547
 30
0.0
 40
148.11734
100
AcDbArc
 50
131.660939
 51
269.999919
  0
LINE
  5
C75
100
AcDbEntity
  8
LY_1
  6
CONTINUOUS
 62
   224
100
AcDbLine
 10
21079.070542
 20
5701.461094
 30
0.0
 11
20946.931201
 21
5701.461094
 31
0.0
  0
LINE
  5
C76
100
AcDbEntity
  8
LY_1
  6
CONTINUOUS
 62
   224
100
AcDbLine
 10
20839.587034
 20
6354.298058
 30
0.0
 11
21186.414707
 21
6354.298058
 31
0.0
  0
LINE
  5
C77
100
AcDbEntity
  8
LY_1
  6
CONTINUOUS
 62
   224
100
AcDbLine
 10
20949.601056
 20
5682.064197
 30
0.0
 11
21076.400685
 21
5682.064197
 31
0.0
  0
ELLIPSE
  5
C78
100
AcDbEntity
  8
LY_1
  6
CONTINUOUS
 62
   224
100
AcDbEllipse
 10
21013.00087
 20
6419.403379
 30
0.0
 11
0.000000000000006
 21
-97.66082847953217
 31
0.0
210
0.0
220
0.0
230
1.0
 40
0.991386
 41
2.556809860079675
 42
3.726376127778318
  0
ARC
  5
C79
100
AcDbEntity
  8
LY_1
  6
CONTINUOUS
 62
   224
100
AcDbCircle
 10
21013.00087
 20
5445.181547
 30
0.0
 40
50.88698
100
AcDbArc
 50
143.858687
 51
347.640701
  0
ELLIPSE
  5
C7A
100
AcDbEntity
  8
LY_1
  6
CONTINUOUS
 62
   224
100
AcDbEllipse
 10
21282.904191
 20
6008.168125
 30
0.0
 11
0.0000000000000362
 21
-590.8480020467835
 31
0.0
210
0.0
220
0.0
230
1.0
 40
0.991386
 41
3.726375656539419
 42
4.510874347053559
  0
LINE
  5
C7B
100
AcDbEntity
  8
LY_1
  6
CONTINUOUS
 62
   224
100
AcDbLine
 10
20762.969977
 20
6044.425915
 30
0.0
 11
20762.969977
 21
6228.444226
 31
0.0
  0
LINE
  5
C7C
100
AcDbEntity
  8
LY_1
  6
CONTINUOUS
 62
   224
100
AcDbLine
 10
20959.12147
 20
5610.054667
 30
0.0
 11
20898.18748
 21
5555.838817
 31
0.0
  0
ARC
  5
C7D
100
AcDbEntity
  8
LY_1
  6
CONTINUOUS
 62
   224
100
AcDbCircle
 10
20757.239825
 20
6116.657556
 30
0.0
 40
49.220733
100
AcDbArc
 50
168.550958
 51
206.194612
  0
ARC
  5
C7E
100
AcDbEntity
  8
LY_1
  6
CONTINUOUS
 62
   224
100
AcDbCircle
 10
20792.969977
 20
6044.425915
 30
0.0
 40
30.0
100
AcDbArc
 50
180.0
 51
206.194665
  0
LINE
  5
C7F
100
AcDbEntity
  8
LY_1
  6
CONTINUOUS
 62
   224
100
AcDbLine
 10
20766.050993
 20
6031.183246
 30
0.0
 11
20816.467326
 21
5928.699642
 31
0.0
  0
ELLIPSE
  5
C80
100
AcDbEntity
  8
LY_1
  6
CONTINUOUS
 62
   224
100
AcDbEllipse
 10
20829.476647
 20
5935.211157
 30
0.0
 11
0.0000000000000009
 21
14.64911304093567
 31
0.0
210
0.0
220
0.0
230
1.0
 40
0.991386
 41
2.031410358478924
 42
3.602212095794501
  0
ARC
  5
C81
100
AcDbEntity
  8
LY_1
  6
CONTINUOUS
 62
   224
100
AcDbCircle
 10
20949.601056
 20
5735.749811
 30
0.0
 40
53.685614
100
AcDbArc
 50
206.194603
 51
270.0
  0
LINE
  5
C82
100
AcDbEntity
  8
LY_1
  6
CONTINUOUS
 62
   224
100
AcDbLine
 10
20828.058982
 20
5906.78376
 30
0.0
 11
20822.820277
 21
5904.206609
 31
0.0
  0
ARC
  5
C83
100
AcDbEntity
  8
LY_1
  6
CONTINUOUS
 62
   224
100
AcDbCircle
 10
20831.331196
 20
5900.132168
 30
0.0
 40
7.412898
100
AcDbArc
 50
48.634221
 51
116.194626
  0
LINE
  5
C84
100
AcDbEntity
  8
LY_1
  6
CONTINUOUS
 62
   224
100
AcDbLine
 10
20821.176943
 20
5907.547151
 30
0.0
 11
20808.358403
 21
5901.241134
 31
0.0
  0
ARC
  5
C85
100
AcDbEntity
  8
LY_1
  6
CONTINUOUS
 62
   224
100
AcDbCircle
 10
20812.917195
 20
5914.628358
 30
0.0
 40
10.0
100
AcDbArc
 50
206.194603
 51
296.19465
  0
LINE
  5
C86
100
AcDbEntity
  8
LY_1
  6
CONTINUOUS
 62
   224
100
AcDbLine
 10
20887.179453
 20
5860.831757
 30
0.0
 11
20836.230104
 21
5905.69559
 31
0.0
  0
ARC
  5
C87
100
AcDbEntity
  8
LY_1
  6
CONTINUOUS
 62
   224
100
AcDbCircle
 10
20882.280538
 20
5855.268333
 30
0.0
 40
7.412898
100
AcDbArc
 50
329.465205
 51
48.634225
  0
ARC
  5
C88
100
AcDbEntity
  8
LY_1
  6
CONTINUOUS
 62
   224
100
AcDbCircle
 10
20868.390176
 20
5831.719889
 30
0.0
 40
7.412898
100
AcDbArc
 50
296.194618
 51
329.465207
  0
LINE
  5
C89
100
AcDbEntity
  8
LY_1
  6
CONTINUOUS
 62
   224
100
AcDbLine
 10
20871.662387
 20
5825.068295
 30
0.0
 11
20863.683026
 21
5821.142896
 31
0.0
  0
LINE
  5
C8A
100
AcDbEntity
  8
LY_1
  6
CONTINUOUS
 62
   224
100
AcDbLine
 10
20865.319158
 20
5817.817101
 30
0.0
 11
20852.500584
 21
5811.511066
 31
0.0
  0
ARC
  5
C8B
100
AcDbEntity
  8
LY_1
  6
CONTINUOUS
 62
   224
100
AcDbCircle
 10
20865.887793
 20
5806.952288
 30
0.0
 40
10.0
100
AcDbArc
 50
116.19465
 51
206.194603
  0
LINE
  5
C8C
100
AcDbEntity
  8
LY_1
  6
CONTINUOUS
 62
   224
100
AcDbLine
 10
20821.176943
 20
5907.547151
 30
0.0
 11
20865.319158
 21
5817.817101
 31
0.0
  0
LINE
  5
C8D
100
AcDbEntity
  8
LY_1
  6
CONTINUOUS
 62
   224
100
AcDbLine
 10
20874.775054
 20
5827.953674
 30
0.0
 11
20888.665421
 21
5851.502124
 31
0.0
  0
ARC
  5
C8E
100
AcDbEntity
  8
LY_1
  6
CONTINUOUS
 62
   224
100
AcDbCircle
 10
20946.931201
 20
5731.461094
 30
0.0
 40
30.0
100
AcDbArc
 50
206.19451
 51
270.0
  0
LINE
  5
C8F
100
AcDbEntity
  8
LY_1
  6
CONTINUOUS
 62
   224
100
AcDbLine
 10
20890.770918
 20
5887.512842
 30
0.0
 11
20872.742673
 21
5924.160084
 31
0.0
  0
LINE
  5
C90
100
AcDbEntity
  8
LY_1
  6
CONTINUOUS
 62
   224
100
AcDbLine
 10
20835.932142
 20
5922.088727
 30
0.0
 11
20853.27778
 21
5930.770852
 31
0.0
  0
ELLIPSE
  5
C91
100
AcDbEntity
  8
LY_1
  6
CONTINUOUS
 62
   224
100
AcDbEllipse
 10
20859.733275
 20
5917.648568
 30
0.0
 11
0.0000000000000009
 21
-14.64912280701754
 31
0.0
210
0.0
220
0.0
230
1.0
 40
0.991386
 41
2.03141046319868
 42
3.602214172736311
  0
ELLIPSE
  5
C92
100
AcDbEntity
  8
LY_1
  6
CONTINUOUS
 62
   224
100
AcDbEllipse
 10
20903.780248
 20
5894.024357
 30
0.0
 11
0.0000000000000009
 21
-14.64912280701754
 31
0.0
210
0.0
220
0.0
230
1.0
 40
0.991386
 41
5.173002802629206
 42
6.603002206743949
  0
LINE
  5
C93
100
AcDbEntity
  8
LY_1
  6
CONTINUOUS
 62
   224
100
AcDbLine
 10
20938.186709
 20
5808.186388
 30
0.0
 11
20901.098113
 21
5789.62253
 31
0.0
  0
ELLIPSE
  5
C94
100
AcDbEntity
  8
LY_1
  6
CONTINUOUS
 62
   224
100
AcDbEllipse
 10
20907.553618
 20
5776.500109
 30
0.0
 11
0.0000000000000009
 21
-14.64916187134502
 31
0.0
210
0.0
220
0.0
230
1.0
 40
0.991386
 41
3.602210350465251
 42
5.17300850985586
  0
LINE
  5
C95
100
AcDbEntity
  8
LY_1
  6
CONTINUOUS
 62
   224
100
AcDbLine
 10
20894.544298
 20
5769.988594
 30
0.0
 11
20920.012181
 21
5718.218498
 31
0.0
  0
LINE
  5
C96
100
AcDbEntity
  8
LY_1
  6
CONTINUOUS
 62
   224
100
AcDbLine
 10
20901.428957
 20
5712.051836
 30
0.0
 11
20713.074192
 21
6094.930294
 31
0.0
  0
ARC
  5
C97
100
AcDbEntity
  8
LY_1
  6
CONTINUOUS
 62
   224
100
AcDbCircle
 10
20792.969977
 20
6228.444226
 30
0.0
 40
30.0
100
AcDbArc
 50
156.182674
 51
180.0
  0
ELLIPSE
  5
C98
100
AcDbEntity
  8
LY_1
  6
CONTINUOUS
 62
   224
100
AcDbEllipse
 10
20839.587034
 20
6339.648935
 30
0.0
 11
0.0000000000000009
 21
-14.64912280701754
 31
0.0
210
0.0
220
0.0
230
1.0
 40
0.991386
 41
3.141592653589792
 42
4.074499674914031
  0
ELLIPSE
  5
C99
100
AcDbEntity
  8
LY_1
  6
CONTINUOUS
 62
   224
100
AcDbEllipse
 10
21282.844056
 20
6008.22177
 30
0.0
 11
0.000000000000035
 21
-571.2007938596491
 31
0.0
210
0.0
220
0.0
230
1.0
 40
0.991386
 41
4.074499674914031
 42
4.293493041808158
  0
LINE
  5
C9A
100
AcDbEntity
  8
LY_1
  6
CONTINUOUS
 62
    46
100
AcDbLine
 10
18725.555549
 20
11197.021744
 30
0.0
 11
18166.314284
 21
11439.642722
 31
0.0
  0
ELLIPSE
  5
C9B
100
AcDbEntity
  8
LY_1
  6
CONTINUOUS
 62
    46
100
AcDbEllipse
 10
18731.417553
 20
11591.496996
 30
0.0
 11
-585.0000000000007
 21
0.0000000000000716
 31
0.0
210
0.0
220
0.0
230
1.0
 40
0.344444
 41
0.2802792298552674
 42
1.549622354823546
  0
LINE
  5
C9C
100
AcDbEntity
  8
LY_1
  6
CONTINUOUS
 62
    46
100
AcDbLine
 10
17958.357519
 20
11539.996996
 30
0.0
 11
18158.172612
 21
11539.996996
 31
0.0
  0
LINE
  5
C9D
100
AcDbEntity
  8
LY_1
  6
CONTINUOUS
 62
    46
100
AcDbLine
 10
18158.172612
 20
11443.174901
 30
0.0
 11
17958.357519
 21
11529.862591
 31
0.0
  0
LINE
  5
C9E
100
AcDbEntity
  8
LY_1
  6
CONTINUOUS
 62
    46
100
AcDbLine
 10
17958.357519
 20
11529.862591
 30
0.0
 11
17958.357519
 21
11539.996996
 31
0.0
  0
LINE
  5
C9F
100
AcDbEntity
  8
LY_1
  6
CONTINUOUS
 62
    46
100
AcDbLine
 10
18162.382709
 20
11539.996996
 30
0.0
 11
18158.172612
 21
11539.996996
 31
0.0
  0
SPLINE
  5
CA0
100
AcDbEntity
  8
LY_1
  6
CONTINUOUS
 62
    46
100
AcDbSpline
210
0.0
220
0.0
230
-1.0
 70
     8
 71
     3
 72
    20
 73
    16
 74
    14
 42
0.0000001
 43
0.0000001
 44
0.000001
 12
-0.7500804552127596
 22
0.6613465889439663
 32
0.0
 13
-0.944175726680219
 23
0.3294422516130564
 33
0.0
 40
0.0
 40
0.0
 40
0.0
 40
0.0
 40
1.030900335867465
 40
2.026004131924401
 40
2.98604963679808
 40
3.911906054388298
 40
4.271330115365156
 40
4.626440761882216
 40
4.977316248329198
 40
5.324038373263055
 40
5.66669248046713
 40
6.005367570955497
 40
6.340156424766152
 40
7.241492900468516
 40
8.116347302617484
 40
8.116347302617484
 40
8.116347302617484
 40
8.116347302617484
 10
18169.24528671753
 20
11535.75726133142
 30
0.0
 10
18168.98753398646
 20
11535.98452213831
 30
0.0
 10
18168.47290296035
 20
11536.42206959903
 30
0.0
 10
18167.69304259011
 20
11537.04088363669
 30
0.0
 10
18166.91889307605
 20
11537.60954627973
 30
0.0
 10
18166.29859807589
 20
11538.02876378778
 30
0.0
 10
18165.83666849688
 20
11538.3213911247
 30
0.0
 10
18165.53344670847
 20
11538.50630140619
 30
0.0
 10
18165.23070070656
 20
11538.68375601357
 30
0.0
 10
18164.92846029669
 20
11538.85375560354
 30
0.0
 10
18164.62675691708
 20
11539.0162978801
 30
0.0
 10
18164.32562056554
 20
11539.17139078955
 30
0.0
 10
18163.8544358941
 20
11539.40282044043
 30
0.0
 10
18163.21186497636
 20
11539.69054695411
 30
0.0
 10
18162.6580484871
 20
11539.90092461806
 30
0.0
 10
18162.38270972347
 20
11539.99699595275
 30
0.0
 11
18169.24528671753
 21
11535.75726133142
 31
0.0
 11
18168.46005621283
 21
11536.42522136936
 31
0.0
 11
18167.68006697533
 21
11537.04316013231
 31
0.0
 11
18166.90601471742
 21
11537.61107762024
 31
0.0
 11
18166.13855625748
 21
11538.12897383319
 31
0.0
 11
18165.83491065567
 21
11538.32128786228
 31
0.0
 11
18165.53170961653
 21
11538.50614584627
 31
0.0
 11
18165.22898525336
 21
11538.68354778509
 31
0.0
 11
18164.926769162
 21
11538.8534936788
 31
0.0
 11
18164.62509242194
 21
11539.01598352734
 31
0.0
 11
18164.32398559739
 21
11539.17101733076
 31
0.0
 11
18164.02347873857
 21
11539.31859508904
 31
0.0
 11
18163.20041777201
 21
11539.68598869159
 31
0.0
 11
18162.38270972347
 21
11539.99699595275
 31
0.0
  0
LINE
  5
CA1
100
AcDbEntity
  8
LY_1
  6
CONTINUOUS
 62
    46
100
AcDbLine
 10
18158.172612
 20
11443.174901
 30
0.0
 11
18166.314284
 21
11439.642722
 31
0.0
  0
LINE
  5
CA2
100
AcDbEntity
  8
LY_1
  6
CONTINUOUS
 62
    46
100
AcDbLine
 10
18163.864085
 20
11448.684536
 30
0.0
 11
18163.864085
 21
11531.874911
 31
0.0
  0
LINE
  5
CA3
100
AcDbEntity
  8
LY_1
  6
CONTINUOUS
 62
    46
100
AcDbLine
 10
18944.53255
 20
11232.996996
 30
0.0
 11
18944.53255
 21
11591.496996
 31
0.0
  0
LINE
  5
CA4
100
AcDbEntity
  8
LY_1
  6
CONTINUOUS
 62
    46
100
AcDbLine
 10
18935.53255
 20
11232.996996
 30
0.0
 11
18935.53255
 21
11591.496996
 31
0.0
  0
LINE
  5
CA5
100
AcDbEntity
  8
LY_1
  6
CONTINUOUS
 62
    46
100
AcDbLine
 10
18726.53255
 20
11199.519032
 30
0.0
 11
18726.53255
 21
11641.496996
 31
0.0
  0
LINE
  5
CA6
100
AcDbEntity
  8
LY_1
  6
CONTINUOUS
 62
    46
100
AcDbLine
 10
18735.53255
 20
11199.519032
 30
0.0
 11
18735.53255
 21
11641.496996
 31
0.0
  0
LINE
  5
CA7
100
AcDbEntity
  8
LY_1
  6
CONTINUOUS
 62
    46
100
AcDbLine
 10
18823.290957
 20
11145.60098
 30
0.0
 11
18750.732131
 21
11176.520081
 31
0.0
  0
LINE
  5
CA8
100
AcDbEntity
  8
LY_1
  6
CONTINUOUS
 62
    46
100
AcDbLine
 10
18735.53255
 20
11390.996996
 30
0.0
 11
18935.53255
 21
11390.996996
 31
0.0
  0
LINE
  5
CAC
100
AcDbEntity
  8
LY_1
  6
CONTINUOUS
 62
    46
100
AcDbLine
 10
18763.131292
 20
11171.236493
 30
0.0
 11
18759.603141
 21
11162.95687
 31
0.0
  0
LINE
  5
CAD
100
AcDbEntity
  8
LY_1
  6
CONTINUOUS
 62
    46
100
AcDbLine
 10
18747.20398
 20
11168.240458
 30
0.0
 11
18759.603141
 21
11162.95687
 31
0.0
  0
ARC
  5
CAE
100
AcDbEntity
  8
LY_1
  6
CONTINUOUS
 62
    46
100
AcDbCircle
 10
18760.53255
 20
11199.519032
 30
0.0
 40
25.0
100
AcDbArc
 50
180.0
 51
246.919953
  0
ARC
  5
CAF
100
AcDbEntity
  8
LY_1
  6
CONTINUOUS
 62
    46
100
AcDbCircle
 10
18760.53255
 20
11199.519032
 30
0.0
 40
34.0
100
AcDbArc
 50
180.0
 51
246.919953
  0
LINE
  5
CB0
100
AcDbEntity
  8
LY_1
  6
CONTINUOUS
 62
    46
100
AcDbLine
 10
18726.53255
 20
11197.021744
 30
0.0
 11
18725.555549
 21
11197.021744
 31
0.0
  0
LINE
  5
CB1
100
AcDbEntity
  8
LY_1
  6
CONTINUOUS
 62
    46
100
AcDbLine
 10
18726.53255
 20
11379.999525
 30
0.0
 11
18726.53255
 21
11197.021744
 31
0.0
  0
LINE
  5
CB2
100
AcDbEntity
  8
LY_1
  6
CONTINUOUS
 62
    46
100
AcDbLine
 10
18726.53255
 20
11379.999525
 30
0.0
 11
18719.031705
 21
11390.042165
 31
0.0
  0
LINE
  5
CB3
100
AcDbEntity
  8
LY_1
  6
CONTINUOUS
 62
    46
100
AcDbLine
 10
18935.53255
 20
11232.996996
 30
0.0
 11
18944.53255
 21
11232.996996
 31
0.0
  0
LINE
  5
CB4
100
AcDbEntity
  8
LY_1
  6
CONTINUOUS
 62
    46
100
AcDbLine
 10
19040.53255
 20
11384.996996
 30
0.0
 11
19040.53255
 21
11390.996996
 31
0.0
  0
ARC
  5
CB5
100
AcDbEntity
  8
LY_1
  6
CONTINUOUS
 62
    46
100
AcDbCircle
 10
19035.53255
 20
11304.996996
 30
0.0
 40
80.0
100
AcDbArc
 50
90.0
 51
180.0
  0
LINE
  5
CB6
100
AcDbEntity
  8
LY_1
  6
CONTINUOUS
 62
    46
100
AcDbLine
 10
19035.53255
 20
11384.996996
 30
0.0
 11
19040.53255
 21
11384.996996
 31
0.0
  0
LINE
  5
CB7
100
AcDbEntity
  8
LY_1
  6
CONTINUOUS
 62
    46
100
AcDbLine
 10
18955.53255
 20
11232.996996
 30
0.0
 11
18955.53255
 21
11304.996997
 31
0.0
  0
POINT
  5
CB8
100
AcDbEntity
  8
LY_1
  6
CONTINUOUS
 62
    20
100
AcDbPoint
 10
18860.532462
 20
11232.996983
 30
0.0
  0
ARC
  5
CB9
100
AcDbEntity
  8
LY_1
  6
CONTINUOUS
 62
    46
100
AcDbCircle
 10
18860.53255
 20
11232.996996
 30
0.0
 40
95.0
100
AcDbArc
 50
246.919953
 51
0.0
  0
CIRCLE
  5
CBA
100
AcDbEntity
  8
LY_1
  6
CONTINUOUS
 62
    46
100
AcDbCircle
 10
18860.532462
 20
11232.996983
 30
0.0
 40
50.0
  0
LINE
  5
CBB
100
AcDbEntity
  8
LY_1
  6
CONTINUOUS
 62
    46
100
AcDbLine
 10
18726.53255
 20
11631.496996
 30
0.0
 11
18735.53255
 21
11631.496996
 31
0.0
  0
LINE
  5
CBC
100
AcDbEntity
  8
LY_1
  6
CONTINUOUS
 62
    46
100
AcDbLine
 10
18726.53255
 20
11641.496996
 30
0.0
 11
18735.53255
 21
11641.496996
 31
0.0
  0
LINE
  5
CBD
100
AcDbEntity
  8
LY_1
  6
CONTINUOUS
 62
    46
100
AcDbLine
 10
18935.53255
 20
11581.496996
 30
0.0
 11
18944.53255
 21
11581.496996
 31
0.0
  0
LINE
  5
CBE
100
AcDbEntity
  8
LY_1
  6
CONTINUOUS
 62
    46
100
AcDbLine
 10
18935.53255
 20
11591.496996
 30
0.0
 11
18944.53255
 21
11591.496996
 31
0.0
  0
ELLIPSE
  5
CBF
100
AcDbEntity
  8
LY_1
  6
CONTINUOUS
 62
   224
100
AcDbEllipse
 10
20743.097356
 20
6008.168271
 30
0.0
 11
0.0000000000000362
 21
-590.8480020467835
 31
0.0
210
0.0
220
0.0
230
1.0
 40
0.991386
 41
1.772310768139806
 42
2.55680926666773
  0
LINE
  5
CC0
100
AcDbEntity
  8
LY_1
  6
CONTINUOUS
 62
   224
100
AcDbLine
 10
21263.031763
 20
6044.425915
 30
0.0
 11
21263.031763
 21
6228.444226
 31
0.0
  0
LINE
  5
CC1
100
AcDbEntity
  8
LY_1
  6
CONTINUOUS
 62
   224
100
AcDbLine
 10
21047.07695
 20
5682.064197
 30
0.0
 11
21047.07695
 21
5626.920817
 31
0.0
  0
LINE
  5
CC2
100
AcDbEntity
  8
LY_1
  6
CONTINUOUS
 62
   224
100
AcDbLine
 10
20978.92494
 20
5654.181557
 30
0.0
 11
20978.92494
 21
5682.064197
 31
0.0
  0
ARC
  5
CC3
100
AcDbEntity
  8
LY_1
  6
CONTINUOUS
 62
   224
100
AcDbCircle
 10
21105.68779
 20
5491.525237
 30
0.0
 40
18.17386
100
AcDbArc
 50
357.31845
 51
147.735325
  0
ARC
  5
CC4
100
AcDbEntity
  8
LY_1
  6
CONTINUOUS
 62
   224
100
AcDbCircle
 10
21336.29882
 20
5461.491057
 30
0.0
 40
214.45217
100
AcDbArc
 50
172.57966
 51
185.903583
  0
ARC
  5
CC5
100
AcDbEntity
  8
LY_1
  6
CONTINUOUS
 62
   224
100
AcDbCircle
 10
21105.68779
 20
5491.525307
 30
0.0
 40
18.17392
100
AcDbArc
 50
352.580567
 51
357.317986
  0
LINE
  5
CC6
100
AcDbEntity
  8
LY_1
  6
CONTINUOUS
 62
   224
100
AcDbLine
 10
21076.98173
 20
5477.604947
 30
0.0
 11
21074.2659
 21
5477.367597
 31
0.0
  0
LINE
  5
CC7
100
AcDbEntity
  8
LY_1
  6
CONTINUOUS
 62
   224
100
AcDbLine
 10
21074.2659
 20
5477.367597
 30
0.0
 11
21066.23191
 21
5485.786327
 31
0.0
  0
LINE
  5
CC8
100
AcDbEntity
  8
LY_1
  6
CONTINUOUS
 62
   224
100
AcDbLine
 10
21067.55691
 20
5585.328567
 30
0.0
 11
21076.98173
 21
5477.604947
 31
0.0
  0
ARC
  5
CC9
100
AcDbEntity
  8
LY_1
  6
CONTINUOUS
 62
   224
100
AcDbCircle
 10
20897.14218
 20
5626.920817
 30
0.0
 40
149.93478
100
AcDbArc
 50
323.80569
 51
337.496504
  0
ARC
  5
CCA
100
AcDbEntity
  8
LY_1
  6
CONTINUOUS
 62
   224
100
AcDbCircle
 10
21052.50076
 20
5562.476777
 30
0.0
 40
18.25959
100
AcDbArc
 50
135.012923
 51
157.260789
  0
ARC
  5
CCB
100
AcDbEntity
  8
LY_1
  6
CONTINUOUS
 62
   224
100
AcDbCircle
 10
20897.14218
 20
5626.920817
 30
0.0
 40
149.93484
100
AcDbArc
 50
355.764145
 51
0.0
  0
ARC
  5
CCC
100
AcDbEntity
  8
LY_1
  6
CONTINUOUS
 62
   224
100
AcDbCircle
 10
21057.55027
 20
5615.057567
 30
0.0
 40
10.9038
100
AcDbArc
 50
175.67946
 51
207.248416
  0
LINE
  5
CCD
100
AcDbEntity
  8
LY_1
  6
CONTINUOUS
 62
   224
100
AcDbLine
 10
21053.72779
 20
5604.291427
 30
0.0
 11
21048.64944
 21
5606.425747
 31
0.0
  0
ARC
  5
CCE
100
AcDbEntity
  8
LY_1
  6
CONTINUOUS
 62
   224
100
AcDbCircle
 10
21043.89648
 20
5595.116617
 30
0.0
 40
12.26748
100
AcDbArc
 50
67.204164
 51
249.51905
  0
ARC
  5
CCF
100
AcDbEntity
  8
LY_1
  6
CONTINUOUS
 62
   224
100
AcDbCircle
 10
21031.85646
 20
5560.814637
 30
0.0
 40
24.08982
100
AcDbArc
 50
7.741435
 51
71.239126
  0
LINE
  5
CD0
100
AcDbEntity
  8
LY_1
  6
CONTINUOUS
 62
   224
100
AcDbLine
 10
21050.37696
 20
5605.699657
 30
0.0
 11
21047.85698
 21
5610.065347
 31
0.0
  0
LINE
  5
CD1
100
AcDbEntity
  8
LY_1
  6
CONTINUOUS
 62
   224
100
AcDbLine
 10
21045.12306
 20
5580.922057
 30
0.0
 11
21039.58641
 21
5575.385177
 31
0.0
  0
LINE
  5
CD2
100
AcDbEntity
  8
LY_1
  6
CONTINUOUS
 62
   224
100
AcDbLine
 10
20971.9342
 20
5475.231897
 30
0.0
 11
21018.14254
 21
5538.380547
 31
0.0
  0
ARC
  5
CD3
100
AcDbEntity
  8
LY_1
  6
CONTINUOUS
 62
   224
100
AcDbCircle
 10
20996.64444
 20
5424.281657
 30
0.0
 40
127.2174
100
AcDbArc
 50
269.999946
 51
6.813004
  0
ARC
  5
CD4
100
AcDbEntity
  8
LY_1
  6
CONTINUOUS
 62
   224
100
AcDbCircle
 10
21272.43751
 20
5386.939887
 30
0.0
 40
215.00763
100
AcDbArc
 50
147.889824
 51
167.277835
  0
ARC
  5
CD5
100
AcDbEntity
  8
LY_1
  6
CONTINUOUS
 62
   224
100
AcDbCircle
 10
21044.92607
 20
5583.348587
 30
0.0
 40
22.7174
100
AcDbArc
 50
5.000002
 51
67.203563
  0
LINE
  5
CD6
100
AcDbEntity
  8
LY_1
  6
CONTINUOUS
 62
   224
100
AcDbLine
 10
21066.23191
 20
5485.786327
 30
0.0
 11
21055.72654
 21
5564.059487
 31
0.0
  0
LINE
  5
CD7
100
AcDbEntity
  8
LY_1
  6
CONTINUOUS
 62
   224
100
AcDbLine
 10
21124.572784
 20
5712.051836
 30
0.0
 11
21312.927549
 21
6094.930294
 31
0.0
  0
ARC
  5
CD8
100
AcDbEntity
  8
LY_1
  6
CONTINUOUS
 62
   224
100
AcDbCircle
 10
21213.084546
 20
5914.628358
 30
0.0
 40
10.0
100
AcDbArc
 50
243.80535
 51
333.805397
  0
ARC
  5
CD9
100
AcDbEntity
  8
LY_1
  6
CONTINUOUS
 62
   224
100
AcDbCircle
 10
21160.113947
 20
5806.952288
 30
0.0
 40
10.0
100
AcDbArc
 50
333.805397
 51
63.80535
  0
ARC
  5
CDA
100
AcDbEntity
  8
LY_1
  6
CONTINUOUS
 62
   224
100
AcDbCircle
 10
21076.400685
 20
5735.749811
 30
0.0
 40
53.685614
100
AcDbArc
 50
270.0
 51
333.805397
  0
LINE
  5
CDB
100
AcDbEntity
  8
LY_1
  6
CONTINUOUS
 62
   224
100
AcDbLine
 10
21160.682582
 20
5817.817101
 30
0.0
 11
21173.501157
 21
5811.511066
 31
0.0
  0
LINE
  5
CDC
100
AcDbEntity
  8
LY_1
  6
CONTINUOUS
 62
   224
100
AcDbLine
 10
21204.824798
 20
5907.547151
 30
0.0
 11
21160.682582
 21
5817.817101
 31
0.0
  0
LINE
  5
CDD
100
AcDbEntity
  8
LY_1
  6
CONTINUOUS
 62
   224
100
AcDbLine
 10
21204.824798
 20
5907.547151
 30
0.0
 11
21217.643337
 21
5901.241134
 31
0.0
  0
ARC
  5
CDE
100
AcDbEntity
  8
LY_1
  6
CONTINUOUS
 62
   224
100
AcDbCircle
 10
21194.670545
 20
5900.132168
 30
0.0
 40
7.412898
100
AcDbArc
 50
63.805374
 51
131.365779
  0
LINE
  5
CDF
100
AcDbEntity
  8
LY_1
  6
CONTINUOUS
 62
   224
100
AcDbLine
 10
21197.942759
 20
5906.78376
 30
0.0
 11
21203.181463
 21
5904.206609
 31
0.0
  0
LINE
  5
CE0
100
AcDbEntity
  8
LY_1
  6
CONTINUOUS
 62
   224
100
AcDbLine
 10
21138.822288
 20
5860.831757
 30
0.0
 11
21189.771637
 21
5905.69559
 31
0.0
  0
ARC
  5
CE1
100
AcDbEntity
  8
LY_1
  6
CONTINUOUS
 62
   224
100
AcDbCircle
 10
21143.721203
 20
5855.268333
 30
0.0
 40
7.412898
100
AcDbArc
 50
131.365775
 51
210.534795
  0
LINE
  5
CE2
100
AcDbEntity
  8
LY_1
  6
CONTINUOUS
 62
   224
100
AcDbLine
 10
21151.226687
 20
5827.953674
 30
0.0
 11
21137.336319
 21
5851.502124
 31
0.0
  0
LINE
  5
CE3
100
AcDbEntity
  8
LY_1
  6
CONTINUOUS
 62
   224
100
AcDbLine
 10
21154.339353
 20
5825.068295
 30
0.0
 11
21162.318715
 21
5821.142896
 31
0.0
  0
ARC
  5
CE4
100
AcDbEntity
  8
LY_1
  6
CONTINUOUS
 62
   224
100
AcDbCircle
 10
21157.611565
 20
5831.719889
 30
0.0
 40
7.412898
100
AcDbArc
 50
210.534793
 51
243.805382
  0
ARC
  5
CE5
100
AcDbEntity
  8
LY_1
  6
CONTINUOUS
 62
   224
100
AcDbCircle
 10
21233.031763
 20
6044.425915
 30
0.0
 40
30.0
100
AcDbArc
 50
333.805335
 51
0.0
  0
ARC
  5
CE6
100
AcDbEntity
  8
LY_1
  6
CONTINUOUS
 62
   224
100
AcDbCircle
 10
21079.070542
 20
5731.461094
 30
0.0
 40
30.0
100
AcDbArc
 50
270.0
 51
333.805501
  0
LINE
  5
CE7
100
AcDbEntity
  8
LY_1
  6
CONTINUOUS
 62
   224
100
AcDbLine
 10
21131.457433
 20
5769.988594
 30
0.0
 11
21105.989565
 21
5718.218503
 31
0.0
  0
LINE
  5
CE8
100
AcDbEntity
  8
LY_1
  6
CONTINUOUS
 62
   224
100
AcDbLine
 10
21087.764742
 20
5808.211554
 30
0.0
 11
21124.903618
 21
5789.62253
 31
0.0
  0
ELLIPSE
  5
CE9
100
AcDbEntity
  8
LY_1
  6
CONTINUOUS
 62
   224
100
AcDbEllipse
 10
21118.448113
 20
5776.500109
 30
0.0
 11
0.0000000000000009
 21
-14.64916187134502
 31
0.0
210
0.0
220
0.0
230
1.0
 40
0.991386
 41
1.110176570430922
 42
2.680974799634704
  0
LINE
  5
CEA
100
AcDbEntity
  8
LY_1
  6
CONTINUOUS
 62
   224
100
AcDbLine
 10
21135.230813
 20
5887.512842
 30
0.0
 11
21153.259058
 21
5924.160084
 31
0.0
  0
ELLIPSE
  5
CEB
100
AcDbEntity
  8
LY_1
  6
CONTINUOUS
 62
   224
100
AcDbEllipse
 10
21122.221492
 20
5894.024357
 30
0.0
 11
0.0000000000000009
 21
-14.64912280701754
 31
0.0
210
0.0
220
0.0
230
1.0
 40
0.991386
 41
5.963368111272904
 42
7.393367602290455
  0
LINE
  5
CEC
100
AcDbEntity
  8
LY_1
  6
CONTINUOUS
 62
   224
100
AcDbLine
 10
21259.950747
 20
6031.183246
 30
0.0
 11
21209.534414
 21
5928.699642
 31
0.0
  0
LINE
  5
CED
100
AcDbEntity
  8
LY_1
  6
CONTINUOUS
 62
   224
100
AcDbLine
 10
21190.069589
 20
5922.088727
 30
0.0
 11
21172.723883
 21
5930.770852
 31
0.0
  0
ELLIPSE
  5
CEE
100
AcDbEntity
  8
LY_1
  6
CONTINUOUS
 62
   224
100
AcDbEllipse
 10
21196.525094
 20
5935.211157
 30
0.0
 11
0.0000000000000009
 21
-14.64911304093567
 31
0.0
210
0.0
220
0.0
230
1.0
 40
0.991386
 41
5.822565864974875
 42
7.393367602290455
  0
ELLIPSE
  5
CEF
100
AcDbEntity
  8
LY_1
  6
CONTINUOUS
 62
   224
100
AcDbEllipse
 10
21166.268378
 20
5917.648568
 30
0.0
 11
0.0000000000000009
 21
-14.64913257309941
 31
0.0
210
0.0
220
0.0
230
1.0
 40
0.991386
 41
2.680973001945573
 42
4.251774861434197
  0
POINT
  5
CF0
100
AcDbEntity
  8
LY_1
  6
CONTINUOUS
 62
    20
100
AcDbPoint
 10
21013.00087
 20
6136.187004
 30
0.0
  0
ARC
  5
CF1
100
AcDbEntity
  8
LY_1
  6
CONTINUOUS
 62
   224
100
AcDbCircle
 10
21105.287062
 20
5843.093631
 30
0.0
 40
39.035725
100
AcDbArc
 50
71.527391
 51
243.410781
  0
ARC
  5
CF2
100
AcDbEntity
  8
LY_1
  6
CONTINUOUS
 62
   224
100
AcDbCircle
 10
21268.761788
 20
6116.657376
 30
0.0
 40
49.220733
100
AcDbArc
 50
333.805397
 51
11.449023
  0
ARC
  5
CF3
100
AcDbEntity
  8
LY_1
  6
CONTINUOUS
 62
   224
100
AcDbCircle
 10
21233.031763
 20
6228.444226
 30
0.0
 40
30.0
100
AcDbArc
 50
0.0
 51
23.817326
  0
ELLIPSE
  5
CF4
100
AcDbEntity
  8
LY_1
  6
CONTINUOUS
 62
   224
100
AcDbEllipse
 10
21186.414707
 20
6339.648935
 30
0.0
 11
0.0000000000000009
 21
-14.64912280701754
 31
0.0
210
0.0
220
0.0
230
1.0
 40
0.991386
 41
2.20868589406494
 42
3.141592653589792
  0
ELLIPSE
  5
CF5
100
AcDbEntity
  8
LY_1
  6
CONTINUOUS
 62
   224
100
AcDbEllipse
 10
20743.158111
 20
6008.221917
 30
0.0
 11
0.000000000000035
 21
-571.2003250877192
 31
0.0
210
0.0
220
0.0
230
1.0
 40
0.991386
 41
1.989692337078458
 42
2.208685946424818
  0
LINE
  5
CF6
100
AcDbEntity
  8
LY_1
  6
CONTINUOUS
 62
    46
100
AcDbLine
 10
21194.552668
 20
11494.996996
 30
0.0
 11
21231.099798
 21
11590.688134
 31
0.0
  0
LINE
  5
CF7
100
AcDbEntity
  8
LY_1
  6
CONTINUOUS
 62
    46
100
AcDbLine
 10
21019.53255
 20
11395.996996
 30
0.0
 11
21019.53255
 21
11691.496996
 31
0.0
  0
LINE
  5
CF8
100
AcDbEntity
  8
LY_1
  6
CONTINUOUS
 62
    46
100
AcDbLine
 10
21025.53255
 20
11684.681705
 30
0.0
 11
21025.53255
 21
11382.996996
 31
0.0
  0
LINE
  5
CF9
100
AcDbEntity
  8
LY_1
  6
CONTINUOUS
 62
    46
100
AcDbLine
 10
21019.53255
 20
11684.681705
 30
0.0
 11
21019.53255
 21
11382.996996
 31
0.0
  0
LINE
  5
CFA
100
AcDbEntity
  8
LY_1
  6
CONTINUOUS
 62
    46
100
AcDbLine
 10
21120.53255
 20
11397.496996
 30
0.0
 11
21157.542609
 21
11423.996996
 31
0.0
  0
LINE
  5
CFB
100
AcDbEntity
  8
LY_1
  6
CONTINUOUS
 62
    46
100
AcDbLine
 10
21120.53255
 20
11397.496996
 30
0.0
 11
21120.53255
 21
11390.996996
 31
0.0
  0
LINE
  5
CFC
100
AcDbEntity
  8
LY_1
  6
CONTINUOUS
 62
    46
100
AcDbLine
 10
21157.542609
 20
11423.996996
 30
0.0
 11
21194.552668
 21
11494.996996
 31
0.0
  0
LINE
  5
CFD
100
AcDbEntity
  8
LY_1
  6
CONTINUOUS
 62
    46
100
AcDbLine
 10
21019.53255
 20
11382.996996
 30
0.0
 11
21025.53255
 21
11382.996996
 31
0.0
  0
LINE
  5
CFE
100
AcDbEntity
  8
LY_1
  6
CONTINUOUS
 62
    46
100
AcDbLine
 10
21030.53255
 20
11491.87707
 30
0.0
 11
21187.287819
 21
11491.87707
 31
0.0
  0
LINE
  5
CFF
100
AcDbEntity
  8
LY_1
  6
CONTINUOUS
 62
    46
100
AcDbLine
 10
21030.53255
 20
11418.631641
 30
0.0
 11
21141.460799
 21
11418.631641
 31
0.0
  0
LINE
  5
D00
100
AcDbEntity
  8
LY_1
  6
CONTINUOUS
 62
    46
100
AcDbLine
 10
21025.53255
 20
11390.996996
 30
0.0
 11
21120.53255
 21
11390.996996
 31
0.0
  0
LINE
  5
D01
100
AcDbEntity
  8
LY_1
  6
CONTINUOUS
 62
    46
100
AcDbLine
 10
21160.53255
 20
12056.613338
 30
0.0
 11
21160.53255
 21
12084.496996
 31
0.0
  0
LINE
  5
D02
100
AcDbEntity
  8
LY_1
  6
CONTINUOUS
 62
    46
100
AcDbLine
 10
21160.53255
 20
11937.188119
 30
0.0
 11
21160.53255
 21
12087.996996
 31
0.0
  0
LINE
  5
D03
100
AcDbEntity
  8
LY_1
  6
CONTINUOUS
 62
    46
100
AcDbLine
 10
21166.53255
 20
11937.312288
 30
0.0
 11
21166.53255
 21
12087.996996
 31
0.0
  0
LINE
  5
D04
100
AcDbEntity
  8
LY_1
  6
CONTINUOUS
 62
    46
100
AcDbLine
 10
21392.603618
 20
11990.925928
 30
0.0
 11
21295.53255
 21
12087.996996
 31
0.0
  0
CIRCLE
  5
D08
100
AcDbEntity
  8
LY_1
  6
CONTINUOUS
 62
    46
100
AcDbCircle
 10
21260.53255
 20
11932.996996
 30
0.0
 40
57.5
  0
CIRCLE
  5
D09
100
AcDbEntity
  8
LY_1
  6
CONTINUOUS
 62
    46
100
AcDbCircle
 10
21260.53255
 20
11932.996996
 30
0.0
 40
76.2
  0
LINE
  5
D0A
100
AcDbEntity
  8
LY_1
  6
CONTINUOUS
 62
    46
100
AcDbLine
 10
21231.099798
 20
11590.688134
 30
0.0
 11
21394.211645
 21
11875.689015
 31
0.0
  0
POINT
  5
D0B
100
AcDbEntity
  8
LY_1
  6
CONTINUOUS
 62
    20
100
AcDbPoint
 10
21260.53255
 20
11932.996996
 30
0.0
  0
CIRCLE
  5
D0C
100
AcDbEntity
  8
LY_1
  6
CONTINUOUS
 62
    46
100
AcDbCircle
 10
21101.53255
 20
11632.996996
 30
0.0
 40
37.5
  0
LINE
  5
D0D
100
AcDbEntity
  8
LY_1
  6
CONTINUOUS
 62
    46
100
AcDbLine
 10
21159.181935
 20
11932.169341
 30
0.0
 11
21118.357501
 21
11861.812338
 31
0.0
  0
ARC
  5
D0E
100
AcDbEntity
  8
LY_1
  6
CONTINUOUS
 62
    46
100
AcDbCircle
 10
21150.53255
 20
11937.188119
 30
0.0
 40
10.0
100
AcDbArc
 50
329.875682
 51
0.0
  0
LINE
  5
D0F
100
AcDbEntity
  8
LY_1
  6
CONTINUOUS
 62
    46
100
AcDbLine
 10
21146.853187
 20
11590.688134
 30
0.0
 11
21225.338829
 21
11590.688134
 31
0.0
  0
ARC
  5
D10
100
AcDbEntity
  8
LY_1
  6
CONTINUOUS
 62
    46
100
AcDbCircle
 10
21144.53255
 20
11937.312288
 30
0.0
 40
16.0
100
AcDbArc
 50
329.812283
 51
0.0
  0
ARC
  5
D11
100
AcDbEntity
  8
LY_1
  6
CONTINUOUS
 62
    46
100
AcDbCircle
 10
21144.53255
 20
11937.312288
 30
0.0
 40
22.0
100
AcDbArc
 50
329.812283
 51
0.0
  0
LINE
  5
D12
100
AcDbEntity
  8
LY_1
  6
CONTINUOUS
 62
    46
100
AcDbLine
 10
21030.53255
 20
11590.688134
 30
0.0
 11
21056.211912
 21
11590.688134
 31
0.0
  0
ARC
  5
D13
100
AcDbEntity
  8
LY_1
  6
CONTINUOUS
 62
    46
100
AcDbCircle
 10
21041.53255
 20
11684.681705
 30
0.0
 40
16.0
100
AcDbArc
 50
149.812283
 51
180.0
  0
ARC
  5
D14
100
AcDbEntity
  8
LY_1
  6
CONTINUOUS
 62
    46
100
AcDbCircle
 10
21041.53255
 20
11684.681705
 30
0.0
 40
22.0
100
AcDbArc
 50
149.812283
 51
180.0
  0
LINE
  5
D15
100
AcDbEntity
  8
LY_1
  6
CONTINUOUS
 62
    46
100
AcDbLine
 10
21118.357501
 20
11861.812338
 30
0.0
 11
21019.53255
 21
11691.496996
 31
0.0
  0
LINE
  5
D16
100
AcDbEntity
  8
LY_1
  6
CONTINUOUS
 62
    46
100
AcDbLine
 10
21027.702428
 20
11692.727059
 30
0.0
 11
21163.548967
 21
11926.249925
 31
0.0
  0
LINE
  5
D17
100
AcDbEntity
  8
LY_1
  6
CONTINUOUS
 62
    46
100
AcDbLine
 10
21022.516132
 20
11695.744067
 30
0.0
 11
21158.362672
 21
11929.266933
 31
0.0
  0
CIRCLE
  5
D18
100
AcDbEntity
  8
LY_1
  6
CONTINUOUS
 62
    46
100
AcDbCircle
 10
21101.53255
 20
11632.996996
 30
0.0
 40
57.0
  0
LINE
  5
D19
100
AcDbEntity
  8
LY_1
  6
CONTINUOUS
 62
    46
100
AcDbLine
 10
21395.53255
 20
11880.656239
 30
0.0
 11
21395.53255
 21
11983.854861
 31
0.0
  0
ARC
  5
D1A
100
AcDbEntity
  8
LY_1
  6
CONTINUOUS
 62
    46
100
AcDbCircle
 10
21385.53255
 20
11983.854861
 30
0.0
 40
10.0
100
AcDbArc
 50
0.0
 51
45.0
  0
ARC
  5
D1B
100
AcDbEntity
  8
LY_1
  6
CONTINUOUS
 62
    46
100
AcDbCircle
 10
21385.53255
 20
11880.656239
 30
0.0
 40
10.0
100
AcDbArc
 50
330.216609
 51
0.0
  0
LINE
  5
D1C
100
AcDbEntity
  8
LY_1
  6
CONTINUOUS
 62
    46
100
AcDbLine
 10
21060.53255
 20
12087.996996
 30
0.0
 11
21295.53255
 21
12087.996996
 31
0.0
  0
LINE
  5
D1D
100
AcDbEntity
  8
LY_1
  6
CONTINUOUS
 62
    46
100
AcDbLine
 10
21060.53255
 20
12093.996996
 30
0.0
 11
21295.53255
 21
12093.996996
 31
0.0
  0
LINE
  5
D1E
100
AcDbEntity
  8
LY_1
  6
CONTINUOUS
 62
    46
100
AcDbLine
 10
21150.53255
 20
12087.996996
 30
0.0
 11
21150.53255
 21
12093.996996
 31
0.0
  0
LINE
  5
D1F
100
AcDbEntity
  8
LY_1
  6
CONTINUOUS
 62
    46
100
AcDbLine
 10
21060.53255
 20
12087.996996
 30
0.0
 11
21060.53255
 21
12093.996996
 31
0.0
  0
LINE
  5
D20
100
AcDbEntity
  8
LY_1
  6
CONTINUOUS
 62
    46
100
AcDbLine
 10
21295.53255
 20
12093.996996
 30
0.0
 11
21295.53255
 21
12087.996996
 31
0.0
  0
MTEXT
  5
D21
100
AcDbEntity
  8
LY_1
  6
CONTINUOUS
 62
     7
100
AcDbMText
 10
26470.18761
 20
2624.419472
 30
0.0
 40
1000.0
 41
0.0
 71
     7
 72
     1
  1
\W0.888;\A1;FLJ0008
  7
MX_NOTE_STANDARD
1001
ACAD
1000
MTEXTBEGIN
1070
    73
1070
     1
1070
    44
1040
0.66
1070
    74
1070
     0
1000
MTEXTEND
  0
MTEXT
  5
D22
100
AcDbEntity
  8
LY_1
  6
CONTINUOUS
 62
   234
100
AcDbMText
 10
29076.526259
 20
5019.985418
 30
0.0
 40
350.0
 41
0.0
 71
     1
 72
     1
  1
\W1.200;\A1;7.8t
  7
MX_NOTE_STANDARD
1001
ACAD
1000
MTEXTBEGIN
1070
    73
1070
     1
1070
    44
1040
0.66
1070
    74
1070
     0
1000
MTEXTEND
  0
LINE
  5
D26
100
AcDbEntity
  8
LY_1
  6
CONTINUOUS
 62
   224
100
AcDbLine
 10
28862.481697
 20
5560.825157
 30
0.0
 11
28862.481697
 21
6067.845059
 31
0.0
  0
LINE
  5
D27
100
AcDbEntity
  8
LY_1
  6
CONTINUOUS
 62
   224
100
AcDbLine
 10
28582.613842
 20
6067.845059
 30
0.0
 11
28582.613842
 21
5488.222627
 31
0.0
  0
ARC
  5
D28
100
AcDbEntity
  8
LY_1
  6
CONTINUOUS
 62
   224
100
AcDbCircle
 10
28705.355916
 20
5323.944984
 30
0.0
 40
95.516846
100
AcDbArc
 50
304.474372
 51
5.610185
  0
ARC
  5
D29
100
AcDbEntity
  8
LY_1
  6
CONTINUOUS
 62
   224
100
AcDbCircle
 10
28953.346773
 20
5275.163397
 30
0.0
 40
202.984352
100
AcDbArc
 50
150.534993
 51
166.385394
  0
LINE
  5
D2A
100
AcDbEntity
  8
LY_1
  6
CONTINUOUS
 62
   224
100
AcDbLine
 10
28764.479769
 20
5362.817495
 30
0.0
 11
28763.761161
 21
5363.057427
 31
0.0
  0
LINE
  5
D2B
100
AcDbEntity
  8
LY_1
  6
CONTINUOUS
 62
   224
100
AcDbLine
 10
28770.470338
 20
5363.774993
 30
0.0
 11
28757.052074
 21
5440.930804
 31
0.0
  0
LINE
  5
D2C
100
AcDbEntity
  8
LY_1
  6
CONTINUOUS
 62
   224
100
AcDbLine
 10
28852.418412
 20
5478.158391
 30
0.0
 11
28592.677087
 21
5478.158391
 31
0.0
  0
LINE
  5
D2D
100
AcDbEntity
  8
LY_1
  6
CONTINUOUS
 62
   224
100
AcDbLine
 10
28582.613842
 20
5488.222627
 30
0.0
 11
28862.481697
 21
5488.222627
 31
0.0
  0
LINE
  5
D2E
100
AcDbEntity
  8
LY_1
  6
CONTINUOUS
 62
   224
100
AcDbLine
 10
28740.039765
 20
5426.794889
 30
0.0
 11
28744.458489
 21
5431.213189
 31
0.0
  0
ARC
  5
D2F
100
AcDbEntity
  8
LY_1
  6
CONTINUOUS
 62
   224
100
AcDbCircle
 10
28738.33358
 20
5425.882761
 30
0.0
 40
8.119604
100
AcDbArc
 50
18.278977
 51
69.392591
  0
ARC
  5
D30
100
AcDbEntity
  8
LY_1
  6
CONTINUOUS
 62
   224
100
AcDbCircle
 10
28756.388459
 20
5444.123017
 30
0.0
 40
3.260462
100
AcDbArc
 50
190.513795
 51
281.743696
  0
ARC
  5
D31
100
AcDbEntity
  8
LY_1
  6
CONTINUOUS
 62
   224
100
AcDbCircle
 10
28744.352392
 20
5441.889267
 30
0.0
 40
8.981107
100
AcDbArc
 50
10.513795
 51
249.392591
  0
LINE
  5
D32
100
AcDbEntity
  8
LY_1
  6
CONTINUOUS
 62
   224
100
AcDbLine
 10
28735.539544
 20
5436.072826
 30
0.0
 11
28740.369448
 21
5426.027302
 31
0.0
  0
ARC
  5
D33
100
AcDbEntity
  8
LY_1
  6
CONTINUOUS
 62
   224
100
AcDbCircle
 10
28744.546898
 20
5441.882653
 30
0.0
 40
10.718512
100
AcDbArc
 50
113.466397
 51
212.822393
  0
LINE
  5
D34
100
AcDbEntity
  8
LY_1
  6
CONTINUOUS
 62
   224
100
AcDbLine
 10
28748.905693
 20
5455.548491
 30
0.0
 11
28740.278667
 21
5451.714678
 31
0.0
  0
ARC
  5
D35
100
AcDbEntity
  8
LY_1
  6
CONTINUOUS
 62
   224
100
AcDbCircle
 10
28646.104517
 20
5460.572728
 30
0.0
 40
102.923878
100
AcDbArc
 50
357.20199
 51
9.837876
  0
ARC
  5
D36
100
AcDbEntity
  8
LY_1
  6
CONTINUOUS
 62
   224
100
AcDbCircle
 10
28601.543391
 20
5499.482439
 30
0.0
 40
157.061552
100
AcDbArc
 50
314.43724
 51
332.115951
  0
ARC
  5
D37
100
AcDbEntity
  8
LY_1
  6
CONTINUOUS
 62
   224
100
AcDbCircle
 10
28771.663189
 20
5325.987542
 30
0.0
 40
85.922449
100
AcDbArc
 50
134.43724
 51
164.574427
  0
ARC
  5
D38
100
AcDbEntity
  8
LY_1
  6
CONTINUOUS
 62
   224
100
AcDbCircle
 10
28757.111973
 20
5311.409731
 30
0.0
 40
154.928993
100
AcDbArc
 50
131.345793
 51
158.030796
  0
ARC
  5
D39
100
AcDbEntity
  8
LY_1
  6
CONTINUOUS
 62
   224
100
AcDbCircle
 10
28722.562644
 20
5336.182607
 30
0.0
 40
36.024216
100
AcDbArc
 50
159.426642
 51
338.438744
  0
LINE
  5
D3A
100
AcDbEntity
  8
LY_1
  6
CONTINUOUS
 62
   224
100
AcDbLine
 10
28746.029299
 20
5428.471946
 30
0.0
 11
28746.509089
 21
5427.032755
 31
0.0
  0
LINE
  5
D3B
100
AcDbEntity
  8
LY_1
  6
CONTINUOUS
 62
   224
100
AcDbLine
 10
28763.761161
 20
5363.057427
 30
0.0
 11
28763.042559
 21
5363.297195
 31
0.0
  0
LINE
  5
D3C
100
AcDbEntity
  8
LY_1
  6
CONTINUOUS
 62
   224
100
AcDbLine
 10
28763.042559
 20
5363.297195
 30
0.0
 11
28762.562859
 21
5364.014846
 31
0.0
  0
LINE
  5
D3D
100
AcDbEntity
  8
LY_1
  6
CONTINUOUS
 62
   224
100
AcDbLine
 10
28762.562859
 20
5364.014846
 30
0.0
 11
28762.323957
 21
5364.734399
 31
0.0
  0
LINE
  5
D3E
100
AcDbEntity
  8
LY_1
  6
CONTINUOUS
 62
   224
100
AcDbLine
 10
28746.509089
 20
5427.032755
 30
0.0
 11
28762.323957
 21
5364.734399
 31
0.0
  0
LINE
  5
D3F
100
AcDbEntity
  8
LY_1
  6
CONTINUOUS
 62
   224
100
AcDbLine
 10
28750.350438
 20
5448.573856
 30
0.0
 11
28748.273342
 21
5455.267477
 31
0.0
  0
LINE
  5
D40
100
AcDbEntity
  8
LY_1
  6
CONTINUOUS
 62
   224
100
AcDbLine
 10
28697.727663
 20
5478.158391
 30
0.0
 11
28696.909444
 21
5474.477625
 31
0.0
  0
LINE
  5
D41
100
AcDbEntity
  8
LY_1
  6
CONTINUOUS
 62
   224
100
AcDbLine
 10
28696.909444
 20
5474.477625
 30
0.0
 11
28695.711136
 21
5470.164112
 31
0.0
  0
LINE
  5
D42
100
AcDbEntity
  8
LY_1
  6
CONTINUOUS
 62
   224
100
AcDbLine
 10
28695.711136
 20
5470.164112
 30
0.0
 11
28694.512835
 21
5466.090446
 31
0.0
  0
LINE
  5
D43
100
AcDbEntity
  8
LY_1
  6
CONTINUOUS
 62
   224
100
AcDbLine
 10
28694.512835
 20
5466.090446
 30
0.0
 11
28693.55438
 21
5463.453984
 31
0.0
  0
LINE
  5
D44
100
AcDbEntity
  8
LY_1
  6
CONTINUOUS
 62
   224
100
AcDbLine
 10
28693.55438
 20
5463.453984
 30
0.0
 11
28692.356078
 21
5461.299214
 31
0.0
  0
LINE
  5
D45
100
AcDbEntity
  8
LY_1
  6
CONTINUOUS
 62
   224
100
AcDbLine
 10
28692.356078
 20
5461.299214
 30
0.0
 11
28690.679021
 21
5459.142372
 31
0.0
  0
LINE
  5
D46
100
AcDbEntity
  8
LY_1
  6
CONTINUOUS
 62
   224
100
AcDbLine
 10
28690.679021
 20
5459.142372
 30
0.0
 11
28688.283363
 21
5456.50591
 31
0.0
  0
LINE
  5
D47
100
AcDbEntity
  8
LY_1
  6
CONTINUOUS
 62
   224
100
AcDbLine
 10
28688.283363
 20
5456.50591
 30
0.0
 11
28679.897174
 21
5448.598431
 31
0.0
  0
LINE
  5
D48
100
AcDbEntity
  8
LY_1
  6
CONTINUOUS
 62
   224
100
AcDbLine
 10
28679.897174
 20
5448.598431
 30
0.0
 11
28668.155882
 21
5439.013895
 31
0.0
  0
LINE
  5
D49
100
AcDbEntity
  8
LY_1
  6
CONTINUOUS
 62
   224
100
AcDbLine
 10
28668.155882
 20
5439.013895
 30
0.0
 11
28654.737578
 21
5427.752393
 31
0.0
  0
ARC
  5
D4A
100
AcDbEntity
  8
LY_1
  6
CONTINUOUS
 62
   224
100
AcDbCircle
 10
28709.315741
 20
5334.197043
 30
0.0
 40
102.130338
100
AcDbArc
 50
159.855301
 51
299.380767
  0
LINE
  5
D4B
100
AcDbEntity
  8
LY_1
  6
CONTINUOUS
 62
   224
100
AcDbLine
 10
28582.613842
 20
5488.222627
 30
0.0
 11
28592.677087
 21
5478.158391
 31
0.0
  0
LINE
  5
D4C
100
AcDbEntity
  8
LY_1
  6
CONTINUOUS
 62
   224
100
AcDbLine
 10
28862.481697
 20
5560.825157
 30
0.0
 11
28862.481697
 21
5560.585304
 31
0.0
  0
LINE
  5
D4D
100
AcDbEntity
  8
LY_1
  6
CONTINUOUS
 62
   224
100
AcDbLine
 10
28862.481697
 20
5560.585304
 30
0.0
 11
28862.481697
 21
5559.865751
 31
0.0
  0
LINE
  5
D4E
100
AcDbEntity
  8
LY_1
  6
CONTINUOUS
 62
   224
100
AcDbLine
 10
28862.481697
 20
5559.865751
 30
0.0
 11
28862.24185
 21
5559.865751
 31
0.0
  0
LINE
  5
D4F
100
AcDbEntity
  8
LY_1
  6
CONTINUOUS
 62
   224
100
AcDbLine
 10
28862.24185
 20
5559.865751
 30
0.0
 11
28862.24185
 21
5555.552238
 31
0.0
  0
LINE
  5
D50
100
AcDbEntity
  8
LY_1
  6
CONTINUOUS
 62
   224
100
AcDbLine
 10
28862.002948
 20
5555.314287
 30
0.0
 11
28862.002948
 21
5541.416323
 31
0.0
  0
LINE
  5
D51
100
AcDbEntity
  8
LY_1
  6
CONTINUOUS
 62
   224
100
AcDbLine
 10
28862.24185
 20
5539.499414
 30
0.0
 11
28862.24185
 21
5536.623019
 31
0.0
  0
LINE
  5
D52
100
AcDbEntity
  8
LY_1
  6
CONTINUOUS
 62
   224
100
AcDbLine
 10
28862.24185
 20
5536.623019
 30
0.0
 11
28862.481697
 21
5536.623019
 31
0.0
  0
LINE
  5
D53
100
AcDbEntity
  8
LY_1
  6
CONTINUOUS
 62
   224
100
AcDbLine
 10
28862.481697
 20
5536.623019
 30
0.0
 11
28862.481697
 21
5535.905363
 31
0.0
  0
LINE
  5
D54
100
AcDbEntity
  8
LY_1
  6
CONTINUOUS
 62
   224
100
AcDbLine
 10
28862.481697
 20
5535.905363
 30
0.0
 11
28862.481697
 21
5535.6656
 31
0.0
  0
LINE
  5
D55
100
AcDbEntity
  8
LY_1
  6
CONTINUOUS
 62
   224
100
AcDbLine
 10
28862.24185
 20
5539.499414
 30
0.0
 11
28862.002948
 21
5541.416323
 31
0.0
  0
LINE
  5
D56
100
AcDbEntity
  8
LY_1
  6
CONTINUOUS
 62
   224
100
AcDbLine
 10
28862.002948
 20
5555.314287
 30
0.0
 11
28862.24185
 21
5555.552238
 31
0.0
  0
ARC
  5
D57
100
AcDbEntity
  8
LY_1
  6
CONTINUOUS
 62
   224
100
AcDbCircle
 10
28787.946545
 20
5368.609038
 30
0.0
 40
13.012451
100
AcDbArc
 50
352.882532
 51
150.534993
  0
ARC
  5
D58
100
AcDbEntity
  8
LY_1
  6
CONTINUOUS
 62
   224
100
AcDbCircle
 10
28951.782132
 20
5348.151512
 30
0.0
 40
152.095424
100
AcDbArc
 50
172.882532
 51
185.610185
  0
LINE
  5
D59
100
AcDbEntity
  8
LY_1
  6
CONTINUOUS
 62
   224
100
AcDbLine
 10
28765.19837
 20
5362.817495
 30
0.0
 11
28764.479769
 21
5362.817495
 31
0.0
  0
LINE
  5
D5A
100
AcDbEntity
  8
LY_1
  6
CONTINUOUS
 62
   224
100
AcDbLine
 10
28770.470338
 20
5363.774993
 30
0.0
 11
28768.553429
 21
5363.297195
 31
0.0
  0
LINE
  5
D5B
100
AcDbEntity
  8
LY_1
  6
CONTINUOUS
 62
   224
100
AcDbLine
 10
28765.19837
 20
5362.817495
 30
0.0
 11
28768.553429
 21
5363.297195
 31
0.0
  0
LINE
  5
D5C
100
AcDbEntity
  8
LY_1
  6
CONTINUOUS
 62
   224
100
AcDbLine
 10
28852.418412
 20
5478.158391
 30
0.0
 11
28862.481697
 21
5488.222627
 31
0.0
  0
LINE
  5
D5D
100
AcDbEntity
  8
LY_1
  6
CONTINUOUS
 62
   224
100
AcDbLine
 10
28862.481697
 20
5488.222627
 30
0.0
 11
28862.481697
 21
5535.6656
 31
0.0
  0
LINE
  5
D5E
100
AcDbEntity
  8
LY_1
  6
CONTINUOUS
 62
   224
100
AcDbLine
 10
28592.677087
 20
6077.9093
 30
0.0
 11
28852.418412
 21
6077.9093
 31
0.0
  0
ARC
  5
D5F
100
AcDbEntity
  8
LY_1
  6
CONTINUOUS
 62
   224
100
AcDbCircle
 10
28722.562644
 20
6133.158391
 30
0.0
 40
49.940468
100
AcDbArc
 50
0.0
 51
180.0
  0
LINE
  5
D60
100
AcDbEntity
  8
LY_1
  6
CONTINUOUS
 62
   224
100
AcDbLine
 10
28862.481697
 20
6067.845059
 30
0.0
 11
28582.613842
 21
6067.845059
 31
0.0
  0
LINE
  5
D61
100
AcDbEntity
  8
LY_1
  6
CONTINUOUS
 62
   224
100
AcDbLine
 10
28862.481697
 20
5814.335108
 30
0.0
 11
28582.613842
 21
5814.335108
 31
0.0
  0
LINE
  5
D62
100
AcDbEntity
  8
LY_1
  6
CONTINUOUS
 62
   224
100
AcDbLine
 10
28862.481697
 20
5864.1746
 30
0.0
 11
28582.613842
 21
5864.1746
 31
0.0
  0
POINT
  5
D63
100
AcDbEntity
  8
LY_1
  6
CONTINUOUS
 62
    20
100
AcDbPoint
 10
28722.562644
 20
6133.158391
 30
0.0
  0
LINE
  5
D64
100
AcDbEntity
  8
LY_1
  6
CONTINUOUS
 62
   224
100
AcDbLine
 10
28672.622176
 20
6133.158391
 30
0.0
 11
28672.622176
 21
6077.9093
 31
0.0
  0
CIRCLE
  5
D65
100
AcDbEntity
  8
LY_1
  6
CONTINUOUS
 62
   224
100
AcDbCircle
 10
28722.562644
 20
6133.158391
 30
0.0
 40
17.999947
  0
LINE
  5
D66
100
AcDbEntity
  8
LY_1
  6
CONTINUOUS
 62
   224
100
AcDbLine
 10
28592.677087
 20
6077.9093
 30
0.0
 11
28582.613842
 21
6067.845059
 31
0.0
  0
LINE
  5
D67
100
AcDbEntity
  8
LY_1
  6
CONTINUOUS
 62
   224
100
AcDbLine
 10
28772.503113
 20
6133.158391
 30
0.0
 11
28772.503113
 21
6077.9093
 31
0.0
  0
LINE
  5
D68
100
AcDbEntity
  8
LY_1
  6
CONTINUOUS
 62
   224
100
AcDbLine
 10
28862.481697
 20
6067.845059
 30
0.0
 11
28852.418412
 21
6077.9093
 31
0.0
  0
MTEXT
  5
D69
100
AcDbEntity
  8
LY_1
  6
CONTINUOUS
 62
     7
100
AcDbMText
 10
24675.50075
 20
14454.939558
 30
0.0
 40
1000.0
 41
0.0
 71
     7
 72
     1
  1
\W0.888;\A1;FLJ0003
  7
MX_NOTE_STANDARD
1001
ACAD
1000
MTEXTBEGIN
1070
    73
1070
     1
1070
    44
1040
0.66
1070
    74
1070
     0
1000
MTEXTEND
  0
ARC
  5
D6A
100
AcDbEntity
  8
LY_1
  6
CONTINUOUS
 62
   195
100
AcDbCircle
 10
26160.53255
 20
17932.996996
 30
0.0
 40
159.0
100
AcDbArc
 50
80.392652
 51
218.491507
  0
LINE
  5
D6B
100
AcDbEntity
  8
LY_1
  6
CONTINUOUS
 62
     7
100
AcDbLine
 10
25514.531057
 20
24577.858313
 30
0.0
 11
25514.531057
 21
21577.858313
 31
0.0
  0
LINE
  5
D6C
100
AcDbEntity
  8
LY_1
  6
CONTINUOUS
 62
    46
100
AcDbLine
 10
18944.53255
 20
17390.996996
 30
0.0
 11
21019.53255
 21
17390.996996
 31
0.0
  0
ELLIPSE
  5
D6D
100
AcDbEntity
  8
LY_1
  6
CONTINUOUS
 62
    46
100
AcDbEllipse
 10
18731.417553
 20
17591.496996
 30
0.0
 11
-585.0000000000007
 21
0.0000000000000716
 31
0.0
210
0.0
220
0.0
230
1.0
 40
0.344444
 41
0.2802792298552674
 42
1.549622354823546
  0
LINE
  5
D6E
100
AcDbEntity
  8
LY_1
  6
CONTINUOUS
 62
    46
100
AcDbLine
 10
18725.555549
 20
17197.021744
 30
0.0
 11
18166.314284
 21
17439.642722
 31
0.0
  0
LINE
  5
D6F
100
AcDbEntity
  8
LY_1
  6
CONTINUOUS
 62
    46
100
AcDbLine
 10
18158.172612
 20
17443.174901
 30
0.0
 11
17958.357519
 21
17529.862591
 31
0.0
  0
LINE
  5
D70
100
AcDbEntity
  8
LY_1
  6
CONTINUOUS
 62
    46
100
AcDbLine
 10
17958.357519
 20
17539.996996
 30
0.0
 11
18158.172612
 21
17539.996996
 31
0.0
  0
LINE
  5
D71
100
AcDbEntity
  8
LY_1
  6
CONTINUOUS
 62
    46
100
AcDbLine
 10
17958.357519
 20
17529.862591
 30
0.0
 11
17958.357519
 21
17539.996996
 31
0.0
  0
SPLINE
  5
D72
100
AcDbEntity
  8
LY_1
  6
CONTINUOUS
 62
    46
100
AcDbSpline
210
0.0
220
0.0
230
-1.0
 70
     8
 71
     3
 72
    20
 73
    16
 74
    14
 42
0.0000001
 43
0.0000001
 44
0.000001
 12
-0.7500804552127596
 22
0.6613465889439663
 32
0.0
 13
-0.944175726680219
 23
0.3294422516130564
 33
0.0
 40
0.0
 40
0.0
 40
0.0
 40
0.0
 40
1.030900335867465
 40
2.026004131924401
 40
2.986049636799156
 40
3.911906054382252
 40
4.271330115364949
 40
4.626440761881062
 40
4.977316248330803
 40
5.324038373255746
 40
5.66669248046672
 40
6.005367570950924
 40
6.340156424766389
 40
7.241492900462821
 40
8.116347302616317
 40
8.116347302616317
 40
8.116347302616317
 40
8.116347302616317
 10
18169.24528671753
 20
17535.75726133143
 30
0.0
 10
18168.98753398646
 20
17535.98452213831
 30
0.0
 10
18168.47290296035
 20
17536.42206959903
 30
0.0
 10
18167.6930425901
 20
17537.04088363668
 30
0.0
 10
18166.91889307606
 20
17537.60954627975
 30
0.0
 10
18166.29859807587
 20
17538.02876378776
 30
0.0
 10
18165.83666849689
 20
17538.3213911247
 30
0.0
 10
18165.53344670846
 20
17538.50630140618
 30
0.0
 10
18165.23070070657
 20
17538.68375601359
 30
0.0
 10
18164.92846029667
 20
17538.85375560352
 30
0.0
 10
18164.62675691709
 20
17539.01629788011
 30
0.0
 10
18164.32562056553
 20
17539.17139078953
 30
0.0
 10
18163.85443589412
 20
17539.40282044046
 30
0.0
 10
18163.21186497635
 20
17539.69054695408
 30
0.0
 10
18162.6580484871
 20
17539.90092461806
 30
0.0
 10
18162.38270972347
 20
17539.99699595276
 30
0.0
 11
18169.24528671753
 21
17535.75726133143
 31
0.0
 11
18168.46005621283
 21
17536.42522136936
 31
0.0
 11
18167.68006697533
 21
17537.04316013231
 31
0.0
 11
18166.90601471742
 21
17537.61107762025
 31
0.0
 11
18166.13855625748
 21
17538.12897383317
 31
0.0
 11
18165.83491065567
 21
17538.32128786228
 31
0.0
 11
18165.53170961653
 21
17538.50614584627
 31
0.0
 11
18165.22898525336
 21
17538.6835477851
 31
0.0
 11
18164.926769162
 21
17538.85349367878
 31
0.0
 11
18164.62509242194
 21
17539.01598352734
 31
0.0
 11
18164.32398559739
 21
17539.17101733075
 31
0.0
 11
18164.02347873857
 21
17539.31859508905
 31
0.0
 11
18163.20041777201
 21
17539.68598869157
 31
0.0
 11
18162.38270972347
 21
17539.99699595276
 31
0.0
  0
LINE
  5
D73
100
AcDbEntity
  8
LY_1
  6
CONTINUOUS
 62
    46
100
AcDbLine
 10
18163.864085
 20
17448.684536
 30
0.0
 11
18163.864085
 21
17531.874911
 31
0.0
  0
LINE
  5
D74
100
AcDbEntity
  8
LY_1
  6
CONTINUOUS
 62
    46
100
AcDbLine
 10
18158.172612
 20
17443.174901
 30
0.0
 11
18166.314284
 21
17439.642722
 31
0.0
  0
LINE
  5
D75
100
AcDbEntity
  8
LY_1
  6
CONTINUOUS
 62
    46
100
AcDbLine
 10
18162.382709
 20
17539.996996
 30
0.0
 11
18158.172612
 21
17539.996996
 31
0.0
  0
LINE
  5
D76
100
AcDbEntity
  8
LY_1
  6
CONTINUOUS
 62
    46
100
AcDbLine
 10
18735.53255
 20
17199.519032
 30
0.0
 11
18735.53255
 21
17641.496996
 31
0.0
  0
LINE
  5
D77
100
AcDbEntity
  8
LY_1
  6
CONTINUOUS
 62
    46
100
AcDbLine
 10
18726.53255
 20
17199.519032
 30
0.0
 11
18726.53255
 21
17641.496996
 31
0.0
  0
LINE
  5
D78
100
AcDbEntity
  8
LY_1
  6
CONTINUOUS
 62
    46
100
AcDbLine
 10
18935.53255
 20
17232.996996
 30
0.0
 11
18935.53255
 21
17591.496996
 31
0.0
  0
LINE
  5
D79
100
AcDbEntity
  8
LY_1
  6
CONTINUOUS
 62
    46
100
AcDbLine
 10
18944.53255
 20
17232.996996
 30
0.0
 11
18944.53255
 21
17591.496996
 31
0.0
  0
LINE
  5
D7B
100
AcDbEntity
  8
LY_1
  6
CONTINUOUS
 62
    46
100
AcDbLine
 10
18823.290957
 20
17145.60098
 30
0.0
 11
18750.732131
 21
17176.520081
 31
0.0
  0
LINE
  5
D7C
100
AcDbEntity
  8
LY_1
  6
CONTINUOUS
 62
    46
100
AcDbLine
 10
18735.53255
 20
17390.996996
 30
0.0
 11
18935.53255
 21
17390.996996
 31
0.0
  0
LINE
  5
D7F
100
AcDbEntity
  8
LY_1
  6
CONTINUOUS
 62
    46
100
AcDbLine
 10
18726.53255
 20
17379.999525
 30
0.0
 11
18719.031705
 21
17390.042165
 31
0.0
  0
LINE
  5
D80
100
AcDbEntity
  8
LY_1
  6
CONTINUOUS
 62
    46
100
AcDbLine
 10
18726.53255
 20
17379.999525
 30
0.0
 11
18726.53255
 21
17197.021744
 31
0.0
  0
LINE
  5
D81
100
AcDbEntity
  8
LY_1
  6
CONTINUOUS
 62
    46
100
AcDbLine
 10
18726.53255
 20
17197.021744
 30
0.0
 11
18725.555549
 21
17197.021744
 31
0.0
  0
ARC
  5
D82
100
AcDbEntity
  8
LY_1
  6
CONTINUOUS
 62
    46
100
AcDbCircle
 10
18760.53255
 20
17199.519032
 30
0.0
 40
34.0
100
AcDbArc
 50
180.0
 51
246.919953
  0
ARC
  5
D83
100
AcDbEntity
  8
LY_1
  6
CONTINUOUS
 62
    46
100
AcDbCircle
 10
18760.53255
 20
17199.519032
 30
0.0
 40
25.0
100
AcDbArc
 50
180.0
 51
246.919953
  0
LINE
  5
D84
100
AcDbEntity
  8
LY_1
  6
CONTINUOUS
 62
    46
100
AcDbLine
 10
18747.20398
 20
17168.240458
 30
0.0
 11
18759.603141
 21
17162.95687
 31
0.0
  0
LINE
  5
D85
100
AcDbEntity
  8
LY_1
  6
CONTINUOUS
 62
    46
100
AcDbLine
 10
18763.131292
 20
17171.236493
 30
0.0
 11
18759.603141
 21
17162.95687
 31
0.0
  0
LINE
  5
D86
100
AcDbEntity
  8
LY_1
  6
CONTINUOUS
 62
    46
100
AcDbLine
 10
18955.53255
 20
17232.996996
 30
0.0
 11
18955.53255
 21
17304.996997
 31
0.0
  0
LINE
  5
D87
100
AcDbEntity
  8
LY_1
  6
CONTINUOUS
 62
    46
100
AcDbLine
 10
19035.53255
 20
17384.996996
 30
0.0
 11
19040.53255
 21
17384.996996
 31
0.0
  0
ARC
  5
D88
100
AcDbEntity
  8
LY_1
  6
CONTINUOUS
 62
    46
100
AcDbCircle
 10
19035.53255
 20
17304.996996
 30
0.0
 40
80.0
100
AcDbArc
 50
90.0
 51
180.0
  0
LINE
  5
D89
100
AcDbEntity
  8
LY_1
  6
CONTINUOUS
 62
    46
100
AcDbLine
 10
19040.53255
 20
17384.996996
 30
0.0
 11
19040.53255
 21
17390.996996
 31
0.0
  0
LINE
  5
D8A
100
AcDbEntity
  8
LY_1
  6
CONTINUOUS
 62
    46
100
AcDbLine
 10
18935.53255
 20
17232.996996
 30
0.0
 11
18944.53255
 21
17232.996996
 31
0.0
  0
POINT
  5
D8B
100
AcDbEntity
  8
LY_1
  6
CONTINUOUS
 62
    20
100
AcDbPoint
 10
18860.532462
 20
17232.996983
 30
0.0
  0
CIRCLE
  5
D8C
100
AcDbEntity
  8
LY_1
  6
CONTINUOUS
 62
    46
100
AcDbCircle
 10
18860.532462
 20
17232.996983
 30
0.0
 40
50.0
  0
ARC
  5
D8D
100
AcDbEntity
  8
LY_1
  6
CONTINUOUS
 62
    46
100
AcDbCircle
 10
18860.53255
 20
17232.996996
 30
0.0
 40
95.0
100
AcDbArc
 50
246.919953
 51
0.0
  0
LINE
  5
D8E
100
AcDbEntity
  8
LY_1
  6
CONTINUOUS
 62
    46
100
AcDbLine
 10
18726.53255
 20
17641.496996
 30
0.0
 11
18735.53255
 21
17641.496996
 31
0.0
  0
LINE
  5
D8F
100
AcDbEntity
  8
LY_1
  6
CONTINUOUS
 62
    46
100
AcDbLine
 10
18726.53255
 20
17631.496996
 30
0.0
 11
18735.53255
 21
17631.496996
 31
0.0
  0
LINE
  5
D90
100
AcDbEntity
  8
LY_1
  6
CONTINUOUS
 62
    46
100
AcDbLine
 10
18935.53255
 20
17591.496996
 30
0.0
 11
18944.53255
 21
17591.496996
 31
0.0
  0
LINE
  5
D91
100
AcDbEntity
  8
LY_1
  6
CONTINUOUS
 62
    46
100
AcDbLine
 10
18935.53255
 20
17581.496996
 30
0.0
 11
18944.53255
 21
17581.496996
 31
0.0
  0
CIRCLE
  5
D95
100
AcDbEntity
  8
LY_1
  6
CONTINUOUS
 62
    46
100
AcDbCircle
 10
21260.53255
 20
17932.996996
 30
0.0
 40
76.2
  0
CIRCLE
  5
D96
100
AcDbEntity
  8
LY_1
  6
CONTINUOUS
 62
    46
100
AcDbCircle
 10
21260.53255
 20
17932.996996
 30
0.0
 40
57.5
  0
LINE
  5
D97
100
AcDbEntity
  8
LY_1
  6
CONTINUOUS
 62
    46
100
AcDbLine
 10
21395.53255
 20
17880.656239
 30
0.0
 11
21395.53255
 21
17983.854861
 31
0.0
  0
LINE
  5
D98
100
AcDbEntity
  8
LY_1
  6
CONTINUOUS
 62
    46
100
AcDbLine
 10
21166.53255
 20
17937.312288
 30
0.0
 11
21166.53255
 21
18087.996996
 31
0.0
  0
LINE
  5
D99
100
AcDbEntity
  8
LY_1
  6
CONTINUOUS
 62
    46
100
AcDbLine
 10
21160.53255
 20
17937.188119
 30
0.0
 11
21160.53255
 21
18087.996996
 31
0.0
  0
LINE
  5
D9A
100
AcDbEntity
  8
LY_1
  6
CONTINUOUS
 62
    46
100
AcDbLine
 10
21157.542609
 20
17423.996996
 30
0.0
 11
21194.552668
 21
17494.996996
 31
0.0
  0
LINE
  5
D9B
100
AcDbEntity
  8
LY_1
  6
CONTINUOUS
 62
    46
100
AcDbLine
 10
21019.53255
 20
17684.681705
 30
0.0
 11
21019.53255
 21
17382.996996
 31
0.0
  0
LINE
  5
D9C
100
AcDbEntity
  8
LY_1
  6
CONTINUOUS
 62
    46
100
AcDbLine
 10
21025.53255
 20
17684.681705
 30
0.0
 11
21025.53255
 21
17382.996996
 31
0.0
  0
LINE
  5
D9D
100
AcDbEntity
  8
LY_1
  6
CONTINUOUS
 62
    46
100
AcDbLine
 10
21019.53255
 20
17395.996996
 30
0.0
 11
21019.53255
 21
17691.496996
 31
0.0
  0
LINE
  5
D9E
100
AcDbEntity
  8
LY_1
  6
CONTINUOUS
 62
    46
100
AcDbLine
 10
21120.53255
 20
17397.496996
 30
0.0
 11
21120.53255
 21
17390.996996
 31
0.0
  0
LINE
  5
D9F
100
AcDbEntity
  8
LY_1
  6
CONTINUOUS
 62
    46
100
AcDbLine
 10
21120.53255
 20
17397.496996
 30
0.0
 11
21157.542609
 21
17423.996996
 31
0.0
  0
LINE
  5
DA0
100
AcDbEntity
  8
LY_1
  6
CONTINUOUS
 62
    46
100
AcDbLine
 10
21019.53255
 20
17382.996996
 30
0.0
 11
21025.53255
 21
17382.996996
 31
0.0
  0
LINE
  5
DA1
100
AcDbEntity
  8
LY_1
  6
CONTINUOUS
 62
    46
100
AcDbLine
 10
21025.53255
 20
17390.996996
 30
0.0
 11
21120.53255
 21
17390.996996
 31
0.0
  0
LINE
  5
DA2
100
AcDbEntity
  8
LY_1
  6
CONTINUOUS
 62
    46
100
AcDbLine
 10
21030.53255
 20
17418.631641
 30
0.0
 11
21141.460799
 21
17418.631641
 31
0.0
  0
LINE
  5
DA3
100
AcDbEntity
  8
LY_1
  6
CONTINUOUS
 62
    46
100
AcDbLine
 10
21231.099798
 20
17590.688134
 30
0.0
 11
21394.211645
 21
17875.689015
 31
0.0
  0
POINT
  5
DA4
100
AcDbEntity
  8
LY_1
  6
CONTINUOUS
 62
    20
100
AcDbPoint
 10
21260.53255
 20
17932.996996
 30
0.0
  0
ARC
  5
DA5
100
AcDbEntity
  8
LY_1
  6
CONTINUOUS
 62
    46
100
AcDbCircle
 10
21144.53255
 20
17937.312288
 30
0.0
 40
22.0
100
AcDbArc
 50
329.812283
 51
0.0
  0
ARC
  5
DA6
100
AcDbEntity
  8
LY_1
  6
CONTINUOUS
 62
    46
100
AcDbCircle
 10
21144.53255
 20
17937.312288
 30
0.0
 40
16.0
100
AcDbArc
 50
329.812283
 51
0.0
  0
LINE
  5
DA7
100
AcDbEntity
  8
LY_1
  6
CONTINUOUS
 62
    46
100
AcDbLine
 10
21146.853187
 20
17590.688134
 30
0.0
 11
21225.338829
 21
17590.688134
 31
0.0
  0
LINE
  5
DA8
100
AcDbEntity
  8
LY_1
  6
CONTINUOUS
 62
    46
100
AcDbLine
 10
21194.552668
 20
17494.996996
 30
0.0
 11
21231.099798
 21
17590.688134
 31
0.0
  0
ARC
  5
DA9
100
AcDbEntity
  8
LY_1
  6
CONTINUOUS
 62
    46
100
AcDbCircle
 10
21150.53255
 20
17937.188119
 30
0.0
 40
10.0
100
AcDbArc
 50
329.875682
 51
0.0
  0
LINE
  5
DAA
100
AcDbEntity
  8
LY_1
  6
CONTINUOUS
 62
    46
100
AcDbLine
 10
21159.181935
 20
17932.169341
 30
0.0
 11
21118.357501
 21
17861.812338
 31
0.0
  0
CIRCLE
  5
DAB
100
AcDbEntity
  8
LY_1
  6
CONTINUOUS
 62
    46
100
AcDbCircle
 10
21101.53255
 20
17632.996996
 30
0.0
 40
37.5
  0
ARC
  5
DAC
100
AcDbEntity
  8
LY_1
  6
CONTINUOUS
 62
    46
100
AcDbCircle
 10
21041.53255
 20
17684.681705
 30
0.0
 40
22.0
100
AcDbArc
 50
149.812283
 51
180.0
  0
ARC
  5
DAD
100
AcDbEntity
  8
LY_1
  6
CONTINUOUS
 62
    46
100
AcDbCircle
 10
21041.53255
 20
17684.681705
 30
0.0
 40
16.0
100
AcDbArc
 50
149.812283
 51
180.0
  0
LINE
  5
DAE
100
AcDbEntity
  8
LY_1
  6
CONTINUOUS
 62
    46
100
AcDbLine
 10
21030.53255
 20
17590.688134
 30
0.0
 11
21056.211912
 21
17590.688134
 31
0.0
  0
CIRCLE
  5
DAF
100
AcDbEntity
  8
LY_1
  6
CONTINUOUS
 62
    46
100
AcDbCircle
 10
21101.53255
 20
17632.996996
 30
0.0
 40
57.0
  0
LINE
  5
DB0
100
AcDbEntity
  8
LY_1
  6
CONTINUOUS
 62
    46
100
AcDbLine
 10
21030.53255
 20
17491.87707
 30
0.0
 11
21187.287819
 21
17491.87707
 31
0.0
  0
LINE
  5
DB1
100
AcDbEntity
  8
LY_1
  6
CONTINUOUS
 62
    46
100
AcDbLine
 10
21022.516132
 20
17695.744067
 30
0.0
 11
21158.362672
 21
17929.266933
 31
0.0
  0
LINE
  5
DB2
100
AcDbEntity
  8
LY_1
  6
CONTINUOUS
 62
    46
100
AcDbLine
 10
21027.702428
 20
17692.727059
 30
0.0
 11
21163.548967
 21
17926.249925
 31
0.0
  0
LINE
  5
DB3
100
AcDbEntity
  8
LY_1
  6
CONTINUOUS
 62
    46
100
AcDbLine
 10
21118.357501
 20
17861.812338
 30
0.0
 11
21019.53255
 21
17691.496996
 31
0.0
  0
ARC
  5
DB4
100
AcDbEntity
  8
LY_1
  6
CONTINUOUS
 62
    46
100
AcDbCircle
 10
21385.53255
 20
17880.656239
 30
0.0
 40
10.0
100
AcDbArc
 50
330.216609
 51
0.0
  0
LINE
  5
DB5
100
AcDbEntity
  8
LY_1
  6
CONTINUOUS
 62
    46
100
AcDbLine
 10
21060.53255
 20
18093.996996
 30
0.0
 11
21295.53255
 21
18093.996996
 31
0.0
  0
LINE
  5
DB6
100
AcDbEntity
  8
LY_1
  6
CONTINUOUS
 62
    46
100
AcDbLine
 10
21060.53255
 20
18087.996996
 30
0.0
 11
21295.53255
 21
18087.996996
 31
0.0
  0
LINE
  5
DB7
100
AcDbEntity
  8
LY_1
  6
CONTINUOUS
 62
    46
100
AcDbLine
 10
21150.53255
 20
18087.996996
 30
0.0
 11
21150.53255
 21
18093.996996
 31
0.0
  0
LINE
  5
DB8
100
AcDbEntity
  8
LY_1
  6
CONTINUOUS
 62
    46
100
AcDbLine
 10
21160.53255
 20
18056.613338
 30
0.0
 11
21160.53255
 21
18084.496996
 31
0.0
  0
LINE
  5
DB9
100
AcDbEntity
  8
LY_1
  6
CONTINUOUS
 62
    46
100
AcDbLine
 10
21060.53255
 20
18087.996996
 30
0.0
 11
21060.53255
 21
18093.996996
 31
0.0
  0
ARC
  5
DBA
100
AcDbEntity
  8
LY_1
  6
CONTINUOUS
 62
    46
100
AcDbCircle
 10
21385.53255
 20
17983.854861
 30
0.0
 40
10.0
100
AcDbArc
 50
0.0
 51
45.0
  0
LINE
  5
DBB
100
AcDbEntity
  8
LY_1
  6
CONTINUOUS
 62
    46
100
AcDbLine
 10
21295.53255
 20
18093.996996
 30
0.0
 11
21295.53255
 21
18087.996996
 31
0.0
  0
LINE
  5
DBC
100
AcDbEntity
  8
LY_1
  6
CONTINUOUS
 62
    46
100
AcDbLine
 10
21392.603618
 20
17990.925928
 30
0.0
 11
21295.53255
 21
18087.996996
 31
0.0
  0
ARC
  5
DBD
100
AcDbEntity
  8
LY_1
  6
CONTINUOUS
 62
   195
100
AcDbCircle
 10
27730.53255
 20
17930.496996
 30
0.0
 40
35.0
100
AcDbArc
 50
115.376934
 51
244.623066
  0
LINE
  5
DBE
100
AcDbEntity
  8
LY_1
  6
CONTINUOUS
 62
   195
100
AcDbLine
 10
27005.673284
 20
17951.668785
 30
0.0
 11
27015.53255
 21
17959.996996
 31
0.0
  0
CIRCLE
  5
DBF
100
AcDbEntity
  8
LY_1
  6
CONTINUOUS
 62
   195
100
AcDbCircle
 10
27360.53255
 20
17932.996996
 30
0.0
 40
37.5
  0
CIRCLE
  5
DC0
100
AcDbEntity
  8
LY_1
  6
CONTINUOUS
 62
   195
100
AcDbCircle
 10
27360.53255
 20
17932.996996
 30
0.0
 40
47.5
  0
ARC
  5
DC1
100
AcDbEntity
  8
LY_1
  6
CONTINUOUS
 62
   195
100
AcDbCircle
 10
27360.53255
 20
17932.996996
 30
0.0
 40
95.0
100
AcDbArc
 50
85.65177
 51
225.0
  0
LINE
  5
DC2
100
AcDbEntity
  8
LY_1
  6
CONTINUOUS
 62
   195
100
AcDbLine
 10
27265.53255
 20
17932.996996
 30
0.0
 11
27265.53255
 21
18007.996996
 31
0.0
  0
LINE
  5
DC3
100
AcDbEntity
  8
LY_1
  6
CONTINUOUS
 62
   195
100
AcDbLine
 10
26185.53255
 20
17875.169667
 30
0.0
 11
26185.53255
 21
17990.824325
 31
0.0
  0
ARC
  5
DC4
100
AcDbEntity
  8
LY_1
  6
CONTINUOUS
 62
   195
100
AcDbCircle
 10
26160.53255
 20
17932.996996
 30
0.0
 40
63.0
100
AcDbArc
 50
293.379868
 51
66.620132
  0
LINE
  5
DC5
100
AcDbEntity
  8
LY_1
  6
CONTINUOUS
 62
   195
100
AcDbLine
 10
27215.53255
 20
17967.996996
 30
0.0
 11
27215.53255
 21
17897.996996
 31
0.0
  0
LINE
  5
DC6
100
AcDbEntity
  8
LY_1
  6
CONTINUOUS
 62
   195
100
AcDbLine
 10
27015.53255
 20
18037.996996
 30
0.0
 11
27015.53255
 21
17867.996996
 31
0.0
  0
CIRCLE
  5
DC7
100
AcDbEntity
  8
LY_1
  6
CONTINUOUS
 62
   195
100
AcDbCircle
 10
26160.53255
 20
17932.996996
 30
0.0
 40
76.2
  0
ARC
  5
DC8
100
AcDbEntity
  8
LY_1
  6
CONTINUOUS
 62
   195
100
AcDbCircle
 10
26160.53255
 20
17932.996996
 30
0.0
 40
50.0
100
AcDbArc
 50
60.0
 51
300.0
  0
ARC
  5
DC9
100
AcDbEntity
  8
LY_1
  6
CONTINUOUS
 62
   195
100
AcDbCircle
 10
26160.53255
 20
17932.996996
 30
0.0
 40
51.0
100
AcDbArc
 50
60.64653
 51
299.35347
  0
LINE
  5
DCA
100
AcDbEntity
  8
LY_1
  6
CONTINUOUS
 62
   195
100
AcDbLine
 10
27015.53255
 20
17949.533528
 30
0.0
 11
26192.984735
 21
18088.765593
 31
0.0
  0
LINE
  5
DCB
100
AcDbEntity
  8
LY_1
  6
CONTINUOUS
 62
   195
100
AcDbLine
 10
27015.53255
 20
17940.405504
 30
0.0
 11
26185.56683
 21
18080.893192
 31
0.0
  0
ARC
  5
DCC
100
AcDbEntity
  8
LY_1
  6
CONTINUOUS
 62
   195
100
AcDbCircle
 10
26160.53255
 20
17932.996996
 30
0.0
 40
150.0
100
AcDbArc
 50
80.392652
 51
218.491507
  0
LINE
  5
DD0
100
AcDbEntity
  8
LY_1
  6
CONTINUOUS
 62
   195
100
AcDbLine
 10
27055.53255
 20
17827.996996
 30
0.0
 11
27331.003682
 21
17827.996996
 31
0.0
  0
LINE
  5
DD4
100
AcDbEntity
  8
LY_1
  6
CONTINUOUS
 62
   195
100
AcDbLine
 10
27104.612061
 20
16641.38608
 30
0.0
 11
27469.102122
 21
16785.337444
 31
0.0
  0
LINE
  5
DD5
100
AcDbEntity
  8
LY_1
  6
CONTINUOUS
 62
   195
100
AcDbLine
 10
27391.53255
 20
16992.996996
 30
0.0
 11
27160.53255
 21
16992.996996
 31
0.0
  0
LINE
  5
DD6
100
AcDbEntity
  8
LY_1
  6
CONTINUOUS
 62
   195
100
AcDbLine
 10
27107.918024
 20
16633.015261
 30
0.0
 11
27340.440767
 21
16724.847576
 31
0.0
  0
LINE
  5
DD7
100
AcDbEntity
  8
LY_1
  6
CONTINUOUS
 62
   195
100
AcDbLine
 10
27160.53255
 20
16992.996996
 30
0.0
 11
26983.568703
 21
16845.065266
 31
0.0
  0
LINE
  5
DD8
100
AcDbEntity
  8
LY_1
  6
CONTINUOUS
 62
   195
100
AcDbLine
 10
26036.083183
 20
17834.035615
 30
0.0
 11
26959.564195
 21
16672.707573
 31
0.0
  0
LINE
  5
DD9
100
AcDbEntity
  8
LY_1
  6
CONTINUOUS
 62
   195
100
AcDbLine
 10
26043.127487
 20
17839.637202
 30
0.0
 11
26966.608499
 21
16678.309161
 31
0.0
  0
POINT
  5
DDA
100
AcDbEntity
  8
LY_1
  6
CONTINUOUS
 62
    20
100
AcDbPoint
 10
27060.803241
 20
16752.957623
 30
0.0
  0
LINE
  5
DDB
100
AcDbEntity
  8
LY_1
  6
CONTINUOUS
 62
   195
100
AcDbLine
 10
27033.53255
 20
16695.169667
 30
0.0
 11
27033.53255
 21
16810.824325
 31
0.0
  0
LINE
  5
DDC
100
AcDbEntity
  8
LY_1
  6
CONTINUOUS
 62
   195
100
AcDbLine
 10
26944.605849
 20
16721.996996
 30
0.0
 11
26931.868198
 21
16721.996996
 31
0.0
  0
ARC
  5
DDD
100
AcDbEntity
  8
LY_1
  6
CONTINUOUS
 62
   195
100
AcDbCircle
 10
27060.53255
 20
16752.996996
 30
0.0
 40
56.0
100
AcDbArc
 50
241.174551
 51
118.825449
  0
CIRCLE
  5
DDE
100
AcDbEntity
  8
LY_1
  6
CONTINUOUS
 62
   195
100
AcDbCircle
 10
27060.53255
 20
16752.996996
 30
0.0
 40
76.2
  0
ARC
  5
DDF
100
AcDbEntity
  8
LY_1
  6
CONTINUOUS
 62
   195
100
AcDbCircle
 10
27060.53255
 20
16752.996996
 30
0.0
 40
120.0
100
AcDbArc
 50
129.893709
 51
291.551
  0
ARC
  5
DE0
100
AcDbEntity
  8
LY_1
  6
CONTINUOUS
 62
   195
100
AcDbCircle
 10
27060.53255
 20
16752.996996
 30
0.0
 40
129.0
100
AcDbArc
 50
218.491507
 51
291.551
  0
ARC
  5
DE1
100
AcDbEntity
  8
LY_1
  6
CONTINUOUS
 62
   195
100
AcDbCircle
 10
27058.53255
 20
16752.996996
 30
0.0
 40
63.0
100
AcDbArc
 50
113.379868
 51
246.620132
  0
POINT
  5
DE2
100
AcDbEntity
  8
LY_1
  6
CONTINUOUS
 62
    20
100
AcDbPoint
 10
26160.53255
 20
17932.996996
 30
0.0
  0
CIRCLE
  5
DE3
100
AcDbEntity
  8
LY_1
  6
CONTINUOUS
 62
   195
100
AcDbCircle
 10
26760.53255
 20
17532.996996
 30
0.0
 40
100.0
  0
LINE
  5
DE4
100
AcDbEntity
  8
LY_1
  6
CONTINUOUS
 62
   195
100
AcDbLine
 10
27015.287585
 20
17949.574993
 30
0.0
 11
27013.785528
 21
17940.701221
 31
0.0
  0
ARC
  5
DE5
100
AcDbEntity
  8
LY_1
  6
CONTINUOUS
 62
   195
100
AcDbCircle
 10
27055.53255
 20
17867.996996
 30
0.0
 40
40.0
100
AcDbArc
 50
180.0
 51
270.0
  0
LINE
  5
DE6
100
AcDbEntity
  8
LY_1
  6
CONTINUOUS
 62
   195
100
AcDbLine
 10
27845.53255
 20
16892.996996
 30
0.0
 11
27855.53255
 21
16887.996996
 31
0.0
  0
CIRCLE
  5
DE7
100
AcDbEntity
  8
LY_1
  6
CONTINUOUS
 62
   195
100
AcDbCircle
 10
27430.53255
 20
16882.996996
 30
0.0
 40
22.0
  0
LINE
  5
DE8
100
AcDbEntity
  8
LY_1
  6
CONTINUOUS
 62
   195
100
AcDbLine
 10
27555.53255
 20
16876.996996
 30
0.0
 11
27555.53255
 21
16892.996996
 31
0.0
  0
CIRCLE
  5
DE9
100
AcDbEntity
  8
LY_1
  6
CONTINUOUS
 62
   195
100
AcDbCircle
 10
27430.53255
 20
16882.996996
 30
0.0
 40
45.0
  0
ARC
  5
DEA
100
AcDbEntity
  8
LY_1
  6
CONTINUOUS
 62
   195
100
AcDbCircle
 10
27430.53255
 20
16882.996996
 30
0.0
 40
90.0
100
AcDbArc
 50
135.0
 51
282.749644
  0
LINE
  5
DEB
100
AcDbEntity
  8
LY_1
  6
CONTINUOUS
 62
   195
100
AcDbLine
 10
27855.53255
 20
16876.996996
 30
0.0
 11
27555.53255
 21
16876.996996
 31
0.0
  0
LINE
  5
DEC
100
AcDbEntity
  8
LY_1
  6
CONTINUOUS
 62
   195
100
AcDbLine
 10
27745.53255
 20
16861.996996
 30
0.0
 11
27450.394773
 21
16795.216064
 31
0.0
  0
LINE
  5
DED
100
AcDbEntity
  8
LY_1
  6
CONTINUOUS
 62
   195
100
AcDbLine
 10
27337.134804
 20
16733.218395
 30
0.0
 11
27340.440767
 21
16724.847576
 31
0.0
  0
ARC
  5
DEE
100
AcDbEntity
  8
LY_1
  6
CONTINUOUS
 62
   195
100
AcDbCircle
 10
27430.53255
 20
16882.996996
 30
0.0
 40
105.0
100
AcDbArc
 50
291.551
 51
313.752363
  0
LINE
  5
DEF
100
AcDbEntity
  8
LY_1
  6
CONTINUOUS
 62
   195
100
AcDbLine
 10
27745.53255
 20
16861.996996
 30
0.0
 11
27745.53255
 21
16876.996996
 31
0.0
  0
LINE
  5
DF0
100
AcDbEntity
  8
LY_1
  6
CONTINUOUS
 62
   195
100
AcDbLine
 10
27815.53255
 20
16876.996996
 30
0.0
 11
27815.53255
 21
16848.996996
 31
0.0
  0
LINE
  5
DF1
100
AcDbEntity
  8
LY_1
  6
CONTINUOUS
 62
   195
100
AcDbLine
 10
27755.53255
 20
16876.996996
 30
0.0
 11
27755.53255
 21
16848.996996
 31
0.0
  0
LINE
  5
DF2
100
AcDbEntity
  8
LY_1
  6
CONTINUOUS
 62
   195
100
AcDbLine
 10
27815.532551
 20
16848.997013
 30
0.0
 11
27805.532554
 21
16818.997016
 31
0.0
  0
LINE
  5
DF3
100
AcDbEntity
  8
LY_1
  6
CONTINUOUS
 62
   195
100
AcDbLine
 10
27805.53255
 20
16818.996996
 30
0.0
 11
27765.532546
 21
16818.996996
 31
0.0
  0
LINE
  5
DF4
100
AcDbEntity
  8
LY_1
  6
CONTINUOUS
 62
   195
100
AcDbLine
 10
27815.53255
 20
16848.996996
 30
0.0
 11
27755.53255
 21
16848.996996
 31
0.0
  0
LINE
  5
DF5
100
AcDbEntity
  8
LY_1
  6
CONTINUOUS
 62
   195
100
AcDbLine
 10
27765.532561
 20
16818.996993
 30
0.0
 11
27755.532554
 21
16848.997019
 31
0.0
  0
LINE
  5
DF6
100
AcDbEntity
  8
LY_1
  6
CONTINUOUS
 62
   195
100
AcDbLine
 10
27855.53255
 20
16876.996996
 30
0.0
 11
27855.53255
 21
16887.996996
 31
0.0
  0
LINE
  5
DF7
100
AcDbEntity
  8
LY_1
  6
CONTINUOUS
 62
   195
100
AcDbLine
 10
27550.53255
 20
17876.996996
 30
0.0
 11
27855.53255
 21
17876.996996
 31
0.0
  0
LINE
  5
DF8
100
AcDbEntity
  8
LY_1
  6
CONTINUOUS
 62
   195
100
AcDbLine
 10
27550.53255
 20
17892.996996
 30
0.0
 11
27845.53255
 21
17892.996996
 31
0.0
  0
ARC
  5
DF9
100
AcDbEntity
  8
LY_1
  6
CONTINUOUS
 62
   195
100
AcDbCircle
 10
27815.53255
 20
17017.996996
 30
0.0
 40
24.0
100
AcDbArc
 50
270.0
 51
89.999964
  0
ARC
  5
DFA
100
AcDbEntity
  8
LY_1
  6
CONTINUOUS
 62
   195
100
AcDbCircle
 10
27815.53255
 20
17017.996996
 30
0.0
 40
15.0
100
AcDbArc
 50
270.0
 51
89.999964
  0
LINE
  5
DFB
100
AcDbEntity
  8
LY_1
  6
CONTINUOUS
 62
   195
100
AcDbLine
 10
27855.53255
 20
16983.996996
 30
0.0
 11
27555.53255
 21
16983.996996
 31
0.0
  0
LINE
  5
DFC
100
AcDbEntity
  8
LY_1
  6
CONTINUOUS
 62
   195
100
AcDbLine
 10
27845.53255
 20
16967.996996
 30
0.0
 11
27555.53255
 21
16967.996996
 31
0.0
  0
LINE
  5
DFD
100
AcDbEntity
  8
LY_1
  6
CONTINUOUS
 62
   195
100
AcDbLine
 10
27845.53255
 20
16892.996996
 30
0.0
 11
27555.53255
 21
16892.996996
 31
0.0
  0
CIRCLE
  5
E01
100
AcDbEntity
  8
LY_1
  6
CONTINUOUS
 62
   195
100
AcDbCircle
 10
27560.53255
 20
17432.996996
 30
0.0
 40
50.0
  0
LINE
  5
E02
100
AcDbEntity
  8
LY_1
  6
CONTINUOUS
 62
   195
100
AcDbLine
 10
27690.53255
 20
17610.998141
 30
0.0
 11
27690.53255
 21
17264.99634
 31
0.0
  0
LINE
  5
E03
100
AcDbEntity
  8
LY_1
  6
CONTINUOUS
 62
   195
100
AcDbLine
 10
27430.53255
 20
17645.803996
 30
0.0
 11
27430.53255
 21
17093.118929
 31
0.0
  0
LINE
  5
E04
100
AcDbEntity
  8
LY_1
  6
CONTINUOUS
 62
   195
100
AcDbLine
 10
27425.53255
 20
17103.292519
 30
0.0
 11
27425.53255
 21
17644.361324
 31
0.0
  0
LINE
  5
E05
100
AcDbEntity
  8
LY_1
  6
CONTINUOUS
 62
   195
100
AcDbLine
 10
27245.53255
 20
16992.996996
 30
0.0
 11
27245.53255
 21
17827.996996
 31
0.0
  0
LINE
  5
E06
100
AcDbEntity
  8
LY_1
  6
CONTINUOUS
 62
   195
100
AcDbLine
 10
27250.53255
 20
17552.996996
 30
0.0
 11
27387.365366
 21
17279.331365
 31
0.0
  0
CIRCLE
  5
E07
100
AcDbEntity
  8
LY_1
  6
CONTINUOUS
 62
   195
100
AcDbCircle
 10
27560.53255
 20
17112.996996
 30
0.0
 40
50.0
  0
CIRCLE
  5
E08
100
AcDbEntity
  8
LY_1
  6
CONTINUOUS
 62
   195
100
AcDbCircle
 10
27560.53255
 20
17272.996996
 30
0.0
 40
50.0
  0
LINE
  5
E09
100
AcDbEntity
  8
LY_1
  6
CONTINUOUS
 62
   195
100
AcDbLine
 10
27374.853035
 20
16954.961424
 30
0.0
 11
27365.588332
 21
16945.304689
 31
0.0
  0
ARC
  5
E0A
100
AcDbEntity
  8
LY_1
  6
CONTINUOUS
 62
   195
100
AcDbCircle
 10
27230.53255
 20
17093.422963
 30
0.0
 40
200.0
100
AcDbArc
 50
316.186939
 51
0.0
  0
ELLIPSE
  5
E0B
100
AcDbEntity
  8
LY_1
  6
CONTINUOUS
 62
   195
100
AcDbEllipse
 10
27375.53255
 20
17103.292519
 30
0.0
 11
-50.0
 21
0.0000000000000061
 31
0.0
210
0.0
220
0.0
230
1.0
 40
0.939693
 41
1.875488980809684
 42
3.141592653589792
  0
ARC
  5
E0C
100
AcDbEntity
  8
LY_1
  6
CONTINUOUS
 62
   195
100
AcDbCircle
 10
27360.53255
 20
17265.914957
 30
0.0
 40
30.0
100
AcDbArc
 50
0.0
 51
26.565051
  0
LINE
  5
E0D
100
AcDbEntity
  8
LY_1
  6
CONTINUOUS
 62
   195
100
AcDbLine
 10
27391.53255
 20
16992.996996
 30
0.0
 11
27391.53255
 21
16974.768001
 31
0.0
  0
LINE
  5
E0E
100
AcDbEntity
  8
LY_1
  6
CONTINUOUS
 62
   195
100
AcDbLine
 10
27390.53255
 20
16992.996996
 30
0.0
 11
27390.53255
 21
17265.914957
 31
0.0
  0
LINE
  5
E0F
100
AcDbEntity
  8
LY_1
  6
CONTINUOUS
 62
   195
100
AcDbLine
 10
27245.53255
 20
17007.996996
 30
0.0
 11
27260.53255
 21
16992.996996
 31
0.0
  0
LINE
  5
E10
100
AcDbEntity
  8
LY_1
  6
CONTINUOUS
 62
   195
100
AcDbLine
 10
27261.53255
 20
16992.996996
 30
0.0
 11
27291.53255
 21
16962.996996
 31
0.0
  0
CIRCLE
  5
E11
100
AcDbEntity
  8
LY_1
  6
CONTINUOUS
 62
   195
100
AcDbCircle
 10
27315.53255
 20
17262.996996
 30
0.0
 40
30.0
  0
CIRCLE
  5
E12
100
AcDbEntity
  8
LY_1
  6
CONTINUOUS
 62
   195
100
AcDbCircle
 10
27315.53255
 20
17162.996996
 30
0.0
 40
30.0
  0
CIRCLE
  5
E13
100
AcDbEntity
  8
LY_1
  6
CONTINUOUS
 62
   195
100
AcDbCircle
 10
27315.53255
 20
17062.996996
 30
0.0
 40
30.0
  0
LINE
  5
E14
100
AcDbEntity
  8
LY_1
  6
CONTINUOUS
 62
   195
100
AcDbLine
 10
27382.15401
 20
16962.996996
 30
0.0
 11
27291.53255
 21
16962.996996
 31
0.0
  0
LINE
  5
E15
100
AcDbEntity
  8
LY_1
  6
CONTINUOUS
 62
   195
100
AcDbLine
 10
27715.53255
 20
16962.119773
 30
0.0
 11
27715.53255
 21
16967.996996
 31
0.0
  0
LINE
  5
E16
100
AcDbEntity
  8
LY_1
  6
CONTINUOUS
 62
   195
100
AcDbLine
 10
27715.53255
 20
16892.996996
 30
0.0
 11
27715.53255
 21
16898.87422
 31
0.0
  0
ARC
  5
E17
100
AcDbEntity
  8
LY_1
  6
CONTINUOUS
 62
   195
100
AcDbCircle
 10
27730.53255
 20
16930.496996
 30
0.0
 40
35.0
100
AcDbArc
 50
115.376934
 51
244.623066
  0
LINE
  5
E18
100
AcDbEntity
  8
LY_1
  6
CONTINUOUS
 62
   195
100
AcDbLine
 10
27745.53255
 20
16983.996996
 30
0.0
 11
27745.53255
 21
17037.997485
 31
0.0
  0
ARC
  5
E19
100
AcDbEntity
  8
LY_1
  6
CONTINUOUS
 62
   195
100
AcDbCircle
 10
27890.53255
 20
17264.99634
 30
0.0
 40
200.0
100
AcDbArc
 50
180.0
 51
195.376251
  0
LINE
  5
E1A
100
AcDbEntity
  8
LY_1
  6
CONTINUOUS
 62
   195
100
AcDbLine
 10
27697.691471
 20
17211.965043
 30
0.0
 11
27745.53255
 21
17037.997485
 31
0.0
  0
ARC
  5
E1B
100
AcDbEntity
  8
LY_1
  6
CONTINUOUS
 62
   195
100
AcDbCircle
 10
27755.53255
 20
17017.996996
 30
0.0
 40
15.0
100
AcDbArc
 50
228.189685
 51
270.0
  0
ARC
  5
E1C
100
AcDbEntity
  8
LY_1
  6
CONTINUOUS
 62
   195
100
AcDbCircle
 10
27755.53255
 20
17017.996996
 30
0.0
 40
24.0
100
AcDbArc
 50
245.375682
 51
270.0
  0
LINE
  5
E1D
100
AcDbEntity
  8
LY_1
  6
CONTINUOUS
 62
   195
100
AcDbLine
 10
27825.53255
 20
16993.996996
 30
0.0
 11
27745.53255
 21
16993.996996
 31
0.0
  0
LINE
  5
E1E
100
AcDbEntity
  8
LY_1
  6
CONTINUOUS
 62
   195
100
AcDbLine
 10
27825.53255
 20
16993.996996
 30
0.0
 11
27825.53255
 21
16983.996996
 31
0.0
  0
ARC
  5
E1F
100
AcDbEntity
  8
LY_1
  6
CONTINUOUS
 62
   195
100
AcDbCircle
 10
27755.53255
 20
17017.996996
 30
0.0
 40
24.0
100
AcDbArc
 50
90.000036
 51
115.791629
  0
ARC
  5
E20
100
AcDbEntity
  8
LY_1
  6
CONTINUOUS
 62
   195
100
AcDbCircle
 10
27755.53255
 20
17017.996996
 30
0.0
 40
15.0
100
AcDbArc
 50
90.000036
 51
131.810315
  0
LINE
  5
E21
100
AcDbEntity
  8
LY_1
  6
CONTINUOUS
 62
   195
100
AcDbLine
 10
27785.53255
 20
17002.996996
 30
0.0
 11
27785.53255
 21
16993.996996
 31
0.0
  0
LINE
  5
E22
100
AcDbEntity
  8
LY_1
  6
CONTINUOUS
 62
   195
100
AcDbLine
 10
27815.53255
 20
17032.996996
 30
0.0
 11
27755.53255
 21
17032.996996
 31
0.0
  0
LINE
  5
E23
100
AcDbEntity
  8
LY_1
  6
CONTINUOUS
 62
   195
100
AcDbLine
 10
27815.53255
 20
17041.996996
 30
0.0
 11
27755.53255
 21
17041.996996
 31
0.0
  0
LINE
  5
E24
100
AcDbEntity
  8
LY_1
  6
CONTINUOUS
 62
   195
100
AcDbLine
 10
27815.53255
 20
17002.996996
 30
0.0
 11
27755.53255
 21
17002.996996
 31
0.0
  0
LINE
  5
E25
100
AcDbEntity
  8
LY_1
  6
CONTINUOUS
 62
   195
100
AcDbLine
 10
27555.53255
 20
16967.996996
 30
0.0
 11
27555.53255
 21
16983.996996
 31
0.0
  0
CIRCLE
  5
E26
100
AcDbEntity
  8
LY_1
  6
CONTINUOUS
 62
   195
100
AcDbCircle
 10
27560.53255
 20
17752.996996
 30
0.0
 40
50.0
  0
CIRCLE
  5
E27
100
AcDbEntity
  8
LY_1
  6
CONTINUOUS
 62
   195
100
AcDbCircle
 10
27560.53255
 20
17592.996996
 30
0.0
 40
50.0
  0
ARC
  5
E28
100
AcDbEntity
  8
LY_1
  6
CONTINUOUS
 62
   195
100
AcDbCircle
 10
27230.53255
 20
17645.430783
 30
0.0
 40
200.0
100
AcDbArc
 50
0.0
 51
44.864712
  0
ELLIPSE
  5
E29
100
AcDbEntity
  8
LY_1
  6
CONTINUOUS
 62
   195
100
AcDbEllipse
 10
27375.53255
 20
17644.361324
 30
0.0
 11
-50.0
 21
0.0000000000000061
 31
0.0
210
0.0
220
0.0
230
1.0
 40
0.984808
 41
3.141592653589792
 42
3.926990817356807
  0
ARC
  5
E2A
100
AcDbEntity
  8
LY_1
  6
CONTINUOUS
 62
   195
100
AcDbCircle
 10
27275.53255
 20
17507.543887
 30
0.0
 40
20.0
100
AcDbArc
 50
290.729616
 51
0.0
  0
LINE
  5
E2B
100
AcDbEntity
  8
LY_1
  6
CONTINUOUS
 62
   195
100
AcDbLine
 10
27295.53255
 20
17507.543887
 30
0.0
 11
27295.53255
 21
17727.996996
 31
0.0
  0
ARC
  5
E2C
100
AcDbEntity
  8
LY_1
  6
CONTINUOUS
 62
   195
100
AcDbCircle
 10
27255.53255
 20
17897.996996
 30
0.0
 40
40.0
100
AcDbArc
 50
180.0
 51
270.0
  0
LINE
  5
E2D
100
AcDbEntity
  8
LY_1
  6
CONTINUOUS
 62
   195
100
AcDbLine
 10
27245.53255
 20
17812.996996
 30
0.0
 11
27260.53255
 21
17827.996996
 31
0.0
  0
ARC
  5
E2E
100
AcDbEntity
  8
LY_1
  6
CONTINUOUS
 62
   195
100
AcDbCircle
 10
27280.53255
 20
17872.996996
 30
0.0
 40
5.0
100
AcDbArc
 50
0.0
 51
36.869898
  0
LINE
  5
E2F
100
AcDbEntity
  8
LY_1
  6
CONTINUOUS
 62
   195
100
AcDbLine
 10
27285.53255
 20
17857.996996
 30
0.0
 11
27255.53255
 21
17857.996996
 31
0.0
  0
LINE
  5
E30
100
AcDbEntity
  8
LY_1
  6
CONTINUOUS
 62
   195
100
AcDbLine
 10
27285.53255
 20
17872.996996
 30
0.0
 11
27285.53255
 21
17857.996996
 31
0.0
  0
LINE
  5
E31
100
AcDbEntity
  8
LY_1
  6
CONTINUOUS
 62
   195
100
AcDbLine
 10
27245.53255
 20
17552.996996
 30
0.0
 11
27250.53255
 21
17552.996996
 31
0.0
  0
LINE
  5
E32
100
AcDbEntity
  8
LY_1
  6
CONTINUOUS
 62
   195
100
AcDbLine
 10
27245.53255
 20
17637.996996
 30
0.0
 11
27250.53255
 21
17637.996996
 31
0.0
  0
ARC
  5
E33
100
AcDbEntity
  8
LY_1
  6
CONTINUOUS
 62
   195
100
AcDbCircle
 10
27360.53255
 20
17932.996996
 30
0.0
 40
95.0
100
AcDbArc
 50
180.0
 51
216.869898
  0
LINE
  5
E34
100
AcDbEntity
  8
LY_1
  6
CONTINUOUS
 62
   195
100
AcDbLine
 10
27372.287439
 20
17786.517818
 30
0.0
 11
27293.198978
 21
17865.980655
 31
0.0
  0
LINE
  5
E35
100
AcDbEntity
  8
LY_1
  6
CONTINUOUS
 62
   195
100
AcDbLine
 10
27410.887889
 20
17679.179536
 30
0.0
 11
27317.23759
 21
17771.407076
 31
0.0
  0
LINE
  5
E36
100
AcDbEntity
  8
LY_1
  6
CONTINUOUS
 62
   195
100
AcDbLine
 10
27415.53255
 20
17451.521928
 30
0.0
 11
27301.270084
 21
17451.521928
 31
0.0
  0
LINE
  5
E37
100
AcDbEntity
  8
LY_1
  6
CONTINUOUS
 62
   195
100
AcDbLine
 10
27340.674335
 20
17818.280567
 30
0.0
 11
27250.53255
 21
17637.996996
 31
0.0
  0
POINT
  5
E38
100
AcDbEntity
  8
LY_1
  6
CONTINUOUS
 62
    20
100
AcDbPoint
 10
27785.53255
 20
17429.996996
 30
0.0
  0
LINE
  5
E39
100
AcDbEntity
  8
LY_1
  6
CONTINUOUS
 62
   195
100
AcDbLine
 10
27715.53255
 20
17892.996996
 30
0.0
 11
27715.53255
 21
17898.87422
 31
0.0
  0
ARC
  5
E3A
100
AcDbEntity
  8
LY_1
  6
CONTINUOUS
 62
   195
100
AcDbCircle
 10
27890.53255
 20
17610.998141
 30
0.0
 40
200.0
100
AcDbArc
 50
164.623749
 51
180.0
  0
LINE
  5
E3B
100
AcDbEntity
  8
LY_1
  6
CONTINUOUS
 62
   195
100
AcDbLine
 10
27745.53255
 20
17837.996996
 30
0.0
 11
27697.691471
 21
17664.029438
 31
0.0
  0
LINE
  5
E3C
100
AcDbEntity
  8
LY_1
  6
CONTINUOUS
 62
   195
100
AcDbLine
 10
27745.53255
 20
17837.996996
 30
0.0
 11
27745.53255
 21
17876.996996
 31
0.0
  0
LINE
  5
E3D
100
AcDbEntity
  8
LY_1
  6
CONTINUOUS
 62
   195
100
AcDbLine
 10
27765.532561
 20
17818.996993
 30
0.0
 11
27755.532554
 21
17848.997019
 31
0.0
  0
LINE
  5
E3E
100
AcDbEntity
  8
LY_1
  6
CONTINUOUS
 62
   195
100
AcDbLine
 10
27815.53255
 20
17848.996996
 30
0.0
 11
27755.53255
 21
17848.996996
 31
0.0
  0
LINE
  5
E3F
100
AcDbEntity
  8
LY_1
  6
CONTINUOUS
 62
   195
100
AcDbLine
 10
27815.53255
 20
17876.996996
 30
0.0
 11
27815.53255
 21
17848.996996
 31
0.0
  0
LINE
  5
E40
100
AcDbEntity
  8
LY_1
  6
CONTINUOUS
 62
   195
100
AcDbLine
 10
27815.532551
 20
17848.997013
 30
0.0
 11
27805.532554
 21
17818.997016
 31
0.0
  0
LINE
  5
E41
100
AcDbEntity
  8
LY_1
  6
CONTINUOUS
 62
   195
100
AcDbLine
 10
27805.53255
 20
17818.996996
 30
0.0
 11
27765.532546
 21
17818.996996
 31
0.0
  0
LINE
  5
E42
100
AcDbEntity
  8
LY_1
  6
CONTINUOUS
 62
   195
100
AcDbLine
 10
27755.53255
 20
17876.996996
 30
0.0
 11
27755.53255
 21
17848.996996
 31
0.0
  0
LINE
  5
E43
100
AcDbEntity
  8
LY_1
  6
CONTINUOUS
 62
   195
100
AcDbLine
 10
27550.53255
 20
17876.996996
 30
0.0
 11
27550.53255
 21
17892.996996
 31
0.0
  0
LINE
  5
E44
100
AcDbEntity
  8
LY_1
  6
CONTINUOUS
 62
   195
100
AcDbLine
 10
27845.53255
 20
16967.996996
 30
0.0
 11
27855.53255
 21
16972.996996
 31
0.0
  0
LINE
  5
E45
100
AcDbEntity
  8
LY_1
  6
CONTINUOUS
 62
   195
100
AcDbLine
 10
27855.53255
 20
16972.996996
 30
0.0
 11
27855.53255
 21
16983.996996
 31
0.0
  0
LINE
  5
E46
100
AcDbEntity
  8
LY_1
  6
CONTINUOUS
 62
   195
100
AcDbLine
 10
27845.53255
 20
17892.996996
 30
0.0
 11
27855.53255
 21
17887.996996
 31
0.0
  0
LINE
  5
E47
100
AcDbEntity
  8
LY_1
  6
CONTINUOUS
 62
   195
100
AcDbLine
 10
27855.53255
 20
17876.996996
 30
0.0
 11
27855.53255
 21
17887.996996
 31
0.0
  0
LINE
  5
E48
100
AcDbEntity
  8
LY_1
  6
CONTINUOUS
 62
   195
100
AcDbLine
 10
27207.71964
 20
18536.466679
 30
0.0
 11
27200.534705
 21
18531.04665
 31
0.0
  0
LINE
  5
E49
100
AcDbEntity
  8
LY_1
  6
CONTINUOUS
 62
   195
100
AcDbLine
 10
27144.73128
 20
18442.038555
 30
0.0
 11
27325.473407
 21
18128.984007
 31
0.0
  0
CIRCLE
  5
E4A
100
AcDbEntity
  8
LY_1
  6
CONTINUOUS
 62
   195
100
AcDbCircle
 10
27188.03255
 20
18467.038555
 30
0.0
 40
30.25
  0
CIRCLE
  5
E4B
100
AcDbEntity
  8
LY_1
  6
CONTINUOUS
 62
   195
100
AcDbCircle
 10
27188.03255
 20
18467.038555
 30
0.0
 40
20.0
  0
ARC
  5
E4C
100
AcDbEntity
  8
LY_1
  6
CONTINUOUS
 62
   195
100
AcDbCircle
 10
27090.53255
 20
18132.996996
 30
0.0
 40
145.0
100
AcDbArc
 50
323.622451
 51
39.928192
  0
ARC
  5
E4D
100
AcDbEntity
  8
LY_1
  6
CONTINUOUS
 62
   195
100
AcDbCircle
 10
27200.53255
 20
18189.354491
 30
0.0
 40
40.0
100
AcDbArc
 50
0.0
 51
119.538782
  0
ARC
  5
E4E
100
AcDbEntity
  8
LY_1
  6
CONTINUOUS
 62
   195
100
AcDbCircle
 10
27188.03255
 20
18467.038555
 30
0.0
 40
145.0
100
AcDbArc
 50
125.937772
 51
279.828729
  0
CIRCLE
  5
E4F
100
AcDbEntity
  8
LY_1
  6
CENTER
 62
   205
100
AcDbCircle
 10
27188.03255
 20
18467.038555
 30
0.0
 40
132.0
  0
LINE
  5
E50
100
AcDbEntity
  8
LY_1
  6
CONTINUOUS
 62
   195
100
AcDbLine
 10
26495.53255
 20
18046.996996
 30
0.0
 11
27310.53255
 21
18046.996996
 31
0.0
  0
LINE
  5
E51
100
AcDbEntity
  8
LY_1
  6
CONTINUOUS
 62
   195
100
AcDbLine
 10
27507.669668
 20
18123.900344
 30
0.0
 11
27131.657902
 21
18622.351579
 31
0.0
  0
ARC
  5
E52
100
AcDbEntity
  8
LY_1
  6
CONTINUOUS
 62
   195
100
AcDbCircle
 10
27188.03255
 20
18467.038555
 30
0.0
 40
145.0
100
AcDbArc
 50
330.40433
 51
107.476579
  0
LINE
  5
E53
100
AcDbEntity
  8
LY_1
  6
CONTINUOUS
 62
   195
100
AcDbLine
 10
26495.53255
 20
18037.996996
 30
0.0
 11
27353.779064
 21
18037.996996
 31
0.0
  0
ARC
  5
E54
100
AcDbEntity
  8
LY_1
  6
CONTINUOUS
 62
   195
100
AcDbCircle
 10
26610.53255
 20
18086.996996
 30
0.0
 40
63.6
100
AcDbArc
 50
90.0
 51
180.0
  0
ARC
  5
E55
100
AcDbEntity
  8
LY_1
  6
CONTINUOUS
 62
   195
100
AcDbCircle
 10
26610.53255
 20
18086.996996
 30
0.0
 40
36.4
100
AcDbArc
 50
90.0
 51
180.0
  0
ARC
  5
E56
100
AcDbEntity
  8
LY_1
  6
CONTINUOUS
 62
   195
100
AcDbCircle
 10
26370.53255
 20
18454.497106
 30
0.0
 40
262.5
100
AcDbArc
 50
285.013559
 51
79.451803
  0
ARC
  5
E57
100
AcDbEntity
  8
LY_1
  6
CONTINUOUS
 62
   195
100
AcDbCircle
 10
26370.53255
 20
18454.497106
 30
0.0
 40
45.0
100
AcDbArc
 50
117.266044
 51
62.733956
  0
ARC
  5
E58
100
AcDbEntity
  8
LY_1
  6
CONTINUOUS
 62
   195
100
AcDbCircle
 10
26370.53255
 20
18454.497106
 30
0.0
 40
262.5
100
AcDbArc
 50
100.548197
 51
254.986441
  0
LINE
  5
E59
100
AcDbEntity
  8
LY_1
  6
CONTINUOUS
 62
   195
100
AcDbLine
 10
26432.53255
 20
18154.497106
 30
0.0
 11
26432.53255
 21
18675.094121
 31
0.0
  0
LINE
  5
E5A
100
AcDbEntity
  8
LY_1
  6
CONTINUOUS
 62
   195
100
AcDbLine
 10
26308.53255
 20
18154.497106
 30
0.0
 11
26308.53255
 21
18675.094121
 31
0.0
  0
LINE
  5
E5B
100
AcDbEntity
  8
LY_1
  6
CONTINUOUS
 62
   195
100
AcDbLine
 10
26438.53255
 20
18154.497106
 30
0.0
 11
26438.53255
 21
18658.974718
 31
0.0
  0
LINE
  5
E5C
100
AcDbEntity
  8
LY_1
  6
CONTINUOUS
 62
   195
100
AcDbLine
 10
26302.53255
 20
18154.497106
 30
0.0
 11
26302.53255
 21
18658.974718
 31
0.0
  0
LINE
  5
E5D
100
AcDbEntity
  8
LY_1
  6
CONTINUOUS
 62
   195
100
AcDbLine
 10
26187.068887
 20
18089.766964
 30
0.0
 11
26185.56683
 21
18080.893192
 31
0.0
  0
LINE
  5
E5E
100
AcDbEntity
  8
LY_1
  6
CONTINUOUS
 62
   195
100
AcDbLine
 10
26186.067516
 20
18083.851116
 30
0.0
 11
26192.984735
 21
18088.765593
 31
0.0
  0
LINE
  5
E5F
100
AcDbEntity
  8
LY_1
  6
CONTINUOUS
 62
   195
100
AcDbLine
 10
26574.13255
 20
18046.996996
 30
0.0
 11
26574.13255
 21
18086.996996
 31
0.0
  0
LINE
  5
E60
100
AcDbEntity
  8
LY_1
  6
CONTINUOUS
 62
   195
100
AcDbLine
 10
26546.93255
 20
18046.996996
 30
0.0
 11
26546.93255
 21
18086.996996
 31
0.0
  0
LINE
  5
E61
100
AcDbEntity
  8
LY_1
  6
CONTINUOUS
 62
   195
100
AcDbLine
 10
26437.53255
 20
18129.497106
 30
0.0
 11
26447.53255
 21
18119.497106
 31
0.0
  0
LINE
  5
E62
100
AcDbEntity
  8
LY_1
  6
CONTINUOUS
 62
   195
100
AcDbLine
 10
26555.53255
 20
18037.996996
 30
0.0
 11
26555.53255
 21
18027.996996
 31
0.0
  0
LINE
  5
E63
100
AcDbEntity
  8
LY_1
  6
CONTINUOUS
 62
   195
100
AcDbLine
 10
26495.53255
 20
18037.996996
 30
0.0
 11
26495.53255
 21
18046.996996
 31
0.0
  0
LINE
  5
E64
100
AcDbEntity
  8
LY_1
  6
CONTINUOUS
 62
   195
100
AcDbLine
 10
26447.53255
 20
18046.497106
 30
0.0
 11
26447.53255
 21
18119.497106
 31
0.0
  0
ARC
  5
E65
100
AcDbEntity
  8
LY_1
  6
CONTINUOUS
 62
   195
100
AcDbCircle
 10
26437.53255
 20
18119.497106
 30
0.0
 40
10.0
100
AcDbArc
 50
0.0
 51
90.0
  0
LINE
  5
E66
100
AcDbEntity
  8
LY_1
  6
CONTINUOUS
 62
   195
100
AcDbLine
 10
26456.53255
 20
18046.497106
 30
0.0
 11
26456.53255
 21
18119.497106
 31
0.0
  0
ARC
  5
E67
100
AcDbEntity
  8
LY_1
  6
CONTINUOUS
 62
   195
100
AcDbCircle
 10
26437.53255
 20
18119.497106
 30
0.0
 40
19.0
100
AcDbArc
 50
0.0
 51
90.0
  0
LINE
  5
E68
100
AcDbEntity
  8
LY_1
  6
CONTINUOUS
 62
   195
100
AcDbLine
 10
26447.53255
 20
18046.497106
 30
0.0
 11
26456.53255
 21
18046.497106
 31
0.0
  0
ARC
  5
E69
100
AcDbEntity
  8
LY_1
  6
CONTINUOUS
 62
   195
100
AcDbCircle
 10
26420.920049
 20
18163.906009
 30
0.0
 40
4.591096
100
AcDbArc
 50
41.046459
 51
138.953478
  0
ARC
  5
E6A
100
AcDbEntity
  8
LY_1
  6
CONTINUOUS
 62
   195
100
AcDbCircle
 10
26400.145051
 20
18163.906009
 30
0.0
 40
4.591096
100
AcDbArc
 50
41.046479
 51
138.953478
  0
ARC
  5
E6B
100
AcDbEntity
  8
LY_1
  6
CONTINUOUS
 62
   195
100
AcDbCircle
 10
26410.53255
 20
18152.497106
 30
0.0
 40
16.0
100
AcDbArc
 50
64.353769
 51
115.64614
  0
LINE
  5
E6C
100
AcDbEntity
  8
LY_1
  6
CONTINUOUS
 62
   195
100
AcDbLine
 10
26410.53255
 20
18154.497106
 30
0.0
 11
26408.223149
 21
18158.497106
 31
0.0
  0
LINE
  5
E6D
100
AcDbEntity
  8
LY_1
  6
CONTINUOUS
 62
   195
100
AcDbLine
 10
26410.53255
 20
18158.497105
 30
0.0
 11
26412.841951
 21
18154.497106
 31
0.0
  0
LINE
  5
E6E
100
AcDbEntity
  8
LY_1
  6
CONTINUOUS
 62
   195
100
AcDbLine
 10
26403.607551
 20
18166.920849
 30
0.0
 11
26403.607551
 21
18158.497106
 31
0.0
  0
LINE
  5
E6F
100
AcDbEntity
  8
LY_1
  6
CONTINUOUS
 62
   195
100
AcDbLine
 10
26417.457549
 20
18166.920849
 30
0.0
 11
26417.457549
 21
18158.497106
 31
0.0
  0
LINE
  5
E70
100
AcDbEntity
  8
LY_1
  6
CONTINUOUS
 62
   195
100
AcDbLine
 10
26396.53255
 20
18158.497106
 30
0.0
 11
26396.53255
 21
18154.497106
 31
0.0
  0
LINE
  5
E71
100
AcDbEntity
  8
LY_1
  6
CONTINUOUS
 62
   195
100
AcDbLine
 10
26424.53255
 20
18158.497106
 30
0.0
 11
26424.53255
 21
18154.497106
 31
0.0
  0
LINE
  5
E72
100
AcDbEntity
  8
LY_1
  6
CONTINUOUS
 62
   195
100
AcDbLine
 10
26396.68255
 20
18166.920849
 30
0.0
 11
26396.68255
 21
18158.497106
 31
0.0
  0
LINE
  5
E73
100
AcDbEntity
  8
LY_1
  6
CONTINUOUS
 62
   195
100
AcDbLine
 10
26424.382549
 20
18166.920849
 30
0.0
 11
26424.382549
 21
18158.497106
 31
0.0
  0
LINE
  5
E74
100
AcDbEntity
  8
LY_1
  6
CONTINUOUS
 62
   195
100
AcDbLine
 10
26400.145051
 20
18168.497106
 30
0.0
 11
26420.920049
 21
18168.497106
 31
0.0
  0
LINE
  5
E75
100
AcDbEntity
  8
LY_1
  6
CONTINUOUS
 62
   195
100
AcDbLine
 10
26396.53255
 20
18158.497106
 30
0.0
 11
26424.53255
 21
18158.497106
 31
0.0
  0
LINE
  5
E76
100
AcDbEntity
  8
LY_1
  6
CONTINUOUS
 62
   195
100
AcDbLine
 10
26445.53255
 20
18138.497106
 30
0.0
 11
26445.53255
 21
18154.497106
 31
0.0
  0
LINE
  5
E77
100
AcDbEntity
  8
LY_1
  6
CONTINUOUS
 62
   195
100
AcDbLine
 10
26297.53255
 20
18119.497106
 30
0.0
 11
26307.53255
 21
18129.497106
 31
0.0
  0
LINE
  5
E78
100
AcDbEntity
  8
LY_1
  6
CONTINUOUS
 62
   195
100
AcDbLine
 10
26297.53255
 20
18073.497106
 30
0.0
 11
26288.53255
 21
18073.497106
 31
0.0
  0
LINE
  5
E79
100
AcDbEntity
  8
LY_1
  6
CONTINUOUS
 62
   195
100
AcDbLine
 10
26297.53255
 20
18073.497106
 30
0.0
 11
26297.53255
 21
18119.497106
 31
0.0
  0
ARC
  5
E7A
100
AcDbEntity
  8
LY_1
  6
CONTINUOUS
 62
   195
100
AcDbCircle
 10
26307.53255
 20
18119.497106
 30
0.0
 40
10.0
100
AcDbArc
 50
90.0
 51
180.0
  0
ARC
  5
E7B
100
AcDbEntity
  8
LY_1
  6
CONTINUOUS
 62
   195
100
AcDbCircle
 10
26307.53255
 20
18119.497106
 30
0.0
 40
19.0
100
AcDbArc
 50
90.0
 51
180.0
  0
LINE
  5
E7C
100
AcDbEntity
  8
LY_1
  6
CONTINUOUS
 62
   195
100
AcDbLine
 10
26288.53255
 20
18073.497106
 30
0.0
 11
26288.53255
 21
18119.497106
 31
0.0
  0
ARC
  5
E7D
100
AcDbEntity
  8
LY_1
  6
CONTINUOUS
 62
   195
100
AcDbCircle
 10
26340.920049
 20
18163.906009
 30
0.0
 40
4.591096
100
AcDbArc
 50
41.046459
 51
138.953478
  0
ARC
  5
E7E
100
AcDbEntity
  8
LY_1
  6
CONTINUOUS
 62
   195
100
AcDbCircle
 10
26320.145051
 20
18163.906009
 30
0.0
 40
4.591096
100
AcDbArc
 50
41.046479
 51
138.953478
  0
ARC
  5
E7F
100
AcDbEntity
  8
LY_1
  6
CONTINUOUS
 62
   195
100
AcDbCircle
 10
26330.53255
 20
18152.497106
 30
0.0
 40
16.0
100
AcDbArc
 50
64.353769
 51
115.64614
  0
LINE
  5
E80
100
AcDbEntity
  8
LY_1
  6
CONTINUOUS
 62
   195
100
AcDbLine
 10
26330.53255
 20
18154.497106
 30
0.0
 11
26328.223149
 21
18158.497106
 31
0.0
  0
LINE
  5
E81
100
AcDbEntity
  8
LY_1
  6
CONTINUOUS
 62
   195
100
AcDbLine
 10
26330.53255
 20
18158.497105
 30
0.0
 11
26332.841951
 21
18154.497106
 31
0.0
  0
LINE
  5
E82
100
AcDbEntity
  8
LY_1
  6
CONTINUOUS
 62
   195
100
AcDbLine
 10
26323.607551
 20
18166.920849
 30
0.0
 11
26323.607551
 21
18158.497106
 31
0.0
  0
LINE
  5
E83
100
AcDbEntity
  8
LY_1
  6
CONTINUOUS
 62
   195
100
AcDbLine
 10
26337.457549
 20
18166.920849
 30
0.0
 11
26337.457549
 21
18158.497106
 31
0.0
  0
LINE
  5
E84
100
AcDbEntity
  8
LY_1
  6
CONTINUOUS
 62
   195
100
AcDbLine
 10
26316.53255
 20
18158.497106
 30
0.0
 11
26316.53255
 21
18154.497106
 31
0.0
  0
LINE
  5
E85
100
AcDbEntity
  8
LY_1
  6
CONTINUOUS
 62
   195
100
AcDbLine
 10
26344.53255
 20
18158.497106
 30
0.0
 11
26344.53255
 21
18154.497106
 31
0.0
  0
LINE
  5
E86
100
AcDbEntity
  8
LY_1
  6
CONTINUOUS
 62
   195
100
AcDbLine
 10
26316.68255
 20
18166.920849
 30
0.0
 11
26316.68255
 21
18158.497106
 31
0.0
  0
LINE
  5
E87
100
AcDbEntity
  8
LY_1
  6
CONTINUOUS
 62
   195
100
AcDbLine
 10
26344.382549
 20
18166.920849
 30
0.0
 11
26344.382549
 21
18158.497106
 31
0.0
  0
LINE
  5
E88
100
AcDbEntity
  8
LY_1
  6
CONTINUOUS
 62
   195
100
AcDbLine
 10
26320.145051
 20
18168.497106
 30
0.0
 11
26340.920049
 21
18168.497106
 31
0.0
  0
LINE
  5
E89
100
AcDbEntity
  8
LY_1
  6
CONTINUOUS
 62
   195
100
AcDbLine
 10
26316.53255
 20
18158.497106
 30
0.0
 11
26344.53255
 21
18158.497106
 31
0.0
  0
LINE
  5
E8A
100
AcDbEntity
  8
LY_1
  6
CONTINUOUS
 62
   195
100
AcDbLine
 10
26295.53255
 20
18138.497106
 30
0.0
 11
26295.53255
 21
18154.497106
 31
0.0
  0
LINE
  5
E8B
100
AcDbEntity
  8
LY_1
  6
CONTINUOUS
 62
   195
100
AcDbLine
 10
26307.53255
 20
18138.497106
 30
0.0
 11
26437.53255
 21
18138.497106
 31
0.0
  0
LINE
  5
E8C
100
AcDbEntity
  8
LY_1
  6
CONTINUOUS
 62
   195
100
AcDbLine
 10
26307.53255
 20
18129.497106
 30
0.0
 11
26437.53255
 21
18129.497106
 31
0.0
  0
LINE
  5
E8D
100
AcDbEntity
  8
LY_1
  6
CONTINUOUS
 62
   195
100
AcDbLine
 10
26295.53255
 20
18154.497106
 30
0.0
 11
26445.53255
 21
18154.497106
 31
0.0
  0
LINE
  5
E8E
100
AcDbEntity
  8
LY_1
  6
CONTINUOUS
 62
   195
100
AcDbLine
 10
26438.53255
 20
18594.497106
 30
0.0
 11
26432.53255
 21
18594.497106
 31
0.0
  0
LINE
  5
E8F
100
AcDbEntity
  8
LY_1
  6
CONTINUOUS
 62
   195
100
AcDbLine
 10
26397.956312
 20
18767.985507
 30
0.0
 11
26438.53255
 21
18658.974718
 31
0.0
  0
ARC
  5
E90
100
AcDbEntity
  8
LY_1
  6
CONTINUOUS
 62
   195
100
AcDbCircle
 10
26352.480611
 20
18764.497106
 30
0.0
 40
10.0
100
AcDbArc
 50
90.0
 51
159.583615
  0
LINE
  5
E91
100
AcDbEntity
  8
LY_1
  6
CONTINUOUS
 62
   195
100
AcDbLine
 10
26352.389347
 20
18774.497106
 30
0.0
 11
26388.584489
 21
18774.497106
 31
0.0
  0
CIRCLE
  5
E92
100
AcDbEntity
  8
LY_1
  6
CONTINUOUS
 62
   195
100
AcDbCircle
 10
26370.53255
 20
18744.497106
 30
0.0
 40
13.0
  0
LINE
  5
E93
100
AcDbEntity
  8
LY_1
  6
CONTINUOUS
 62
   195
100
AcDbLine
 10
26302.53255
 20
18594.497106
 30
0.0
 11
26308.53255
 21
18594.497106
 31
0.0
  0
LINE
  5
E94
100
AcDbEntity
  8
LY_1
  6
CONTINUOUS
 62
   195
100
AcDbLine
 10
26343.108788
 20
18767.985507
 30
0.0
 11
26302.53255
 21
18658.974718
 31
0.0
  0
ARC
  5
E95
100
AcDbEntity
  8
LY_1
  6
CONTINUOUS
 62
   195
100
AcDbCircle
 10
26388.584489
 20
18764.497106
 30
0.0
 40
10.0
100
AcDbArc
 50
20.416385
 51
90.0
  0
LINE
  5
E96
100
AcDbEntity
  8
LY_1
  6
CONTINUOUS
 62
   195
100
AcDbLine
 10
26345.53255
 20
18511.497106
 30
0.0
 11
26395.53255
 21
18511.497106
 31
0.0
  0
LINE
  5
E97
100
AcDbEntity
  8
LY_1
  6
CONTINUOUS
 62
   195
100
AcDbLine
 10
26349.917022
 20
18494.497106
 30
0.0
 11
26391.148078
 21
18494.497106
 31
0.0
  0
LINE
  5
E98
100
AcDbEntity
  8
LY_1
  6
CONTINUOUS
 62
   195
100
AcDbLine
 10
26345.53255
 20
18495.497106
 30
0.0
 11
26395.53255
 21
18495.497106
 31
0.0
  0
LINE
  5
E99
100
AcDbEntity
  8
LY_1
  6
CONTINUOUS
 62
   195
100
AcDbLine
 10
26345.53255
 20
18495.497106
 30
0.0
 11
26345.53255
 21
18511.497106
 31
0.0
  0
LINE
  5
E9A
100
AcDbEntity
  8
LY_1
  6
CONTINUOUS
 62
   195
100
AcDbLine
 10
26395.53255
 20
18495.497106
 30
0.0
 11
26395.53255
 21
18511.497106
 31
0.0
  0
ARC
  5
E9B
100
AcDbEntity
  8
LY_1
  6
CONTINUOUS
 62
   195
100
AcDbCircle
 10
27127.410772
 20
18502.038555
 30
0.0
 40
20.0
100
AcDbArc
 50
330.0
 51
30.0
  0
ARC
  5
E9C
100
AcDbEntity
  8
LY_1
  6
CONTINUOUS
 62
   195
100
AcDbCircle
 10
26760.53255
 20
18086.996996
 30
0.0
 40
63.6
100
AcDbArc
 50
0.0
 51
90.0
  0
ARC
  5
E9D
100
AcDbEntity
  8
LY_1
  6
CONTINUOUS
 62
   195
100
AcDbCircle
 10
26760.53255
 20
18086.996996
 30
0.0
 40
36.4
100
AcDbArc
 50
0.0
 51
90.0
  0
LINE
  5
E9E
100
AcDbEntity
  8
LY_1
  6
CONTINUOUS
 62
   195
100
AcDbLine
 10
26796.93255
 20
18046.996996
 30
0.0
 11
26796.93255
 21
18086.996996
 31
0.0
  0
LINE
  5
E9F
100
AcDbEntity
  8
LY_1
  6
CONTINUOUS
 62
   195
100
AcDbLine
 10
26824.13255
 20
18046.996996
 30
0.0
 11
26824.13255
 21
18086.996996
 31
0.0
  0
LINE
  5
EA0
100
AcDbEntity
  8
LY_1
  6
CONTINUOUS
 62
   195
100
AcDbLine
 10
26610.53255
 20
18123.396996
 30
0.0
 11
26760.53255
 21
18123.396996
 31
0.0
  0
LINE
  5
EA1
100
AcDbEntity
  8
LY_1
  6
CONTINUOUS
 62
   195
100
AcDbLine
 10
26610.53255
 20
18150.596996
 30
0.0
 11
26760.53255
 21
18150.596996
 31
0.0
  0
ARC
  5
EA2
100
AcDbEntity
  8
LY_1
  6
CONTINUOUS
 62
   195
100
AcDbCircle
 10
27188.03255
 20
18467.038555
 30
0.0
 40
50.0
100
AcDbArc
 50
150.0
 51
210.0
  0
ARC
  5
EA3
100
AcDbEntity
  8
LY_1
  6
CONTINUOUS
 62
   195
100
AcDbCircle
 10
27090.53255
 20
18132.996996
 30
0.0
 40
100.0
100
AcDbArc
 50
300.683417
 51
44.477512
  0
ARC
  5
EA4
100
AcDbEntity
  8
LY_1
  6
CONTINUOUS
 62
   195
100
AcDbCircle
 10
27090.532549
 20
18118.854861
 30
0.0
 40
19.0
100
AcDbArc
 50
45.000003
 51
135.0
  0
ARC
  5
EA5
100
AcDbEntity
  8
LY_1
  6
CONTINUOUS
 62
   195
100
AcDbCircle
 10
27090.532549
 20
18118.854861
 30
0.0
 40
10.0
100
AcDbArc
 50
45.000006
 51
135.0
  0
LINE
  5
EA6
100
AcDbEntity
  8
LY_1
  6
CONTINUOUS
 62
   195
100
AcDbLine
 10
27103.967578
 20
18132.289891
 30
0.0
 11
27167.607189
 21
18068.65028
 31
0.0
  0
LINE
  5
EA7
100
AcDbEntity
  8
LY_1
  6
CONTINUOUS
 62
   195
100
AcDbLine
 10
27097.603616
 20
18125.925929
 30
0.0
 11
27161.243227
 21
18062.286318
 31
0.0
  0
LINE
  5
EA8
100
AcDbEntity
  8
LY_1
  6
CONTINUOUS
 62
   195
100
AcDbLine
 10
27019.821871
 20
18062.286318
 30
0.0
 11
27083.461481
 21
18125.925929
 31
0.0
  0
LINE
  5
EA9
100
AcDbEntity
  8
LY_1
  6
CONTINUOUS
 62
   195
100
AcDbLine
 10
27161.885099
 20
18203.059923
 30
0.0
 11
27201.725719
 21
18226.061916
 31
0.0
  0
ARC
  5
EAA
100
AcDbEntity
  8
LY_1
  6
CONTINUOUS
 62
   195
100
AcDbCircle
 10
26950.53255
 20
18082.169703
 30
0.0
 40
10.0
100
AcDbArc
 50
119.538782
 51
180.0
  0
LINE
  5
EAB
100
AcDbEntity
  8
LY_1
  6
CONTINUOUS
 62
   195
100
AcDbLine
 10
26940.53255
 20
18046.996996
 30
0.0
 11
26940.53255
 21
18082.169703
 31
0.0
  0
LINE
  5
EAC
100
AcDbEntity
  8
LY_1
  6
CONTINUOUS
 62
   195
100
AcDbLine
 10
26954.339381
 20
18083.233347
 30
0.0
 11
26994.180001
 21
18106.23534
 31
0.0
  0
ARC
  5
EAD
100
AcDbEntity
  8
LY_1
  6
CONTINUOUS
 62
   195
100
AcDbCircle
 10
27090.53255
 20
18132.996996
 30
0.0
 40
145.0
100
AcDbArc
 50
200.071808
 51
216.377549
  0
LINE
  5
EAE
100
AcDbEntity
  8
LY_1
  6
CONTINUOUS
 62
   195
100
AcDbLine
 10
27013.45791
 20
18068.65028
 30
0.0
 11
27077.09752
 21
18132.28989
 31
0.0
  0
ARC
  5
EAF
100
AcDbEntity
  8
LY_1
  6
CONTINUOUS
 62
   195
100
AcDbCircle
 10
27090.53255
 20
18132.996996
 30
0.0
 40
100.0
100
AcDbArc
 50
195.522488
 51
239.316583
  0
LINE
  5
EB0
100
AcDbEntity
  8
LY_1
  6
CONTINUOUS
 62
   195
100
AcDbLine
 10
27180.812047
 20
18224.155378
 30
0.0
 11
26945.602424
 21
18090.869925
 31
0.0
  0
LINE
  5
EB1
100
AcDbEntity
  8
LY_1
  6
CONTINUOUS
 62
   195
100
AcDbLine
 10
27110.236393
 20
18779.414431
 30
0.0
 11
27123.392329
 21
18629.041391
 31
0.0
  0
LINE
  5
EB2
100
AcDbEntity
  8
LY_1
  6
CONTINUOUS
 62
   195
100
AcDbLine
 10
27088.32011
 20
18777.497005
 30
0.0
 11
27100.707933
 21
18635.903538
 31
0.0
  0
ARC
  5
EB3
100
AcDbEntity
  8
LY_1
  6
CONTINUOUS
 62
   195
100
AcDbCircle
 10
27099.278251
 20
18778.455718
 30
0.0
 40
11.0
100
AcDbArc
 50
5.0
 51
185.0
  0
LINE
  5
EB4
100
AcDbEntity
  8
LY_1
  6
CONTINUOUS
 62
   195
100
AcDbLine
 10
27115.739398
 20
18693.567375
 30
0.0
 11
27097.807893
 21
18691.998572
 31
0.0
  0
LINE
  5
EB5
100
AcDbEntity
  8
LY_1
  6
CONTINUOUS
 62
   195
100
AcDbLine
 10
27119.835717
 20
18646.746224
 30
0.0
 11
27101.904213
 21
18645.177421
 31
0.0
  0
ARC
  5
EB6
100
AcDbEntity
  8
LY_1
  6
CONTINUOUS
 62
   195
100
AcDbCircle
 10
27107.594728
 20
18620.36095
 30
0.0
 40
17.0
100
AcDbArc
 50
33.372287
 51
206.627713
  0
ARC
  5
EB7
100
AcDbEntity
  8
LY_1
  6
CONTINUOUS
 62
   195
100
AcDbCircle
 10
27114.094728
 20
18609.10262
 30
0.0
 40
22.0
100
AcDbArc
 50
37.029448
 51
210.0
  0
LINE
  5
EB8
100
AcDbEntity
  8
LY_1
  6
CONTINUOUS
 62
   195
100
AcDbLine
 10
27095.042169
 20
18598.10262
 30
0.0
 11
27144.73128
 21
18512.038555
 31
0.0
  0
ARC
  5
EB9
100
AcDbEntity
  8
LY_1
  6
CONTINUOUS
 62
   195
100
AcDbCircle
 10
27815.53255
 20
18017.996996
 30
0.0
 40
15.0
100
AcDbArc
 50
270.0
 51
89.999964
  0
ARC
  5
EBA
100
AcDbEntity
  8
LY_1
  6
CONTINUOUS
 62
   195
100
AcDbCircle
 10
27815.53255
 20
18017.996996
 30
0.0
 40
24.0
100
AcDbArc
 50
270.0
 51
89.999964
  0
LINE
  5
EBB
100
AcDbEntity
  8
LY_1
  6
CONTINUOUS
 62
   195
100
AcDbLine
 10
27555.53255
 20
17983.996996
 30
0.0
 11
27855.53255
 21
17983.996996
 31
0.0
  0
LINE
  5
EBC
100
AcDbEntity
  8
LY_1
  6
CONTINUOUS
 62
   195
100
AcDbLine
 10
27555.53255
 20
17967.996996
 30
0.0
 11
27845.53255
 21
17967.996996
 31
0.0
  0
LINE
  5
EBD
100
AcDbEntity
  8
LY_1
  6
CONTINUOUS
 62
   195
100
AcDbLine
 10
27511.843476
 20
18133.312003
 30
0.0
 11
27207.71964
 21
18536.466679
 31
0.0
  0
LINE
  5
EBE
100
AcDbEntity
  8
LY_1
  6
CONTINUOUS
 62
   195
100
AcDbLine
 10
27504.358382
 20
18122.3538
 30
0.0
 11
27523.152234
 21
18129.194202
 31
0.0
  0
LINE
  5
EBF
100
AcDbEntity
  8
LY_1
  6
CONTINUOUS
 62
   195
100
AcDbLine
 10
27505.132241
 20
18105.608617
 30
0.0
 11
27528.624557
 21
18114.159121
 31
0.0
  0
LINE
  5
EC0
100
AcDbEntity
  8
LY_1
  6
CONTINUOUS
 62
   195
100
AcDbLine
 10
27510.612515
 20
18107.071185
 30
0.0
 11
27525.647597
 21
18112.543507
 31
0.0
  0
LINE
  5
EC1
100
AcDbEntity
  8
LY_1
  6
CONTINUOUS
 62
   195
100
AcDbLine
 10
27745.53255
 20
17998.996996
 30
0.0
 11
27367.73527
 21
18027.723554
 31
0.0
  0
LINE
  5
EC2
100
AcDbEntity
  8
LY_1
  6
CONTINUOUS
 62
   195
100
AcDbLine
 10
27450.53255
 20
18133.618775
 30
0.0
 11
27673.720259
 21
18004.761291
 31
0.0
  0
CIRCLE
  5
EC3
100
AcDbEntity
  8
LY_1
  6
CONTINUOUS
 62
   195
100
AcDbCircle
 10
27355.53255
 20
18176.920045
 30
0.0
 40
8.0
  0
LINE
  5
EC4
100
AcDbEntity
  8
LY_1
  6
CONTINUOUS
 62
   195
100
AcDbLine
 10
27364.691428
 20
18121.113317
 30
0.0
 11
27372.176215
 21
18158.265597
 31
0.0
  0
LINE
  5
EC5
100
AcDbEntity
  8
LY_1
  6
CONTINUOUS
 62
   195
100
AcDbLine
 10
27495.983064
 20
18125.377478
 30
0.0
 11
27503.001116
 21
18123.496996
 31
0.0
  0
ARC
  5
EC6
100
AcDbEntity
  8
LY_1
  6
CONTINUOUS
 62
   195
100
AcDbCircle
 10
27415.53255
 20
18072.996996
 30
0.0
 40
96.0
100
AcDbArc
 50
33.067727
 51
116.262584
  0
LINE
  5
EC7
100
AcDbEntity
  8
LY_1
  6
CONTINUOUS
 62
   195
100
AcDbLine
 10
27501.37002
 20
18115.945236
 30
0.0
 11
27504.358382
 21
18122.3538
 31
0.0
  0
ARC
  5
EC8
100
AcDbEntity
  8
LY_1
  6
CONTINUOUS
 62
   195
100
AcDbCircle
 10
27415.53255
 20
18072.996996
 30
0.0
 40
85.0
100
AcDbArc
 50
25.439678
 51
122.888017
  0
LINE
  5
EC9
100
AcDbEntity
  8
LY_1
  6
CONTINUOUS
 62
   195
100
AcDbLine
 10
27506.465217
 20
18125.496996
 30
0.0
 11
27503.001116
 21
18123.496996
 31
0.0
  0
CIRCLE
  5
ECA
100
AcDbEntity
  8
LY_1
  6
CONTINUOUS
 62
   195
100
AcDbCircle
 10
27415.53255
 20
18072.996996
 30
0.0
 40
22.5
  0
CIRCLE
  5
ECB
100
AcDbEntity
  8
LY_1
  6
CONTINUOUS
 62
   195
100
AcDbCircle
 10
27415.53255
 20
18072.996996
 30
0.0
 40
38.15
  0
LINE
  5
ECC
100
AcDbEntity
  8
LY_1
  6
CONTINUOUS
 62
   195
100
AcDbLine
 10
27501.37002
 20
18115.945236
 30
0.0
 11
27505.132241
 21
18105.608617
 31
0.0
  0
LINE
  5
ECD
100
AcDbEntity
  8
LY_1
  6
CONTINUOUS
 62
   195
100
AcDbLine
 10
27510.862972
 20
18126.309246
 30
0.0
 11
27507.669668
 21
18123.900344
 31
0.0
  0
LINE
  5
ECE
100
AcDbEntity
  8
LY_1
  6
CONTINUOUS
 62
   195
100
AcDbLine
 10
27511.843476
 20
18133.312003
 30
0.0
 11
27510.862972
 21
18126.309246
 31
0.0
  0
LINE
  5
ECF
100
AcDbEntity
  8
LY_1
  6
CONTINUOUS
 62
   195
100
AcDbLine
 10
27514.36326
 20
18096.766097
 30
0.0
 11
27510.612515
 21
18107.071185
 31
0.0
  0
LINE
  5
ED0
100
AcDbEntity
  8
LY_1
  6
CONTINUOUS
 62
   195
100
AcDbLine
 10
27357.437126
 20
18027.946553
 30
0.0
 11
27349.754066
 21
18049.055586
 31
0.0
  0
CIRCLE
  5
ED1
100
AcDbEntity
  8
LY_1
  6
CONTINUOUS
 62
   195
100
AcDbCircle
 10
27415.53255
 20
18072.996996
 30
0.0
 40
38.15
  0
LINE
  5
ED2
100
AcDbEntity
  8
LY_1
  6
CONTINUOUS
 62
   195
100
AcDbLine
 10
27328.164723
 20
18376.801461
 30
0.0
 11
27320.979788
 21
18371.381432
 31
0.0
  0
ARC
  5
ED3
100
AcDbEntity
  8
LY_1
  6
CONTINUOUS
 62
   195
100
AcDbCircle
 10
27454.797523
 20
18062.029954
 30
0.0
 40
140.0
100
AcDbArc
 50
168.609525
 51
189.884581
  0
LINE
  5
ED4
100
AcDbEntity
  8
LY_1
  6
CONTINUOUS
 62
   195
100
AcDbLine
 10
27240.53255
 20
18046.996996
 30
0.0
 11
27240.53255
 21
18189.354491
 31
0.0
  0
ARC
  5
ED5
100
AcDbEntity
  8
LY_1
  6
CONTINUOUS
 62
   195
100
AcDbCircle
 10
27255.53255
 20
17967.996996
 30
0.0
 40
40.0
100
AcDbArc
 50
90.0
 51
180.0
  0
LINE
  5
ED6
100
AcDbEntity
  8
LY_1
  6
CONTINUOUS
 62
   195
100
AcDbLine
 10
27310.53255
 20
18037.996996
 30
0.0
 11
27310.53255
 21
18046.996996
 31
0.0
  0
LINE
  5
ED7
100
AcDbEntity
  8
LY_1
  6
CONTINUOUS
 62
   195
100
AcDbLine
 10
27265.53255
 20
18007.996996
 30
0.0
 11
27255.53255
 21
18007.996996
 31
0.0
  0
CIRCLE
  5
ED8
100
AcDbEntity
  8
LY_1
  6
CONTINUOUS
 62
   195
100
AcDbCircle
 10
27355.53255
 20
18176.920045
 30
0.0
 40
25.0
  0
LINE
  5
ED9
100
AcDbEntity
  8
LY_1
  6
CONTINUOUS
 62
   195
100
AcDbLine
 10
27317.554961
 20
18089.679168
 30
0.0
 11
27332.964054
 21
18166.165372
 31
0.0
  0
ARC
  5
EDA
100
AcDbEntity
  8
LY_1
  6
CONTINUOUS
 62
   195
100
AcDbCircle
 10
27415.53255
 20
18072.996996
 30
0.0
 40
70.0
100
AcDbArc
 50
60.0
 51
200.0
  0
LINE
  5
EDB
100
AcDbEntity
  8
LY_1
  6
CONTINUOUS
 62
   195
100
AcDbLine
 10
27330.53255
 20
18037.996996
 30
0.0
 11
27342.298808
 21
18026.230738
 31
0.0
  0
LINE
  5
EDC
100
AcDbEntity
  8
LY_1
  6
CONTINUOUS
 62
   195
100
AcDbLine
 10
27745.53255
 20
17983.996996
 30
0.0
 11
27745.53255
 21
17998.996996
 31
0.0
  0
LINE
  5
EDD
100
AcDbEntity
  8
LY_1
  6
CONTINUOUS
 62
   195
100
AcDbLine
 10
27825.53255
 20
17993.996996
 30
0.0
 11
27745.53255
 21
17993.996996
 31
0.0
  0
LINE
  5
EDE
100
AcDbEntity
  8
LY_1
  6
CONTINUOUS
 62
   195
100
AcDbLine
 10
27815.53255
 20
18002.996996
 30
0.0
 11
27755.53255
 21
18002.996996
 31
0.0
  0
LINE
  5
EDF
100
AcDbEntity
  8
LY_1
  6
CONTINUOUS
 62
   195
100
AcDbLine
 10
27815.53255
 20
18041.996996
 30
0.0
 11
27755.53255
 21
18041.996996
 31
0.0
  0
LINE
  5
EE0
100
AcDbEntity
  8
LY_1
  6
CONTINUOUS
 62
   195
100
AcDbLine
 10
27815.53255
 20
18032.996996
 30
0.0
 11
27755.53255
 21
18032.996996
 31
0.0
  0
LINE
  5
EE1
100
AcDbEntity
  8
LY_1
  6
CONTINUOUS
 62
   195
100
AcDbLine
 10
27825.53255
 20
17993.996996
 30
0.0
 11
27825.53255
 21
17983.996996
 31
0.0
  0
LINE
  5
EE2
100
AcDbEntity
  8
LY_1
  6
CONTINUOUS
 62
   195
100
AcDbLine
 10
27785.53255
 20
18002.996996
 30
0.0
 11
27785.53255
 21
17993.996996
 31
0.0
  0
ARC
  5
EE3
100
AcDbEntity
  8
LY_1
  6
CONTINUOUS
 62
   195
100
AcDbCircle
 10
27755.53255
 20
18017.996996
 30
0.0
 40
24.0
100
AcDbArc
 50
90.000036
 51
230.834672
  0
ARC
  5
EE4
100
AcDbEntity
  8
LY_1
  6
CONTINUOUS
 62
   195
100
AcDbCircle
 10
27755.53255
 20
18017.996996
 30
0.0
 40
15.0
100
AcDbArc
 50
90.000036
 51
270.0
  0
ARC
  5
EE5
100
AcDbEntity
  8
LY_1
  6
CONTINUOUS
 62
   195
100
AcDbCircle
 10
27755.53255
 20
18017.996996
 30
0.0
 40
24.0
100
AcDbArc
 50
245.375682
 51
270.0
  0
LINE
  5
EE6
100
AcDbEntity
  8
LY_1
  6
CONTINUOUS
 62
   195
100
AcDbLine
 10
27523.152234
 20
18129.194202
 30
0.0
 11
27528.624557
 21
18114.159121
 31
0.0
  0
LINE
  5
EE7
100
AcDbEntity
  8
LY_1
  6
CONTINUOUS
 62
   195
100
AcDbLine
 10
27535.920002
 20
18084.320306
 30
0.0
 11
27525.647597
 21
18112.543507
 31
0.0
  0
LINE
  5
EE8
100
AcDbEntity
  8
LY_1
  6
CONTINUOUS
 62
   195
100
AcDbLine
 10
27555.53255
 20
17967.996996
 30
0.0
 11
27555.53255
 21
17983.996996
 31
0.0
  0
LINE
  5
EE9
100
AcDbEntity
  8
LY_1
  6
CONTINUOUS
 62
   195
100
AcDbLine
 10
27715.53255
 20
17962.119773
 30
0.0
 11
27715.53255
 21
17967.996996
 31
0.0
  0
LINE
  5
EEA
100
AcDbEntity
  8
LY_1
  6
CONTINUOUS
 62
   195
100
AcDbLine
 10
27855.53255
 20
17972.996996
 30
0.0
 11
27845.53255
 21
17967.996996
 31
0.0
  0
LINE
  5
EEB
100
AcDbEntity
  8
LY_1
  6
CONTINUOUS
 62
   195
100
AcDbLine
 10
27855.53255
 20
17972.996996
 30
0.0
 11
27855.53255
 21
17983.996996
 31
0.0
  0
ENDSEC
  0
SECTION
  2
OBJECTS
  0
DICTIONARY
  5
C
100
AcDbDictionary
  3
ACAD_GROUP
350
D
  3
ACAD_MLINESTYLE
350
1B
  3
CONTENTDICTIONARY
350
F4D
  0
DICTIONARY
  5
D
102
{ACAD_REACTORS
330
C
102
}
100
AcDbDictionary
  0
DICTIONARY
  5
1B
102
{ACAD_REACTORS
330
C
102
}
100
AcDbDictionary
  3
STANDARD
350
1C
  0
DICTIONARY
  5
F4D
102
{ACAD_REACTORS
330
C
102
}
100
AcDbDictionary
  0
MLINESTYLE
  5
1C
102
{ACAD_REACTORS
330
1B
102
}
100
AcDbMlineStyle
  2
STANDARD
 70
     0
  3

 62
   256
 51
90.0
 52
90.0
 71
     2
 49
0.5
 62
   256
  6
BYLAYER
 49
-0.5
 62
   256
  6
BYLAYER
  0
ENDSEC
  0
EOF
